#TITLE:Nyan CoreCat;
#SUBTITLE:;
#ARTIST:K.H.D.;
#TITLETRANSLIT:;
#SUBTITLETRANSLIT:;
#ARTISTTRANSLIT:;
#CREDIT:Rynker;
#BANNER:Bn-Nyan.png;
#BACKGROUND:Bg-Nyan.png;
#LYRICSPATH:;
#CDTITLE:;
#MUSIC:Nyan CoreCat (K.H.D. Remix).ogg;
#OFFSET:-0.025;
#SAMPLESTART:24.019;
#SAMPLELENGTH:12.000;
#SELECTABLE:YES;
#DISPLAYBPM:160.000;
#BPMS:0.000=160.000;
#STOPS:;
#BGCHANGES:;
// cache tags:
#FIRSTBEAT:16.000;
#LASTBEAT:386.500;
#SONGFILENAME:Songs/SPEEEDCOOOORE/Nyan CoreCat - [Rynker]/Nyan CoreCat.sm;
#HASMUSIC:1;
#HASBANNER:1;
#MUSICLENGTH:146.271;
// end cache tags

//---------------dance-single - Rynker----------------
#NOTES:
     dance-single:
     Rynker:
     Challenge:
     13:
     1.000,1.000,0.007,0.082,1.000,1272.000,1.000,12.000,44.000,0.000:

0000
0000
0000
0000
,
0000
0000
0000
0000
,
0000
0000
0000
0000
,
0000
0000
0000
0000
,
0001
0000
0100
0000
0010
1000
0000
1000
0001
0100
0001
0000
1000
0000
0100
0000
,
0010
0000
0001
1000
0010
1000
0010
0100
0001
0100
0010
1000
0001
1000
0001
0010
,
0100
1000
0100
0000
1000
0010
1000
0010
0100
0001
0100
0001
0100
0010
1000
0001
,
2000
0000
3200
0000
0320
0000
0032
0003
,
1001
0000
1000
0010
0100
0000
0001
0010
0100
1000
0001
0100
0010
1000
0010
0100
,
0001
0000
0001
0000
1000
0100
0010
0100
1000
0001
0100
0010
0100
0001
1000
0100
,
0010
M00M
0010
0100
0001
0000
1000
0100
0010
0100
1000
0001
0100
0010
1000
0001
,
0010
0000
0100
0000
1000
0000
1000
0000
0001
0000
0001
0000
0100
0000
0010
1000
,
0100
M00M
0100
0001
1000
0000
0100
0010
0001
1000
0001
0100
0010
1000
0010
1000
,
0001
0000
0000
0000
0001
0000
0000
0000
0010
0000
0100
0000
1000
0000
0001
0000
0100
0000
0010
0000
1000
0000
0100
0000
0010
0000
0100
0000
1000
0000
0001
1000
,
0001
0000
0100
0010
0100
0000
0001
0000
1000
0000
0100
0000
0010
0000
0001
0000
,
0100
0000
0001
0000
0100
0000
0001
0000
1000
0000
0010
0000
1000
0000
0001
0000
0010
0000
0001
0000
0010
0000
0100
0000
1000
0000
0001
0100
0001
0000
0100
0000
,
0001
1000
0001
0000
0010
0100
0000
0100
1000
0001
0100
0000
0010
0000
1000
0000
,
0100
0000
0010
0001
0100
0010
1000
0100
0010
0100
1000
0010
0100
0001
0100
0001
,
1000
0100
1000
0000
0100
0010
0001
0100
0010
0100
0001
1000
0100
0010
0001
1000
,
0001
0000
0001
0100
0010
1000
0010
0100
0001
0100
0010
0000
1000
0000
1000
0000
,
0100
0010
0100
0000
1000
0001
0000
0001
0100
0010
0100
0000
0001
0000
0010
0000
,
0010
0000
0000
0000
0100
0000
0010
0000
0100
0000
1000
0000
0010
0000
0100
0000
0001
0000
1000
0000
0010
0000
1000
0000
0100
0000
0010
0000
0001
0000
1000
0001
,
1000
0000
0001
0000
0100
0010
0100
0001
1000
0100
0010
0001
1000
0001
0100
0010
,
0100
0000
0000
0000
0100
0000
0001
0000
1000
0000
0100
0000
0010
0000
0001
0000
0100
0000
0010
0000
0100
0000
0001
0000
1000
0001
1000
0000
0001
0000
0010
0000
,
0100
M00M
0100
0001
0010
0000
0100
1000
0001
0100
0010
0100
0001
0010
0100
1000
,
0001
0000
0001
0000
1000
0010
0100
0001
0010
0100
1000
0010
1000
0001
0010
0100
,
0010
M00M
0010
1000
0001
0000
0100
0001
0010
0100
0010
0001
1000
0001
0100
0001
,
0100
0000
0010
0000
0010
0000
1000
0000
0200
0300
0200
0300
0200
0300
0010
0100
,
0010
M00M
0010
1000
0001
0000
1000
0010
0100
0001
0010
0100
1000
0100
0010
0001
,
0100
0000
0000
0000
0100
0000
0000
0000
0001
0000
0010
0000
0100
0000
1000
0000
0001
0000
0100
0000
0010
0000
0100
0000
0001
0000
1000
0000
0100
0000
0010
0001
,
0010
M00M
0010
1000
0001
0000
0100
0001
0100
0010
1000
0001
0010
0100
0010
0001
,
0100
0000
0001
0000
0100
0000
0001
0000
1000
0000
0001
0000
1000
0000
0100
0000
2000
0000
0000
0000
3000
0000
0000
0000
0100
1000
0100
0000
1000
0000
0001
0000
,
1000
0001
1000
0000
0100
0010
0000
0010
0001
1000
0010
0000
0100
0000
0001
0000
,
0010
0000
0100
1000
0010
0100
0001
0010
0100
0010
0001
0100
0010
1000
0010
1000
,
0001
0010
0001
0000
0010
0100
1000
0010
0100
0010
1000
0001
0010
0100
1000
0001
,
1000
0000
1000
0010
0100
0001
0100
0010
1000
0010
0100
0000
0001
0000
0001
0000
,
0010
0100
0010
0000
0001
1000
0000
1000
0010
0100
0010
0000
1000
0000
0100
0000
,
0100
0000
0010
0100
0010
0001
0100
0010
1000
0001
0100
0001
0010
0100
1000
0001
,
1000
0000
1000
0000
0010
0100
0010
1000
0001
0010
0100
1000
0001
1000
0010
0100
,
0010
0000
0000
0000
0010
0000
1000
0000
0001
0000
0010
0000
0100
0000
1000
0000
0010
0000
0100
0000
0010
0000
1000
0000
0001
1000
0001
0000
1000
0000
0100
0000
,
0010
M00M
0010
1000
0100
0000
0010
0001
1000
0010
0100
0010
1000
0100
0010
0001
,
1000
0000
1000
0000
0001
0100
0010
1000
0100
0010
0001
0100
0001
1000
0100
0010
,
0100
M00M
0100
0001
1000
0000
0010
1000
0100
0010
0100
1000
0001
1000
0010
1000
,
0010
0100
0001
0100
0001
0010
0100
0010
0100
0010
0100
1000
0001
0000
0001
1000
,
0010
M00M
0010
0001
1000
0000
0001
0100
0010
1000
0100
0010
0001
0010
0100
1000
,
0010
0000
0010
0000
1000
0100
0010
0001
1000
0010
0100
0010
1000
0001
0010
0100
,
0010
M00M
0010
1000
0001
0000
0001
1000
0010
0100
0001
1000
0100
0010
0100
1000
,
0010
0000
1000
0000
0010
0000
1000
0000
0001
0000
1000
0000
0001
0000
0010
0000
0002
0000
0000
0000
0003
0000
0000
0000
0010
0001
0010
0000
0001
0000
1000
0000
,
0001
1000
0001
0000
0010
0100
0000
0100
1000
0001
0100
0000
0010
0000
1000
0000
,
0100
0000
0000
0000
0010
0000
0001
0000
0100
0000
0010
0000
1000
0000
0100
0000
0010
0000
0100
0000
1000
0000
0010
0000
0100
0000
0001
0000
0100
0000
0001
1000
,
0001
1000
0100
0000
0010
0100
1000
0010
0100
0010
1000
0001
0010
0100
1000
0001
,
1000
0000
0000
0000
1000
0000
0010
0000
0100
0000
0001
0000
0100
0000
0010
0000
1000
0000
0010
0000
0100
0000
0000
0000
0001
0010
0001
0000
0010
0000
0001
1000
,
0001
0000
1000
0000
0001
1000
0000
1000
0010
0100
0010
0000
1000
0000
0100
0000
,
0100
0000
0010
0100
0010
0001
0100
0010
1000
0001
0100
0001
0010
0100
1000
0001
,
1000
0000
0001
0000
0100
0010
0100
0001
1000
0100
0010
0001
1000
0001
0100
0010
,
0100
0000
0100
0001
1000
0100
0010
0001
0100
0010
0100
0001
1000
0001
0010
0100
,
0010
M00M
0010
1000
0001
0000
0010
0001
1000
0010
0100
0010
1000
0100
0010
0001
,
1000
0000
0000
0000
1000
0000
0000
0000
0001
0000
0100
0000
0010
0000
1000
0000
0100
0000
0010
0000
0001
0000
0100
0000
0001
0000
1000
0000
0100
0000
0010
0100
,
0010
M00M
0010
1000
0001
0000
0100
0001
0010
0100
0010
0001
1000
0001
0100
0001
,
0100
0000
0001
0000
1000
0000
0100
0000
1000
0000
0100
0000
0010
0000
0001
0000
0010
0000
0001
0000
1000
0000
0010
0000
0100
0010
0100
0000
0001
0000
1000
0000
,
0100
M00M
0100
0010
1000
0000
0001
0100
0010
1000
0100
0010
0001
0010
0100
1000
,
0010
0000
0000
0000
0010
0000
0000
0000
1000
0000
0100
0000
0010
0000
0001
0000
1000
0000
0010
0000
0100
0000
0010
0000
1000
0000
0001
0000
0010
0000
0100
1000
,
0100
M00M
0100
0001
1000
0000
0010
1000
0010
0100
0001
1000
0100
0010
0100
1000
,
0010
0000
1000
0000
0010
0000
1000
0000
0001
0000
1000
0000
0001
0000
0010
0000
0002
0000
0000
0000
0003
0000
0000
0000
0010
0001
0010
0000
0001
0000
1000
0000
,
0001
1000
0001
0000
0010
0100
0000
0100
1000
0001
0100
0000
0010
0000
1000
0000
,
0100
0000
0010
0001
0100
0010
1000
0100
0010
0100
1000
0010
0100
0001
0100
0001
,
1000
0100
1000
0000
0100
0010
0001
0100
0010
0100
0001
1000
0100
0010
0001
1000
,
0001
0000
0001
0100
0010
1000
0010
0100
0001
0100
0010
0000
1000
0000
0010
0000
,
0100
0010
1000
0000
0001
1000
0000
1000
0010
0100
0010
0000
1000
0000
0100
0000
,
0100
0000
0000
0000
0010
0000
0100
0000
0010
0000
0001
0000
0100
0000
0010
0000
1000
0000
0001
0000
0100
0000
0001
0000
0010
0000
0100
0000
1000
0000
0001
1000
,
0001
0000
1000
0000
0010
0100
0010
1000
0001
0010
0100
1000
0001
1000
0010
0100
,
0010
0000
0000
0000
0010
0000
1000
0000
0001
0000
0010
0000
0100
0000
1000
0000
0010
0000
0100
0000
0010
0000
1000
0000
0001
1000
0001
0000
1000
0000
0100
0000
,
0010
M00M
0010
1000
0100
0000
0010
0001
1000
0010
0100
0010
1000
0100
0010
0001
,
1000
0000
1000
0000
0001
0100
0010
1000
0100
0010
0001
0100
0001
1000
0100
0010
,
0100
M00M
0100
0001
1000
0000
0010
1000
0100
0010
0100
1000
0001
1000
0010
1000
,
0010
1000
0001
0010
0001
0010
0100
1000
0100
1000
0001
0100
0010
1000
0001
0010
,
0100
M00M
0100
0001
0010
0000
0001
0100
0010
1000
0100
0010
0001
0010
0100
1000
,
0010
0000
0000
0000
0010
0000
0000
0000
1000
0000
0100
0000
0010
0000
0001
0000
1000
0000
0010
0000
0100
0000
0010
0000
1000
0000
0001
0000
0010
0000
0100
1000
,
0100
M00M
0100
0001
1000
0000
0010
1000
0010
0100
0001
1000
0100
0010
0100
1000
,
0010
0000
1000
0000
0010
0000
1000
0000
0001
0000
1000
0000
0001
0000
0010
0000
0001
0000
0010
0000
0100
0000
1000
0000
0100
1000
0100
0000
1000
0000
0001
0000
,
0100
0001
1000
0000
0100
0010
0000
0010
0001
1000
0010
0000
0100
0000
0001
0000
,
0010
0000
0100
1000
0010
0100
0001
0010
0100
0010
0001
0100
0010
1000
0010
1000
,
0001
0010
0001
0000
0010
0100
1000
0010
0100
0010
1000
0001
0010
0100
1000
0001
,
1000
0000
1000
0010
0100
0001
0100
0010
1000
0010
0100
0000
0001
0000
0001
0000
,
1000
0010
1000
0000
0001
1000
0000
1000
0010
0100
0010
0000
1000
0000
0100
0000
,
0100
0000
0000
0000
0010
0000
0100
0000
0010
0000
0001
0000
0100
0000
0010
0000
1000
0000
0001
0000
0100
0000
0001
0000
0010
0000
0100
0000
1000
0000
0001
1000
,
0001
0000
1000
0000
0010
0100
0010
1000
0001
0010
0100
1000
0001
1000
0010
0100
,
0010
0000
0000
0000
0010
0000
1000
0000
0001
0000
0010
0000
0100
0000
1000
0000
0010
0000
0100
0000
0010
0000
1000
0000
0001
1000
0001
0000
1000
0000
0100
0000
,
0010
M00M
0010
1000
0100
0000
0010
0001
1000
0010
0100
0010
1000
0100
0010
0001
,
1000
0000
1000
0000
0001
0100
0010
1000
0100
0010
0001
0100
0001
1000
0100
0010
,
0100
M00M
0100
0001
1000
0000
0010
1000
0100
0010
0100
1000
0001
1000
0010
1000
,
0010
1000
0001
0010
0001
0010
0100
1000
0100
1000
0001
0100
0010
1000
0001
0010
,
0100
M00M
0100
0001
0010
0000
0001
0100
0010
1000
0100
0010
0001
0010
0100
1000
,
0010
0000
0010
0000
1000
0100
0010
0001
1000
0010
0100
0010
1000
0001
0010
0100
,
0010
M00M
0010
1000
0100
0000
1000
0001
0100
0010
1000
0001
0010
0100
0010
0001
,
0100
0000
0001
0000
0100
0000
0001
0000
1000
0000
0001
0000
1000
0000
0100
0000
2000
0000
0000
0000
3000
0000
0000
0000
0100
1000
0100
0000
1000
0000
0001
0000
,
0200
0000
0000
0000
0000
0300
0000
0000
;
