#TITLE:Downfall;
#SUBTITLE:Hatebreeder (1999);
#ARTIST:Children of Bodom;
#TITLETRANSLIT:;
#SUBTITLETRANSLIT:;
#ARTISTTRANSLIT:;
#CREDIT:SulferDragon;
#BANNER:Downfall-banner.png;
#BACKGROUND:Downfall-bg.png;
#LYRICSPATH:;
#CDTITLE:!SulferDragon.png;
#MUSIC:09 - Downfall.mp3;
#OFFSET:-0.114;
#SAMPLESTART:240.672;
#SAMPLELENGTH:15.660;
#SELECTABLE:YES;
#BPMS:0.000=198.990,16.000=198.200,48.000=199.250,80.000=198.990,144.000=197.030,146.000=198.650,172.000=201.490,175.000=199.000,240.000=199.050,272.000=199.000,344.000=199.010,480.000=199.810,512.000=198.990,572.000=197.790,576.000=198.990;
#STOPS:;
#BGCHANGES:;
// cache tags:
#FIRSTBEAT:12.000;
#LASTBEAT:900.500;
#SONGFILENAME:Songs/toune 5/Downfall (SulferDragon)/09 - Downfall.sm;
#HASMUSIC:1;
#HASBANNER:1;
#MUSICLENGTH:273.823;
// end cache tags

//---------------dance-single - ----------------
#NOTES:
     dance-single:
     :
     Hard:
     12:
     1.000,1.000,1.000,0.409,0.687,1687.000,323.000,112.000,0.000,50.000:
0000
0000
0000
0000
,
0000
0000
0000
0000
,
0000
0000
0000
0000
,
0020
0000
0000
0030
1000
0000
1000
0000
0002
0000
0000
0000
0000
0003
1000
0000
,
0001
1000
1000
1000
0001
1000
1000
1000
,
0010
1000
1000
0010
1000
1000
0100
0010
,
0001
1000
1000
1000
0001
1000
1000
1000
,
0010
1000
1000
0010
1000
1000
0100
0010
,
0102
1000
1000
1000
0010
1000
1000
1000
,
0100
1000
1000
1000
1000
1000
0100
0013
,
0101
1000
1000
1000
0001
1000
1000
1000
,
0010
1000
1000
0010
1001
1001
0010
0100
,
0012
1000
1000
1000
0010
1000
1000
1000
,
0100
1000
1000
0100
1000
1000
0100
0013
,
0101
1000
1000
1000
0001
1000
1000
1000
,
0010
1000
1000
0010
1000
1000
0100
0010
,
0102
1000
1000
1000
0010
1000
1000
1000
,
0100
1000
1000
0100
1000
1000
0100
0013
,
0101
1001
1000
1000
0001
1000
1000
1000
,
0020
0030
0000
0000
0000
0000
0000
0000
0000
0000
0000
0000
0000
0000
0000
0000
0020
0030
0000
0000
0000
0000
0000
0000
0000
0000
0000
0000
0000
0000
0000
0000
0020
0030
0000
0000
0000
0000
0000
0000
0000
0000
0000
0000
0000
0000
0000
0000
0120
0030
0000
0000
0000
0000
0000
0000
0000
0000
0000
0000
0000
0000
0000
0000
,
0011
1000
1010
1000
0001
1000
1010
1000
,
0010
1000
1001
0010
1000
1000
0101
0010
,
0001
1000
1010
1000
0001
1000
1010
1000
,
0002
1023
0230
2301
,
3011
1000
1010
1000
0001
1000
1010
1000
,
0010
1000
1001
0010
1000
1000
0101
0010
,
0001
1000
1010
1000
0001
1000
1010
1000
,
0110
0000
0010
0100
0010
0100
0010
0100
0001
0010
0100
1000
0001
0100
0010
1000
,
0011
1000
1010
1000
0001
1000
1010
1000
,
0010
1000
1001
0010
1000
1000
0101
0010
,
0001
1000
1010
1000
0001
1000
1010
1000
,
0002
1023
0230
2301
,
3011
1000
1010
1000
0001
1000
1010
1000
,
0010
1000
1001
0010
1000
1000
0101
0010
,
0001
1000
1010
1000
0001
1000
1010
1000
,
0010
1000
1001
0010
1100
0011
0000
0000
,
1001
0000
0000
0000
1000
0000
0000
0010
,
1100
0000
0000
0000
1000
0000
0000
0010
,
1001
0000
0000
0000
1000
0000
0000
0010
,
0101
0000
1001
0000
,
1010
0000
0000
0000
1000
0000
0000
0010
,
1100
0000
0000
0000
1000
0000
0000
0010
,
1001
0000
0000
0000
1000
0000
0000
0010
,
0101
1000
0101
1000
0101
1000
0101
0000
,
1000
0100
0010
0001
0010
0100
1000
0010
0100
0010
0100
0001
1000
0100
1000
0010
,
0100
0001
0010
0100
0010
0100
1000
0010
0100
0001
0100
0010
1000
0010
0100
0001
,
0010
0100
1000
0100
0010
0001
0100
0010
1000
0010
1000
0100
0010
0001
0100
0001
,
0100
0010
1000
0100
0010
0001
0010
0100
1000
0010
0100
0001
1000
0001
1000
0010
,
0100
0001
0010
0100
1000
0001
1000
0001
0100
0010
1000
0100
0010
0001
0100
0010
,
1000
0001
1000
0010
1000
0001
0100
0010
0100
0001
0010
0100
0010
0001
0010
0100
,
1000
0010
0100
0010
1000
0100
0010
0100
0010
0001
0100
0010
1000
0000
0000
0000
,
1001
0010
0100
1000
0001
0010
0100
1000
0001
0100
0010
1000
0001
0100
0010
1000
,
0011
0100
0001
0100
0010
1000
0100
0010
0001
0010
0100
1000
0010
1000
0010
0100
,
0001
1000
0100
0010
0001
0010
0100
1000
0100
0010
0001
0100
0010
0100
0001
0010
,
0100
0010
0001
1000
0010
1000
0100
0010
0001
0010
0100
0010
0001
0100
0010
1000
,
0010
0100
0010
1000
0100
1000
0001
1000
0010
0100
0001
0010
0100
1000
0001
1000
,
0001
0010
0100
1000
0010
0100
0010
1000
0100
0010
0001
0010
0001
0100
0010
1000
,
0001
0100
0010
1000
0100
0010
0100
0010
0001
0100
0010
1000
0010
0100
0001
1000
,
0100
0010
0100
1000
0100
0010
0001
0100
0010
1000
0010
0100
0010
0000
0000
0000
,
0011
0000
1000
0001
1000
0001
1000
0001
1000
0100
0010
0001
1000
0100
0010
0001
,
1100
0010
1000
0011
1000
0101
0010
1001
,
0010
1000
0100
0001
1000
0100
0010
0001
,
1010
0100
0001
0110
1000
0101
1000
0011
,
1000
0100
0010
0001
1000
0100
0010
0001
,
1100
0010
0100
0011
1000
0101
0010
1001
,
0010
1000
0100
0001
1000
0100
0010
0001
,
1010
0100
0001
0110
1000
0101
1000
0011
,
1000
0000
0000
0000
0000
0000
0000
0000
0100
0000
0000
0000
0010
0000
0000
0000
0001
0000
0000
0000
0000
0000
0000
0000
0100
0000
0000
0000
0000
0000
0000
0000
0010
0000
0000
0000
0000
0100
0000
0001
0000
0000
1000
0000
0000
0010
0000
0000
0100
0000
0000
0000
0000
0000
0000
0000
0010
0000
0000
0000
0000
0000
0000
0000
,
1001
1000
0100
0010
,
0001
0010
0100
1000
,
0010
0100
0001
1000
,
0010
0100
0001
0000
1000
0000
0100
0000
,
0010
0100
0001
1000
,
0001
0010
0100
1000
,
0010
0100
0001
1000
,
0020
0000
0000
0000
,
1230
0000
0000
0000
,
0321
0000
0000
0000
,
2031
0000
0000
0000
,
3102
0000
0000
0000
0000
0000
0000
0000
0000
0000
0000
0000
0000
0000
0000
0000
0000
0000
0000
0000
0000
0000
0000
0000
0100
0000
0000
0003
0001
0000
0000
0000
0100
0000
0000
0000
0010
0000
0000
0000
0100
0000
0000
0000
0001
0000
0000
0000
,
1200
0001
0010
1000
,
0321
0100
0001
1000
,
2031
0010
0100
0001
,
3102
0010
1000
0100
,
1013
0110
0101
1001
0000
1100
1001
0011
,
0000
1010
0101
0011
0000
1001
0101
0000
,
0120
0100
0100
0100
,
1130
0011
1100
0011
1100
0000
0000
0000
0011
1100
0011
1100
0011
0000
0000
0000
,
0100
1000
0101
0010
0002
0000
0123
0000
,
0130
1000
0101
0010
0002
0000
0123
0000
,
1030
0100
1010
0001
0100
0010
1100
0001
,
0100
1000
0101
0010
0002
0000
0123
0000
,
0130
1000
0101
0010
0002
0000
0123
0000
,
0130
1000
0101
0010
0002
0000
0123
0000
,
1030
0100
1010
0001
0100
0010
1100
0001
,
0101
0000
0010
0100
0001
1000
0010
0100
0001
0010
0100
1000
0100
0010
0001
0000
,
0110
1000
0101
0010
0002
0000
0123
0000
,
0130
1000
0101
0010
0002
0000
0123
0000
,
1030
0100
1010
0001
0100
0010
1100
0001
,
0100
1000
0101
0010
0002
0000
0123
0000
,
0130
1000
0101
0010
0002
0000
0123
0000
,
0130
1000
0101
0010
0002
0000
0123
0000
,
1030
0100
1010
0001
0100
0010
1100
0001
,
0100
0000
0010
0100
0010
0100
0010
0100
0001
0010
0100
1000
0100
0010
0001
1000
,
0011
0000
0000
1001
0000
0101
0000
0011
,
0000
1000
1000
0010
0001
1000
1000
0100
,
1010
0000
0000
1001
0000
0101
0000
0110
,
0000
1000
1000
0010
0001
1000
1000
0100
,
0011
0000
0000
1001
0000
0101
0000
0011
,
0000
1000
1000
0010
0001
1000
1000
0100
,
1010
0000
0000
1001
0000
0101
0000
0110
,
0000
0000
1000
0000
0001
0000
1000
0000
0010
0000
0100
0001
1000
0000
0100
0000
,
0011
1000
1000
1000
0001
1000
1000
1000
,
0010
1000
1000
0010
1000
1001
0100
1010
,
0001
1000
1000
1000
0001
1000
1000
1000
,
0010
1000
1000
0010
1000
1000
0100
0010
,
0102
1000
1000
1000
0010
1000
1000
1000
,
0100
1000
1000
0100
1000
1000
0100
0013
,
0101
1010
1000
1000
0001
1000
1000
1000
,
0010
0000
0000
0000
0101
1010
0000
0000
,
1001
0000
0000
0000
1000
0000
0000
0010
,
1100
0000
0000
0000
1000
0000
0000
0010
,
1001
0000
0000
0000
1000
0000
0000
0010
,
0101
0000
0000
0000
0000
0000
0000
0000
1000
0000
0000
0000
0001
0010
0001
0010
,
1100
0000
0000
0000
1000
0000
0000
0010
,
1001
0000
1000
0000
,
0100
0010
0101
0000
0100
0011
1000
0100
,
0011
1000
0011
1000
0011
1000
0011
0000
,
0100
0010
0100
0001
1000
0100
0010
0001
0100
0010
1000
0100
1000
0100
0010
0001
,
0100
0010
0100
0001
1000
0100
0010
0100
0010
0001
0100
0010
1000
0001
0010
0100
,
1000
0001
0100
0001
1000
0010
0100
0010
1000
0100
0010
0001
0100
0001
1000
0001
,
1000
0010
0100
0001
0010
0100
0010
0001
0010
0001
0100
0010
1000
0100
1000
0001
,
0100
0001
0010
0100
1000
0010
1000
0010
0100
0001
0010
0100
1000
0010
0100
0001
,
1000
0001
1000
0010
1000
0001
0010
0100
1000
0010
0100
0010
0100
0001
1000
0100
,
0010
0001
1000
0001
1000
0010
0100
0001
1000
0010
1000
0001
1100
0000
0000
0000
,
0010
0100
0001
1000
0010
0100
0001
1000
0100
0010
0001
1000
0100
0010
0001
1000
,
0101
0010
0100
0010
1000
0001
0100
0001
1000
0010
1000
0100
0010
0001
0010
0100
,
1000
0010
0100
0010
1000
0010
0100
0001
0010
0100
0010
0100
1000
0010
0100
0001
,
1000
0010
1000
0010
0100
0001
0010
0100
1000
0001
1000
0010
1000
0001
0100
0001
,
0100
0010
1000
0100
1000
0100
0010
0001
0100
0010
0100
0001
0100
0001
0010
0100
,
1000
0100
0010
0001
0100
0001
1000
0100
1000
0010
1000
0100
0010
0001
0100
0010
,
0100
0001
0010
0100
1000
0100
0010
0001
0100
0010
1000
0100
0010
0100
0010
0001
,
0100
0010
0100
0001
0100
0010
1000
0100
0010
0001
0100
0010
1000
0000
0000
0000
,
0011
0000
0100
0010
0001
0000
1000
0000
0001
0000
1000
0000
0010
0000
1000
0000
,
0101
0000
0000
0000
0001
0000
0000
0100
,
0010
0000
0000
0000
0001
0000
1000
0100
,
0010
0000
0000
1100
0011
0000
0000
0110
,
0110
0000
0000
0000
0000
0000
0000
0000
0000
0000
0000
0000
0000
0000
0000
0000
0100
0000
0000
0000
0000
0000
0000
0000
0000
0000
0000
0000
0000
0000
0000
0000
0001
1000
0000
0000
0000
0000
0000
0000
0000
0000
0000
0000
0000
0000
0000
0000
0010
0000
0000
0000
0000
0000
0000
0000
0000
0000
0000
0000
0000
0000
0000
0000
,
0101
0000
0001
0000
,
1000
0000
0000
0000
0001
0000
1000
1000
,
1010
0000
0101
0000
,
1000
0000
0100
0100
0011
0000
1000
1000
,
1001
0000
0001
0000
,
1000
0000
0000
0000
0001
0000
0000
0010
,
1001
0110
0000
0000
0101
0000
0100
0000
,
0100
0000
0000
0010
1000
0001
1010
0000
0000
0010
0000
0000
,
1001
0000
0101
0001
,
0001
0000
0001
0000
0011
1000
0000
0100
,
1001
0000
1000
0010
1100
0000
1000
0000
,
1000
0000
0000
0000
0000
0000
0011
0000
0000
2000
0000
3000
,
1020
0000
0001
0000
,
1000
0000
0000
0000
0001
0100
0000
0001
,
1000
0000
0000
0000
0000
0000
0000
0000
0000
0000
0000
0000
0000
0000
0000
0000
0000
0000
0000
0000
0000
0000
0000
0000
0000
0000
0000
0000
0000
0000
0000
0000
0000
0000
0000
0000
0000
0000
0000
0000
0000
0000
0000
0000
0000
0000
0000
0000
0000
0000
0000
0000
0000
0000
0000
0000
0000
0000
0000
0000
0000
0000
0000
0000
0000
0000
0000
0000
0030
0000
0000
0000
1100
0000
0000
0000
0000
0000
0000
0000
0000
0000
0000
0000
0000
0000
0000
0000
0000
0000
0000
0000
0000
0000
0000
0000
1200
0000
0000
0000
0000
0000
0000
0000
0000
0000
0000
0000
0000
0000
0000
0000
0000
0000
0000
0000
0000
0000
0000
0000
0000
0000
0000
0000
0000
0000
0000
0000
0000
0000
0000
0000
0000
0000
0000
0000
0000
0000
0000
0000
0000
0000
0000
0000
0000
0000
0000
0000
0000
0000
0000
0000
0000
0000
0000
0000
0000
0000
0000
0000
0000
0000
0000
0000
0000
0000
0000
0000
0002
0000
0000
0000
0000
0000
0000
0000
0000
0000
0000
0000
0000
0000
0000
0300
0000
0000
0000
0000
0000
0000
0000
0000
,
0000
0000
0000
0000
0000
0000
0000
0000
0000
0000
0000
0000
0100
0000
0000
0003
2001
0000
0000
0000
0000
0000
0000
0000
3012
0000
0000
0000
0000
0000
0000
0000
,
0203
0000
0000
0320
0000
0000
0032
0000
,
0203
0000
0000
0000
0000
0000
0000
0000
0000
0000
0000
0000
0000
0000
0000
0000
0000
0000
0000
0000
0000
0000
0000
0000
0000
0000
0000
0000
0000
0000
0000
0000
0000
0000
0000
0000
0000
0000
0000
0000
0000
0000
0000
0000
0000
0000
0000
0000
0000
0000
0000
0000
0000
0000
0000
0000
0000
0000
0000
0000
0000
0000
0000
0000
0000
0000
0300
0000
0000
0001
0000
0000
0000
0000
0000
0000
0000
0000
0000
0000
0000
1000
0000
0000
0000
0000
0000
0000
0000
0000
0000
0000
0000
0020
0000
0000
0000
0000
0000
0000
0000
0000
0000
0000
0000
0000
0000
0000
0000
0000
0000
0000
0000
0000
0000
0000
0000
0000
0000
0000
0000
0000
0000
0000
0000
0000
0000
0000
0030
0000
0000
0000
0000
0000
0000
0000
0000
0000
0000
0000
0000
0000
0000
0000
0200
0000
0000
0000
0000
0000
0000
0000
0000
0000
0000
0000
0000
0000
0000
0000
0000
0000
0000
0000
0000
0000
0000
0000
0000
0000
0000
0000
0000
0000
0000
0000
0000
0000
0000
0000
0000
0000
0000
0000
0000
0000
0000
0000
0000
0000
0000
0000
,
2300
0000
0000
0000
0000
0000
0000
0000
3001
0010
0100
1000
0010
0100
0001
0010
,
0100
0010
0001
0010
0001
1000
0100
0010
0001
0010
0100
0010
0001
0010
0001
1000
,
0201
0000
0000
0320
0000
0000
0032
0000
,
1003
0100
0010
0001
0100
0010
0100
0010
1000
0100
0010
0001
0100
0010
0100
0010
,
1002
0000
0203
2300
0000
0000
3012
0000
,
1203
0000
0000
0000
2310
0000
0000
0000
0000
0000
0000
0000
3000
0000
0000
0000
0011
0100
0000
0000
0000
0000
0000
0000
0110
0000
0000
0000
0000
0000
0000
0000
,
1200
0000
0000
0320
0000
0000
0032
0000
,
0203
0000
0000
0000
0000
0000
0000
0000
0000
0000
0000
0000
0000
0000
0000
0000
0000
0000
0000
0000
0000
0000
0000
0000
0000
0000
0000
0000
0000
0000
0000
0000
0000
0000
0000
0000
0000
0000
0000
0000
0000
0000
0000
0000
0000
0000
0000
0000
0000
0000
0000
0000
0000
0000
0000
0000
0000
0000
0000
0000
0000
0000
0000
0000
0000
0000
0300
0000
0000
0001
0000
0000
0000
0000
0000
0000
0000
0000
0000
0000
0000
1000
0000
0000
0000
0000
0000
0000
0000
0000
0000
0000
0000
0020
0000
0000
0000
0000
0000
0000
0000
0000
0000
0000
0000
0000
0000
0000
0000
0000
0000
0000
0000
0000
0000
0000
0000
0000
0000
0000
0000
0000
0000
0000
0000
0000
0000
0000
0030
0000
0000
0000
0000
0000
0000
0000
0000
0000
0000
0000
0000
0000
0000
0000
0200
0000
0000
0000
0000
0000
0000
0000
0000
0000
0000
0000
0000
0000
0000
0000
0000
0000
0000
0000
0000
0000
0000
0000
0000
0000
0000
0000
0000
0000
0000
0000
0000
0000
0000
0000
0000
0000
0000
0000
0000
0000
0000
0000
0000
0000
0000
0000
,
1301
0100
0010
0001
1000
0010
0100
0001
1000
0100
0010
0001
1000
0010
0100
0001
,
1000
0100
0010
0001
1000
0100
0010
0001
1100
0010
1000
0010
0100
0001
1100
0010
,
1000
0010
0100
0001
1000
0100
0010
0001
1100
0001
0100
0010
1000
0010
1100
0001
,
0100
0010
1000
0010
0200
0000
0000
0300
0011
1000
0010
0100
1001
0010
0100
0001
,
1100
0010
0100
0001
1010
0100
0010
1000
0011
1000
0101
1000
0011
1000
0101
1000
,
0011
0000
1100
0000
1001
0010
0010
0100
,
1000
0100
0011
0100
1001
0010
0010
0100
,
1000
0100
0010
0100
1001
0010
0101
1000
,
0110
1000
0011
1000
0101
0010
1001
0100
,
0012
0000
0000
0000
0000
0000
0000
0000
0100
0000
0000
0000
0000
0000
0000
0003
1001
0000
0000
0000
0010
0000
0000
0000
0010
0000
0000
0000
0100
0000
0000
0000
,
1000
0100
0011
0100
1001
0010
0010
0100
,
1000
0000
0100
0000
0010
0000
0100
0000
1001
0010
0100
1000
0100
0010
0100
0010
,
0001
1000
0100
0010
0001
0100
0010
1000
0001
0000
0000
0000
0101
0000
0000
0000
,
1010
0000
0110
1000
,
0100
0010
0001
0010
,
0100
1000
0010
0100
,
0001
0000
1000
0000
0010
0100
0001
0000
,
1000
0000
0000
0000
0000
0000
0000
0010
0000
0000
1000
0000
0001
0000
0100
0000
0000
0000
0000
0000
0000
0000
0000
0000
1200
0000
0000
0000
0000
0000
0000
0000
0000
0000
0000
0000
0000
0000
0000
0000
0000
0000
0000
0000
0000
0000
0000
0000
,
0000
0000
0321
0000
,
0000
0000
2031
0000
,
0000
0000
3102
0000
,
0100
0000
0000
0003
0010
0000
0000
0000
0100
0000
0000
0000
0001
0000
0000
0000
0100
0000
0000
0000
0010
0000
0000
0000
1200
0000
0000
0000
0000
0000
0000
0000
0000
0000
0000
0000
0001
0000
0000
0000
0000
0000
0000
0000
0000
0000
0000
0000
,
0010
1000
0321
0100
,
0001
1000
2031
0010
,
0100
0001
3102
0010
,
1000
0000
0100
0000
1013
0110
0101
1001
,
0000
1100
1001
0011
0000
1010
0101
0011
,
0000
1001
0101
0000
0120
0000
0100
0000
,
0100
0000
0000
0000
0100
0000
0000
0000
1130
0011
1100
0011
1100
0000
0000
0000
,
0011
1100
0011
1100
0011
0000
0000
0000
0100
0000
1000
0000
0101
0000
0010
0000
,
0002
0000
0123
0000
0130
1000
0101
0010
,
0002
0000
0123
0000
1030
0100
1010
0001
,
0100
0010
1100
0001
0100
1000
0101
0010
,
0002
0000
0123
0000
0130
1000
0101
0010
,
0002
0000
0123
0000
0130
1000
0101
0010
,
0002
0000
0123
0000
1030
0100
1010
0001
,
0100
0000
0010
0000
1100
0000
0001
0000
0101
0000
0010
1000
0001
0010
0100
1000
,
0010
0100
0010
0100
0001
1000
0100
0000
0011
0000
0100
0000
1010
0000
0001
0000
,
2000
0000
3102
0000
0013
0100
1010
0001
,
2000
0000
3102
0000
0103
0010
0101
1000
,
0010
0001
0110
1000
0001
0100
1001
0010
,
2000
0000
3102
0000
0013
0100
1010
0001
,
2000
0000
3102
0000
0013
0100
1010
0001
,
2000
0000
3102
0000
0103
0010
0101
1000
,
0010
0001
0110
1000
0001
0100
1001
0010
,
2000
0000
3102
0000
1103
1001
0011
0101
,
0000
1010
0110
0101
0000
0011
1100
1010
,
0000
1001
0101
0000
0120
0000
0100
0000
,
0100
0000
0000
0000
0100
0000
0000
0000
1030
0100
1000
0100
1000
0001
1000
0001
,
0010
0001
0010
0001
0100
0000
0000
0010
1001
0000
1001
0000
0000
0000
0110
0000
,
0220
0000
0000
0000
,
0000
0330
0000
0000
0000
0000
0000
0000
;
