#TITLE:Demonheart;
#SUBTITLE:;
#ARTIST:Luca Turilli;
#TITLETRANSLIT:;
#SUBTITLETRANSLIT:;
#ARTISTTRANSLIT:;
#CREDIT:;
#BANNER:BN.png;
#BACKGROUND:BG.png;
#LYRICSPATH:;
#CDTITLE:CDTitle.gif;
#MUSIC:01 Demonheart.mp3;
#OFFSET:-11.080;
#SAMPLESTART:61.748;
#SAMPLELENGTH:12.000;
#SELECTABLE:YES;
#BPMS:0.000=180.010,552.000=90.011,566.000=180.012;
#STOPS:;
#BGCHANGES:;
// cache tags:
#FIRSTBEAT:0.000;
#LASTBEAT:839.750;
#SONGFILENAME:Songs/toune 2/Demonheart/Demonheart.sm;
#HASMUSIC:1;
#HASBANNER:1;
#MUSICLENGTH:308.644;
// end cache tags

//---------------dance-single - Blank----------------
#NOTES:
     dance-single:
     Blank:
     Hard:
     13:
     1.000,1.000,0.823,0.256,1.000,2416.000,254.000,79.000,0.000,0.000:

1001
0100
0010
0001
0100
0010
1000
0100
,
1000
0001
0100
0001
1000
0010
1000
0100
,
0010
0001
0100
0010
0100
0001
0010
0100
,
1000
0001
0100
0001
1000
0010
1000
0100
,
0011
0100
1000
0001
0100
0001
1000
0010
,
1000
0100
0010
0001
0100
0010
0100
0001
,
1000
0001
0100
0010
1000
0100
0010
0100
,
1000
0001
0100
0010
1000
0100
0010
0001
,
0110
0000
0110
0000
0000
0000
0100
0100
,
1010
0000
1010
0000
0000
0000
0010
0010
,
0011
0000
0011
0000
0000
0000
0010
0010
,
1001
0000
0000
0000
1001
0000
0000
0000
0100
0000
0010
0001
1000
0010
1000
0001
,
0110
1000
0001
0100
0001
1000
0010
0100
0001
0010
0100
1000
0001
0100
0001
1000
,
0010
0100
0010
1000
0001
0010
0100
0010
0001
1000
0010
0100
0001
1000
0100
0010
,
0100
1000
0001
0100
0010
1000
0100
0010
0001
0100
0010
1000
0100
0010
0001
1000
,
0010
1000
0001
0010
0001
0100
0010
1000
0001
1000
0010
0100
0001
0100
0010
1000
,
0100
0010
0001
0100
0001
0010
0100
1000
0001
0100
0001
1000
0010
1000
0100
0010
,
0001
0100
0001
0010
0100
0010
0001
1000
0010
0100
0010
1000
0100
0010
0001
1000
,
0100
0010
0100
1000
0001
1000
0100
0010
0100
0010
0001
1000
0010
0100
0001
0100
,
0010
1000
0100
0010
0001
0010
0100
1000
0010
0100
0001
0010
0100
1000
0001
0100
,
0011
1010
0110
0000
,
0002
0000
0003
0000
1000
0100
1000
0001
,
0110
0001
1000
1010
0100
0001
0011
1000
,
0010
0110
0001
1000
0011
0100
1010
0100
,
0102
0010
1003
0110
1000
0010
1001
0001
,
0100
1100
0010
0100
0101
0010
1100
0010
,
1001
0100
0010
0011
1000
0010
0101
1000
,
0100
1010
0001
0100
0110
0001
1100
0001
,
1001
1000
0100
1010
0001
1000
0110
0001
,
1000
0101
1000
0010
0110
1000
0011
0100
,
1001
0000
0100
0010
0001
0000
1000
0010
1000
0000
0001
0100
0010
0000
1000
0100
,
0010
0000
0100
1000
0001
0000
0100
0010
0100
0000
0001
0010
0001
0000
1000
0010
,
0100
0000
0001
0010
0100
0000
1000
0100
0010
0000
0001
0100
0001
0000
0010
0100
,
1000
0000
0010
0100
0001
0000
0010
0100
1000
0000
0100
0010
0100
0000
1000
0001
,
0100
0000
0010
0100
0001
0000
0010
0100
1000
0000
0100
0010
0001
0000
1000
0010
,
1000
0000
0001
0100
0010
0000
0100
0001
1000
0000
0100
0010
0100
0000
1000
0010
,
0100
0000
0001
0010
0100
0000
0010
0001
1000
0000
0100
0010
0001
0000
0100
0001
,
0010
0000
0100
1000
0010
0000
1000
0100
0010
0000
0100
1000
0001
0000
0100
0001
,
1000
0000
0100
1000
0010
0000
0100
0001
0010
0000
0001
1000
0010
0000
0100
0001
,
0010
0000
0100
1000
0010
0000
0100
0001
0010
0000
0100
1000
0100
0000
0010
0001
,
0010
0000
0100
1000
0001
0000
0100
0001
1000
0000
0010
1000
0001
0000
0010
0001
,
1000
0000
0100
1000
0010
0000
0100
0001
0010
0000
0100
0010
0001
0000
1000
0100
,
0010
0000
0001
1000
0100
0000
0010
0001
1000
0000
0100
1000
0010
0000
0100
0001
,
0010
0000
0100
1000
0010
0000
0100
0001
0010
0000
0001
1000
0010
0000
0100
0010
,
1000
0000
0001
0010
0100
0000
0010
0001
1000
0000
0010
0100
0010
0000
0100
0001
,
0010
0000
0100
1000
0010
0000
0100
0001
1000
0000
0001
1000
0001
0100
0010
1000
,
0110
0001
1000
0010
0100
0001
0110
1000
0001
0100
0001
1000
0110
0001
1000
0100
,
0010
0100
1001
0010
0100
1000
0001
0100
0011
1000
0010
0100
1001
0100
0010
0001
,
1010
0100
0001
1000
0010
0100
0011
1000
0100
0010
0001
1000
0110
0001
1000
0001
,
1000
0010
1100
0001
0100
0010
1000
0100
0011
0100
1000
0001
1010
0001
0100
0010
,
1001
0100
0010
0001
1000
0010
1100
0001
0010
0100
1000
0001
0110
1000
0100
0010
,
0001
1000
0101
0010
0100
1000
0001
0100
0011
1000
0010
0100
1001
0010
0100
1000
,
0110
0001
1000
0010
0100
0001
0110
1000
0001
1000
0001
1000
0011
0100
1000
0010
,
0100
0001
1010
0001
0100
0010
1000
0100
0011
0100
1000
0010
1100
0001
0100
0001
,
0110
1100
1001
0011
,
0110
1100
1001
0011
,
0110
1001
0101
1100
,
1010
0000
0000
0000
0110
0000
0000
0000
1001
0000
0000
0000
0110
1000
0001
0010
,
1100
0001
0100
0010
1000
0100
0010
0001
1000
0010
0100
0001
0010
0100
1000
0001
,
0100
0001
1000
0100
0010
0100
1000
0001
1000
0010
0100
0010
1000
0001
0100
0010
,
1000
0100
0010
0001
1000
0010
1000
0001
0010
0100
1000
0010
1000
0100
0010
0001
,
0010
0100
1000
0001
0100
0001
1000
0010
1000
0010
0100
0010
1000
0001
0100
0010
,
0100
0001
1000
0100
0010
0100
1000
0001
0100
0001
0010
0100
0010
0001
1000
0010
,
0100
0001
0010
0100
1000
0001
0100
0001
1000
0010
1000
0100
0010
0100
1000
0001
,
0010
0001
1000
0100
1000
0001
0100
0001
0010
0100
1000
0001
0100
0001
1000
0010
,
1000
0001
0010
0001
1000
0010
0100
0001
1000
0010
1000
0001
0010
0100
0010
0001
,
1100
0000
1100
0000
0000
0000
0010
0010
,
1001
0000
1001
0000
0000
0000
0001
0001
,
1010
0000
1010
0000
0000
0000
0100
0100
,
0101
0000
0000
0000
0101
0000
0000
0000
1000
0000
0001
0010
0100
1000
0001
0100
,
0011
1000
0100
0010
0001
1000
0010
0100
0001
0010
0100
0010
0001
1000
0010
0100
,
0001
0010
0100
1000
0001
0100
0001
1000
0100
0010
0100
1000
0001
0010
0100
1000
,
0001
0100
0010
1000
0100
0010
0001
1000
0010
1000
0001
0100
0010
1000
0100
0010
,
0001
1000
0100
0010
0100
1000
0001
0100
0010
0100
0001
0010
0100
0010
0001
1000
,
0010
0100
0001
0010
0100
1000
0001
0010
0001
1000
0100
1000
0010
0100
0001
0010
,
0001
1000
0010
0100
0001
0010
0100
1000
0001
0100
0001
1000
0010
0100
0010
1000
,
0001
0100
0010
1000
0100
0010
0001
0010
0100
1000
0010
1000
0100
0010
0001
1000
,
0010
1000
0001
0010
0100
1000
0100
0010
0001
0010
0100
1000
0001
0100
0010
1000
,
0110
1100
1010
0000
,
0200
0000
0300
0000
1100
0001
0010
0100
,
0011
1000
0010
0110
0001
1000
1100
0001
,
0100
0011
1000
0001
1010
0100
0011
0100
,
2001
0000
0100
0000
0010
3000
0101
0000
1000
0000
0100
0000
1100
0000
0001
0000
,
0100
1001
0100
0010
1100
1000
0101
0010
,
1001
0100
0010
0011
1000
0010
1010
0100
,
0001
0110
1000
0001
0110
1000
1100
0001
,
1010
0001
0100
0011
1000
0010
1001
0100
,
0010
0110
1000
0001
0011
1000
0110
0000
,
1001
0000
0100
0010
0001
0000
1000
0100
0010
0000
0100
1000
0001
0000
0100
0010
,
0100
0000
0001
1000
0100
0000
0010
0100
1000
0000
0001
0100
0001
0000
1000
0010
,
1000
0000
0100
0010
0001
0000
1000
0010
0100
0000
0001
0010
0100
0000
1000
0010
,
1000
0000
0100
0010
0001
0000
0010
0100
1000
0000
0100
0010
0100
0000
1000
0001
,
0100
0000
0010
0100
0001
0000
1000
0010
0100
0000
0001
0010
0001
0000
1000
0010
,
1000
0000
0001
0010
0100
0000
0010
0100
1000
0000
0001
0100
0001
0000
1000
0100
,
1000
0000
0010
0100
0001
0000
0010
0001
1000
0000
0010
1000
0001
0000
0100
0010
,
1000
0000
0100
0010
0001
0000
0010
0100
1000
0000
0001
1000
0100
0000
0010
0001
,
0010
0000
0100
1000
0010
0000
0100
0001
0010
0000
0001
1000
0100
0000
1000
0010
,
0100
0000
0001
1000
0001
0000
0010
0100
1000
0000
0010
0100
0001
0000
0100
0010
,
1000
0000
0100
0010
0001
0000
1000
0100
0010
0000
0001
1000
0100
0000
0010
0100
,
1000
0000
0001
0100
0010
0000
1000
0100
0010
0000
0001
0010
0001
0000
1000
0010
,
1000
0000
0001
0100
0010
0000
1000
0100
0010
0000
0100
1000
0010
0000
0100
0001
,
0010
0000
0100
0010
0001
0000
1000
0100
0010
0000
0100
1000
0010
0000
0100
0010
,
1000
0000
0100
0010
0001
0000
0010
0100
1000
0000
0001
1000
0100
0000
0010
0001
,
0010
0000
0100
1000
0010
0000
0100
0001
0010
0100
1000
0010
0100
0001
0010
0001
,
1100
0010
0001
1000
0010
1000
0110
0001
0010
0100
1000
0001
0110
1000
0100
1000
,
0001
0100
0011
1000
0010
0100
0001
0010
1100
0010
0100
0001
1010
0100
0010
0001
,
0110
1000
0001
0100
0010
1000
0101
0010
0100
1000
0001
0100
1001
0100
0010
0001
,
0010
0100
1001
0010
0100
0010
1000
0100
0011
0100
1000
0010
1100
0001
0010
0100
,
1001
0010
0100
0010
0001
1000
0110
0001
1000
0010
1000
0001
1010
0100
0010
0001
,
1000
0100
0011
1000
0100
0010
0100
1000
0101
0010
0100
1000
0011
0100
1000
0010
,
1001
0100
0010
0100
1000
0001
0110
1000
0100
0010
0100
1000
0011
0100
1000
0010
,
0100
0001
1010
0100
0010
0100
1000
0001
1100
0010
0100
0001
0110
1000
0001
0100
,
1001
0110
0011
1100
,
1010
0110
1001
0011
,
1100
1010
0110
0011
,
1001
0000
0000
0000
1010
0000
0000
0000
0110
0001
1000
0100
0010
0001
0100
0010
,
1100
0010
0001
0100
0010
1000
0100
0010
0100
1000
0001
0100
0001
1000
0010
1000
,
0100
0010
0100
1000
0001
0100
0001
1000
0010
1000
0100
0010
0001
0100
0010
1000
,
0100
0010
0001
0100
0010
0100
0001
0010
0100
1000
0001
0100
0001
1000
0010
1000
,
0100
0010
0100
1000
0001
0100
0001
1000
0010
1000
0100
0010
0001
0010
0100
1000
,
0001
0100
0010
0100
0001
1000
0010
0100
0001
1000
0010
1000
0001
0100
0001
1000
,
0100
1000
0010
0100
0010
1000
0100
0010
0100
1000
0001
0100
0010
1000
0010
0100
,
0001
0010
0100
1000
0001
0100
0010
1000
0100
0010
0001
0100
0010
1000
0100
0010
,
0001
1000
0010
1000
0001
0100
0010
1000
0001
0010
0100
0010
0100
1000
0001
0100
,
1010
0000
0000
0000
1010
0000
0000
0000
0000
0000
0000
0000
0000
0000
0000
0001
,
0110
0000
0000
0000
0110
0000
0000
0000
0000
0000
0000
0000
0000
0000
0000
0010
,
0101
0000
0000
0000
0101
0000
0000
0000
0000
0000
0000
0000
0000
0000
0000
0100
,
1001
0000
1001
0100
0010
1000
0001
0100
,
0110
0001
0010
0100
1000
0010
0100
0001
0010
0100
1000
0001
0100
0001
1000
0010
,
0100
0001
0010
0100
0010
0001
1000
0100
0010
0100
1000
0001
0010
0100
0010
0001
,
1000
0010
0100
0001
0010
0100
1000
0100
0010
0001
1000
0010
1000
0001
0100
0010
,
1000
0010
0100
0001
0010
0100
1000
0001
0010
0001
0100
0010
1000
0100
0010
0100
,
1000
0001
1000
0010
0100
0010
1000
0001
0100
0010
1000
0100
0010
0001
1000
0010
,
0100
0010
1000
0001
0100
0010
0100
0001
0010
0100
1000
0010
0100
0001
0010
0100
,
1000
0001
1000
0100
0010
0001
0100
0010
1000
0100
0010
0100
0010
0001
1000
0010
,
0100
0001
0010
0100
1000
0001
0100
0010
1000
0010
0100
0001
0010
0100
1000
0001
,
0110
1001
0011
0000
,
2010
0000
0000
0000
0000
0000
0100
3000
0000
0000
0000
0000
0010
0000
0001
0000
,
1000
0100
0010
0001
0100
0010
1000
0100
0010
0100
1000
0001
0100
0001
1000
0010
,
1000
0100
0010
0001
0100
0010
0100
0001
0010
0100
1000
0001
0100
0001
1000
0010
,
1000
0100
0010
0001
0100
0010
0100
0001
0110
1100
0101
0011
1001
1100
1010
0110
,
0101
0110
1100
1001
0101
0011
0110
1010
1001
0000
0100
0000
0010
0000
0100
0000
,
1000
0001
0100
0001
1000
0010
1000
0100
,
0010
0001
0100
0010
1000
0100
0010
0001
,
0010
0100
1000
0001
0100
0001
1000
0100
,
1000
0001
0010
0001
0100
0010
1000
0100
,
0010
0100
1000
0001
0100
0010
1000
0010
,
0100
0001
0010
0100
1001
0011
0101
0110
,
1100
1010
1001
0011
0110
1001
0011
1100
,
0120
2030
3200
0320
0032
0203
0320
2030
,
3200
2300
3020
0230
0302
0203
0320
2030
,
3200
0320
0032
0023
0230
2300
3200
0320
,
0032
0203
0320
2030
3200
0320
0032
2003
,
3200
0320
0230
2300
3002
0203
0320
0230
,
0302
0023
0230
2300
3020
0230
0302
0203
,
0320
0230
0302
0023
0230
2300
3200
0320
,
0032
2003
3200
2300
3002
0203
0320
2030
,
3001
0100
0010
0100
0001
0010
0100
1000
,
0001
0100
0001
1000
0010
1000
0100
0010
,
0001
0010
0100
1000
0010
0100
0001
0010
0100
0010
0001
1000
0010
1000
0001
0100
,
0010
0100
0001
1000
0100
0010
0100
1000
0001
0000
0010
0000
0100
0000
1000
0000
,
0101
0010
1000
0100
1000
0010
0100
0001
,
0100
0001
1000
0010
0100
0001
0010
0100
,
1000
0100
0010
0001
0100
0010
0100
0001
0010
0100
1000
0001
0010
0001
1000
0010
,
1000
0001
0100
0010
1000
0100
0010
0001
0100
0000
0010
0000
1000
0000
0100
0000
,
0011
1100
1010
0110
0011
0101
1010
0110
,
1001
0011
0110
1100
1001
0011
1001
1010
,
0110
0001
1000
0010
1000
0001
0100
0010
1000
0100
0010
0001
0100
0001
0010
0100
,
1000
0001
0010
0100
0010
0001
1000
0010
0100
0000
0001
0000
1000
0000
0100
0000
,
1010
0101
0011
0110
1100
1010
1001
0110
,
0011
1100
1010
0110
0101
0011
1001
1100
,
1001
0010
0100
1000
0010
0100
0001
0010
0100
1000
0001
1000
0100
0010
0001
1000
,
0100
0010
0100
1000
0001
0010
0100
0010
0001
0000
1000
0000
0010
0000
0100
0000
,
0001
0010
0100
1000
0001
0100
0010
0100
0001
0010
0100
1000
0020
0000
0000
0030
,
1000
0100
0010
0100
1000
0010
0100
0001
0010
0100
0010
0001
2000
0000
0000
3000
,
0001
0100
0010
1000
0010
0100
0001
0010
0100
1000
0010
1000
0200
0000
0000
0300
,
0010
0001
0100
0010
1000
0100
1000
0010
0100
0001
0010
0100
2000
0000
0000
3000
,
0100
0010
0001
0100
0010
1000
0100
0010
0002
0000
1000
0010
0100
0000
1000
0003
,
0220
0000
0000
0330
2002
0000
0000
3003
0101
0000
0000
0000
1000
0100
0010
0100
,
1000
0000
0000
0000
0001
0100
0010
0100
0001
0000
0000
0000
1000
0010
0100
0001
,
0010
0100
1000
0010
0100
0001
0010
0001
1000
0000
0000
0000
0100
0010
0001
1000
,
0010
0000
0000
0000
0100
0001
0010
0100
1000
0000
0000
0000
0100
0010
0100
0001
,
0010
0001
1000
0010
1000
0100
0010
0001
0110
0000
0000
0000
1000
0100
0010
0001
,
0100
0000
0000
0000
0010
0001
0100
0010
1000
0000
0000
0000
0100
0010
0001
1000
,
0001
0010
0100
1000
0001
0100
0001
1000
0100
0000
0000
0000
0010
0001
1000
0100
,
1000
0000
0000
0000
0010
0100
0001
0010
0100
0000
0000
0000
1000
0100
0010
0001
,
0010
0100
1000
0010
1000
0100
0010
0001
0100
0000
0000
0000
0010
0100
0001
0010
,
0100
0000
0000
0000
1000
0100
0010
0100
1000
0000
0000
0000
0001
0100
0010
0100
,
0001
1000
0100
0010
0100
1000
0001
0100
0011
0000
0000
0000
0011
0000
0000
0000
,
0000
0000
1000
1000
0110
0000
0110
0000
,
0000
0000
0010
0010
1100
0000
1100
0000
,
0000
0000
0001
0001
1001
0000
1001
0000
,
0100
0010
0001
1000
0010
1000
0001
0010
1100
0010
0100
0001
0010
0100
1000
0001
,
0100
0001
1000
0010
1000
0100
0010
0001
0100
0010
1000
0100
0010
0001
0100
0001
,
0010
0100
1000
0001
0010
0100
0010
0001
0100
0010
1000
0010
0100
0001
0010
0100
,
0010
0001
1000
0010
0100
0001
1000
0100
0010
0100
1000
0010
0100
0001
0100
0010
,
1000
0001
0100
0001
1000
0010
0100
0001
0010
0100
1000
0001
1000
0100
0010
0100
,
1000
0010
0100
0010
1000
0100
0010
0100
1000
0001
0100
0001
1000
0010
0100
0001
,
0010
0100
1000
0001
0010
0001
0100
0010
0100
0001
0010
0100
1000
0100
0010
0001
,
0100
0010
0100
0001
0010
0100
1000
0100
0010
0001
1000
0010
1000
0001
0100
0001
,
0010
0100
1000
0010
0100
0001
0010
0100
1001
0010
0100
0010
1000
0100
0010
0001
,
1000
0010
1000
0001
0100
0010
0100
0001
1000
0010
0100
0001
0100
0010
1000
0100
,
0010
0100
1000
0001
0010
0001
1000
0010
1000
0001
0100
0001
1000
0100
1000
0001
,
0100
0001
1000
0010
0100
0001
1000
0100
1000
0001
0010
0001
1000
0010
1000
0100
,
0010
0100
1000
0001
0100
0010
1000
0001
0010
0100
0010
0001
1000
0100
1000
0001
,
0100
0001
0100
0010
1000
0100
0010
0100
1000
0001
0100
0010
0100
0001
1000
0100
,
0010
0100
1000
0001
0100
0010
1000
0001
0100
0010
0100
0001
1000
0010
1000
0001
,
0010
0100
1000
0100
0010
0001
0100
0010
1000
0100
0010
0001
1000
0010
0100
0001
,
0010
0100
0010
0001
1000
0010
0100
0001
1100
0000
0000
0000
0110
0000
0000
0000
,
1001
0000
0000
0000
0000
0000
0000
0000
0102
0000
0000
0000
0000
0000
0000
0003
;
