#TITLE:~Lovedol~ Lovely Idol ED;
#SUBTITLE:Love Love Love sei na no Yo!;
#ARTIST:Nogura Sakura, Nakahara Mai, Goto Yuko, Momoi Halko, Chihara Minori, Sakai Kanako;
#TITLETRANSLIT:~Lovedol~ Lovely Idol Ending;
#SUBTITLETRANSLIT:;
#ARTISTTRANSLIT:;
#CREDIT:Asahina-san;
#BANNER:banner.png;
#BACKGROUND:Card 01.jpg;
#LYRICSPATH:;
#CDTITLE:Asahina-san.png;
#MUSIC:Lovely Idol - ED.mp3;
#OFFSET:0.285;
#SAMPLESTART:36.291;
#SAMPLELENGTH:20.000;
#SELECTABLE:YES;
#BPMS:0.000=164.040;
#STOPS:;
#BGCHANGES:;
// cache tags:
#FIRSTBEAT:2.000;
#LASTBEAT:240.000;
#SONGFILENAME:Songs/new again/Love Love Love no Sei na no Yo! - ~Lovedol~ Lovely Idol/lovely idol.sm;
#HASMUSIC:1;
#HASBANNER:1;
#MUSICLENGTH:89.856;
// end cache tags

//---------------dance-single - Blank----------------
#NOTES:
     dance-single:
     Blank:
     Beginner:
     3:
     0.122,0.195,0.211,0.000,0.000,58.000,19.000,0.000,0.000,0.000:





0000
0000
0000
0000
,
1001
0000
0000
0000
,
0000
0000
0010
0000
,
0000
0000
0000
0000
,
1000
0000
0000
0000
,
0001
0000
0000
0000
,
0010
0000
0000
0000
,
0100
0000
0000
0000
,
0101
0000
0000
0000
,
0010
0000
0000
0000
,
1000
0000
0000
0000
,
0100
0000
0000
0000
,
0010
0000
0000
0000
,
0010
0000
0000
0000
,
1000
0000
0000
0000
,
0100
0000
0000
0000
,
0101
0000
0000
0000
,
1010
0000
0000
0000
,
0100
0000
0000
0000
,
0010
0000
0000
0000
,
1000
0000
0000
0000
,
0101
0000
0000
0000
,
0010
0000
0000
0000
,
1010
0000
0000
0000
,
0101
0000
0000
0000
,
1010
0000
0000
0000
,
0000
0000
0000
0000
,
0010
0000
0000
0000
,
0100
0000
0000
0000
,
0101
0000
0000
0000
,
1010
0000
0000
0000
,
0010
0000
0000
0000
,
1000
0000
0000
0000
,
1001
0000
0000
0000
,
0010
0000
0000
0000
,
0100
0000
0000
0000
,
1010
0000
1000
0000
,
0100
0000
0100
0000
,
1000
0000
0100
0000
,
0000
0000
0101
0000
,
0000
0000
0010
0000
,
0000
0000
1000
0000
,
0000
0000
0100
0000
,
0000
0000
0100
0000
,
0000
0000
0010
0000
,
0000
0000
1000
0000
,
0000
0000
0100
0000
,
0000
0000
0010
0000
,
0000
0000
0101
0000
,
0000
0000
1010
0000
,
0000
0000
0100
0000
,
0000
0000
0000
0000
,
0000
0000
0101
0000
,
0000
0000
1010
0000
,
0000
0000
0110
0000
,
0000
0000
0010
0000
,
0000
0000
1000
0000
,
0000
0000
0001
0000
,
0000
0000
0101
0000
;

//---------------dance-single - Blank----------------
#NOTES:
     dance-single:
     Blank:
     Easy:
     4:
     0.278,0.358,0.156,0.000,0.000,161.000,14.000,0.000,0.000,0.000:




0000
0000
1001
0000
,
0010
0100
0010
1000
,
1010
0000
0001
0000
,
0100
0000
0010
1000
,
0010
0000
0100
0010
,
1000
0000
0000
0100
,
0101
0000
0010
1000
,
0010
0100
0001
0100
,
1010
0010
0100
0001
,
0101
0000
0010
1000
,
1010
0000
0000
0000
0001
0000
0000
0100
,
0000
0000
0000
0010
0000
0000
1000
0000
,
0010
0100
0001
0000
,
0000
0000
0000
0000
0000
0000
0000
0010
,
1000
0000
1000
0001
0000
0000
0010
0000
,
0000
0100
0000
0010
0000
0000
0000
0000
,
0000
0000
0000
1000
,
0000
1000
0000
0010
0000
0001
0100
0000
,
0101
0000
0010
1000
,
0010
0100
0001
0010
,
1000
0100
0001
1000
,
0010
0100
0001
1000
,
0010
0100
0110
0000
,
0000
0001
0000
1000
,
0000
0110
0001
0000
,
0000
0000
0110
0000
,
0110
0000
0010
1000
,
0100
0001
0010
0100
,
0100
0000
0010
0000
,
1000
0000
0001
0010
,
0100
1000
0100
0000
,
0010
0000
0100
0001
,
0100
0000
0001
0000
0100
0000
0000
1000
,
0000
0000
0100
0010
,
0100
0010
1000
0000
,
0001
0000
0100
0000
,
1000
0000
0010
0000
,
0100
0000
0001
0100
,
0100
0000
0001
0000
,
1000
0000
0010
0100
,
0010
0000
0101
0000
,
0010
0100
1000
0000
,
0100
0000
0010
0000
,
0010
0000
0000
0000
1000
0000
0000
0100
,
0000
0010
0001
0000
,
0010
0000
0100
0000
,
1000
0000
0100
0000
,
0010
0000
0010
0100
,
1000
0100
0010
0000
,
0100
0000
0100
0010
,
0100
0000
0001
0100
,
0001
0000
0010
0100
,
0010
0000
1000
0100
,
0010
0000
0001
0100
,
0010
0000
1000
0000
,
0110
0000
0001
0100
,
0010
0000
1000
0010
,
0100
0000
0001
0100
,
0010
0000
1001
0000
;

//---------------dance-single - Blank----------------
#NOTES:
     dance-single:
     Blank:
     Medium:
     7:
     0.490,0.455,0.156,0.033,0.000,291.000,14.000,3.000,0.000,0.000:



0000
0000
1001
0000
,
0010
0100
1000
0001
,
0101
0010
1000
0010
,
0200
0000
0302
0000
,
2003
0000
0000
3000
0010
0100
0010
0001
,
0100
0010
1000
0100
0000
0010
0100
0000
,
0101
0010
1000
0010
,
0100
0001
0000
0100
0000
0010
1000
0000
,
0110
0000
0001
0000
1000
0010
0100
0001
,
0100
0000
0010
1000
0000
0100
0010
0000
,
0101
0000
0010
0000
1000
0000
0010
0100
,
0000
0001
0100
0010
0000
1000
0010
0000
,
0100
0001
0100
0100
,
0100
0000
0100
0000
0100
0000
0100
0010
,
1000
0010
0100
0001
0000
0000
0010
0000
,
1000
0100
0000
0010
0000
0100
0001
0000
,
0010
1000
0100
0010
,
0100
0001
0010
1000
0000
0100
0010
0000
,
0001
0010
0100
0010
,
1000
0000
0100
0010
0001
0100
0010
1000
,
0000
0100
0010
0001
,
0010
0000
0100
1000
0100
0000
0010
0001
,
0010
0000
0001
0100
0010
0000
1000
0100
,
0010
0000
0100
0010
0100
0000
1000
0000
,
0100
0000
0001
0000
0100
0001
0100
0000
,
0010
1000
0010
0000
0100
0010
0100
0010
,
1000
0100
0010
0000
0001
0000
0100
0010
,
0100
0000
1000
0100
0010
0000
0100
1000
,
0000
0100
0010
0100
0010
0000
0100
0001
,
0100
0000
0010
0100
0010
0000
1000
0010
,
1000
0000
0001
0100
0001
0000
0100
0010
,
0100
0000
1000
0100
0010
0000
0100
1000
,
0100
0000
0010
0100
0010
0000
0100
0010
,
0100
0000
0001
0010
0100
1000
0100
0010
,
0001
0100
0010
0000
0100
0000
0010
0000
,
0010
0010
0010
0010
,
0010
0010
1010
0010
,
1010
0010
1010
0010
,
1010
0001
0101
0001
,
0101
0001
0101
0001
,
0101
0001
0010
0100
,
1000
0000
0100
0000
0010
0000
0100
0001
,
0010
0100
0010
0000
1000
0000
0100
0000
,
0010
0000
0001
0000
0010
0000
0100
1000
,
0000
0100
0010
0000
0001
0000
0010
0000
,
0100
0010
1000
0000
0100
0000
0010
0000
,
0100
0001
0010
0000
0100
0000
0010
0000
,
1000
0100
0010
0000
0001
0000
0010
0000
,
0100
0000
0010
0000
1000
0100
0010
0100
,
0001
0010
0100
0010
0000
1000
0100
0000
,
0010
0000
0100
0000
0001
0000
0010
0100
,
0010
0000
1000
0100
0000
0010
0100
0000
,
0010
0000
0100
0000
0001
0010
0100
0000
,
0010
0100
0010
0000
0100
0010
1000
0000
,
0100
0010
0100
0000
0001
0000
0010
0100
,
0000
1000
0100
0010
0000
0100
0001
0000
,
0010
0100
0010
0010
,
0010
0010
0010
0010
,
1001
0000
0010
0100
0000
0000
0000
0000
;

//---------------dance-single - Blank----------------
#NOTES:
     dance-single:
     Blank:
     Hard:
     9:
     0.674,0.601,0.367,0.022,0.000,389.000,33.000,2.000,0.000,0.000:

0000
0000
0000
0000
1001
0010
0100
1000
,
0100
0010
0001
0100
0010
1000
0100
0000
,
1010
0101
1010
0101
,
1010
0100
0010
0100
,
0001
0010
0100
1000
0100
0010
0001
0010
,
0100
0010
0100
0100
0010
1000
0100
0010
,
0100
1010
1010
0000
0001
0010
0100
1000
,
0100
0010
0001
0010
0100
0010
1000
0100
,
0010
0100
0010
1000
0100
0010
0001
0010
,
0100
1000
0100
0010
0010
0100
0010
0100
,
0010
1000
0001
0000
0010
0100
0010
1000
,
0100
0010
0100
0001
0010
0100
1000
0100
,
0010
0100
0001
0000
0101
0000
0101
0000
,
0101
0000
0101
0000
0010
1000
0100
0010
,
0001
0100
0010
0100
0010
0000
0100
0000
,
0010
1000
0000
0100
0000
0001
0010
0100
,
1000
0100
0010
0001
0010
0100
0010
0100
,
1000
0100
0010
0100
0001
0010
0100
1000
,
0100
0010
0001
0010
0100
1000
0100
0010
,
0100
0010
0100
0001
0010
0100
0001
0100
,
0010
0100
0010
1000
0100
0010
0001
0100
,
0010
1000
0010
1000
0010
0100
0001
0010
,
0100
1000
0100
0010
0001
0010
0100
0010
,
0100
0010
1000
0100
0001
0001
0001
0010
,
0100
1000
0100
0010
0001
1000
1000
1000
,
0010
0100
0001
0010
0100
1000
0100
0010
,
0001
0000
0010
0000
0010
0100
0010
1000
,
0100
0010
0001
0010
0100
0100
0100
0100
,
0000
0000
0110
0000
0100
0010
1000
0100
,
0001
0010
0100
1000
0100
0010
0001
0010
,
0100
1000
0100
0010
0010
0100
0010
0100
,
0010
1000
0100
0001
0010
0001
0010
0100
,
0010
1000
1000
0100
0010
0100
0001
0010
,
1000
0100
0010
0001
0100
0010
0100
0010
,
1000
0100
0010
0001
0101
0000
0101
0000
,
0101
0101
0101
0101
,
0010
0100
0010
1000
0100
0010
0001
0010
,
0100
0010
0100
0010
0100
0010
1000
0000
,
1010
0000
0010
0100
0001
0100
0010
1000
,
0100
0010
0100
0001
0100
0010
0100
0000
,
0110
0000
0010
0000
1000
0000
1000
0001
,
0000
0001
1000
0000
1000
0000
1000
0010
,
0000
0010
1000
0000
1000
0000
1000
0010
,
0000
0010
1000
0000
0001
0010
0100
1000
,
0100
0010
0001
0000
0101
0000
0101
0000
,
0001
0100
0001
0000
0101
0000
0101
0000
,
0001
0100
0001
0000
0101
0000
0101
0000
,
0001
0100
0001
0000
0001
0100
0001
0000
,
0001
0100
0001
0100
0001
0010
0100
1000
,
0100
0010
0001
0010
0000
0100
0010
0000
,
1000
0000
0010
0000
1000
0100
0010
0001
,
0010
0100
0010
1000
0000
0100
0010
0000
,
1010
0000
1010
0000
0010
0100
0010
1000
,
0100
0010
1000
0010
0000
1000
0010
0000
,
1010
0000
0010
0000
1000
0000
1000
0100
,
0000
0100
1000
0100
0000
0100
1000
0000
,
0100
0000
0010
0000
0100
0001
0010
0100
,
0010
1000
0100
0010
0001
0010
0100
0010
,
1001
0000
0110
2002
0000
0000
0000
0000
,
0000
0000
0000
0000
,
3003
0000
0000
0000
;
