#TITLE:PARANOiA úG;
#SUBTITLE:;
#ARTIST:NH Sound Studio;
#TITLETRANSLIT:;
#SUBTITLETRANSLIT:;
#ARTISTTRANSLIT:;
#CREDIT:;
#BANNER:PARANOiA G.png;
#BACKGROUND:PARANOiA G-bg.png;
#LYRICSPATH:;
#CDTITLE:!danceguyTitle.png;
#MUSIC:PARANOiA G.mp3;
#OFFSET:-0.082;
#SAMPLESTART:66.647;
#SAMPLELENGTH:12.000;
#SELECTABLE:YES;
#BPMS:0.000=90.000,68.000=180.000,180.000=90.000,180.500=359.999,181.000=180.000;
#STOPS:180.500=0.250
;
#BGCHANGES:;
// cache tags:
#FIRSTBEAT:4.000;
#LASTBEAT:307.500;
#SONGFILENAME:Songs/new cc/PARANOiA G/PARANOiA G.sm;
#HASMUSIC:1;
#HASBANNER:1;
#MUSICLENGTH:130.429;
// end cache tags

//---------------dance-single - heavy----------------
#NOTES:
     dance-single:
     heavy:
     Hard:
     12:
     1.000,1.000,1.000,1.000,0.625,654.000,212.000,401.000,0.000,96.000:
0000
0000
0000
0000
,
1000
0000
1000
0000
0001
0000
0020
0030
0000
0000
1000
0000
0001
0020
0030
0000
,
1000
0000
1000
0000
0001
0000
0020
0030
0000
0000
1000
0000
0001
1020
1030
0000
,
1000
0000
1000
0000
0001
0000
0020
0030
0000
0000
1000
0000
0001
0020
0030
0000
,
1000
0000
1000
0000
0001
0000
0020
0030
0000
0000
1000
0000
0001
1020
1030
0000
,
1000
0000
1000
0000
0001
0020
0030
0200
0300
0000
1000
0000
0001
0000
0000
0000
,
1000
0000
1000
0000
0001
0020
0030
2000
3000
0000
1000
0000
0001
1000
1000
0000
,
1000
0000
1000
0000
0001
0020
0030
0200
0300
0000
1000
0000
0001
0000
0000
0000
,
1000
0000
1000
0000
0001
0020
0030
0200
0300
0000
1000
0000
0001
1002
1003
0200
,
1300
0000
0000
0000
0000
0000
0000
0000
1010
0000
0000
0000
0000
0000
0000
0000
0011
0000
0000
0000
0020
0000
0000
0030
0010
0000
0000
0000
0200
0000
0000
0000
0310
0000
0000
0000
0000
0000
0000
0000
1010
0000
0000
0000
0000
0000
0000
0000
0011
0000
0000
0000
0000
0000
0000
0000
0010
0000
0000
0000
0000
0000
0000
0000
,
1010
0000
0000
0000
0000
0000
0000
0000
1010
0000
0000
0000
0000
0000
0000
0000
0011
0000
0000
0000
0020
0000
0000
0030
0010
0000
0000
0000
0002
0000
0000
0000
0013
0000
0000
0000
0000
0000
0000
0000
1010
0000
0000
0000
0000
0000
0000
0000
0011
0000
0000
0000
1000
0000
0000
0000
1010
0000
0000
0000
0000
0000
0000
0000
,
1010
0000
0000
0000
0000
0000
0000
0000
1010
0000
0000
0000
0000
0000
0000
0000
0011
0000
0000
0000
0020
0000
0000
0030
0010
0000
0000
0000
0200
0000
0000
0000
0310
0000
0000
0000
0000
0000
0000
0000
1010
0000
0000
0000
0000
0000
0000
0000
0011
0000
0000
0000
0000
0000
0000
0000
0010
0000
0000
0000
0000
0000
0000
0000
,
1010
0000
0000
0000
0000
0000
0000
0000
1010
0000
0000
0000
0000
0000
0000
0000
0011
0000
0000
0000
0020
0000
0000
0030
0010
0000
0000
0000
0002
0000
0000
0000
0013
0000
0000
0000
0000
0000
0000
0000
1010
0000
0000
0000
0000
0000
0000
0000
0011
0000
0000
0000
1020
0000
0000
0030
1010
0000
0000
0000
0002
0000
0000
0000
,
1103
0000
1000
0000
0101
0020
0030
0002
0103
0000
1000
0000
0101
0020
0030
0002
,
1103
0000
1000
0000
0101
0020
0030
0002
0103
0000
1000
0000
0101
1020
1030
0002
,
1103
0000
0000
0000
1100
0020
0030
0002
1103
0000
0000
0000
1100
0020
0030
0002
,
1103
0000
0020
0000
1130
0000
0002
0000
1103
0000
0020
0000
1130
0000
0002
0000
1103
0000
1020
0000
1032
0000
1003
0000
1002
0000
1003
0000
1000
1000
1000
0000
,
1000
0000
0010
0000
1001
0000
0000
0010
0000
0000
0100
0000
1001
0000
0000
0000
,
0001
0000
1000
0000
0011
0000
0000
0010
0000
0100
0100
0000
1001
0000
0000
0000
,
2002
0000
0000
0000
0000
0000
0000
0000
3223
0000
0000
0000
0000
0000
0000
0330
0220
0000
0000
0000
0000
0000
0000
0000
2332
0000
0000
0000
3003
0000
0000
0000
0000
0000
0000
0000
0000
0000
0000
0000
2020
0000
0000
0000
0000
0000
0000
0030
3022
0000
0000
0000
0000
0000
0000
0030
2023
0000
0000
0000
0000
0000
0000
3030
,
2020
0000
0000
0000
0000
0000
0000
0030
3022
0000
0000
0000
0033
0000
0000
0000
0000
0000
0000
0000
0000
0000
0000
0000
2200
0000
0000
0000
0000
0000
0000
3000
2302
0000
0000
0000
0010
0000
0000
3000
2203
0000
0000
0000
0000
0000
0000
3000
2302
0000
0000
0000
3003
0000
0000
0000
0000
0000
0000
0000
0000
0000
0000
0000
,
0100
0000
0100
0000
0011
0000
0000
1000
0000
0000
1000
0000
0110
0000
0000
0000
,
0010
0000
0010
0000
1100
0000
0000
0001
0000
0001
0001
0000
1100
0000
0000
0000
,
0022
0000
0000
0000
0000
0000
0000
0003
0232
0000
0000
0000
0000
0000
0000
0303
0202
0000
0000
0000
0000
0000
0000
0003
0322
0000
0000
0000
0033
0000
0000
0000
0000
0000
0000
0000
0000
0000
0000
0000
0202
0000
0000
0000
0000
0000
0000
0000
2323
0000
0000
0000
0000
0000
0000
0000
3232
0000
0000
0000
0000
0000
0000
0303
,
0202
0000
0000
0000
0000
0000
0000
0000
2323
0000
0000
0000
3030
0000
0000
0000
0000
0000
0000
0000
0000
0000
0000
0000
0220
0000
0000
0000
0000
0000
0000
0030
2320
0000
0000
0000
0001
0000
0000
0030
3220
0000
0000
0000
0000
0000
0000
0030
2320
0000
0000
0000
3030
0000
0000
0000
0000
0000
0000
0000
0000
0000
0000
0000
,
1000
0000
0001
0000
0011
0000
1000
0100
0000
0100
0010
0000
0101
1000
0010
0000
,
0100
0000
0001
0000
1001
0000
0010
0100
0000
0100
1000
0000
1010
0100
0001
0000
,
2002
0000
0000
0000
0000
0000
0000
0000
3223
0000
0000
0000
0000
0000
0000
0330
0220
0000
0000
0000
0000
0000
0000
0000
2332
0000
0000
0000
3003
0000
0000
0000
0000
0000
0000
0000
0000
0000
0000
0000
0202
0000
0000
0000
0000
0000
0000
0300
2203
0000
0000
0000
0000
0000
0000
0300
3202
0000
0000
0000
0000
0000
0000
0303
,
0202
0000
0000
0000
0000
0000
0000
0300
2203
0000
0000
0000
3300
0000
0000
0000
0000
0000
0000
0000
0000
0000
0000
0000
0022
0000
0000
0000
0000
0000
0000
0003
2032
0000
0000
0000
0100
0000
0000
0003
3022
0000
0000
0000
0000
0000
0000
0003
2032
0000
0000
0000
3003
0000
0000
0000
0000
0000
0000
0000
0000
0000
0000
0000
,
0001
0000
1000
0000
1100
0000
0010
0100
0000
0100
0001
0000
1010
0001
0010
0000
,
0100
0000
1000
0000
1001
0000
0001
1000
0000
1000
0010
0000
1100
0001
0010
0000
,
2200
0000
0000
0000
0000
0000
0000
3000
2320
0000
0000
0000
0000
0000
0000
3030
2020
0000
0000
0000
0000
0000
0000
3000
2230
0000
0000
0000
3300
0000
0000
0000
0000
0000
0000
0000
0000
0000
0000
0000
2020
0000
0000
0000
0000
0000
0000
0000
3232
0000
0000
0000
0000
0000
0000
0000
2323
0000
0000
0000
0000
0000
0000
3030
,
2020
0000
0000
0000
0000
0000
0000
0000
3232
0000
0000
0000
0303
0000
0000
0000
0000
0000
0000
0000
0000
0000
0000
0000
0220
0000
0000
0000
0000
0000
0000
0300
0232
0000
0000
0000
1000
0000
0000
0300
0223
0000
0000
0000
0000
0000
0000
0300
0232
0000
0000
0000
0303
0000
0000
0000
0000
0000
0000
0000
0000
0000
0000
0000
,
0222
0000
0000
0000
2333
3000
0000
0000
2010
3000
0000
0000
2000
3000
0000
0000
0000
0000
0000
0000
2010
3000
0000
0000
2000
3000
0000
0000
2001
3000
0001
0000
,
2001
3000
0000
0000
2001
3000
0000
0000
2010
3000
0000
0000
2000
3000
0000
0000
2000
3000
0001
0000
2001
3000
0000
0000
0010
0000
0000
0000
0000
0000
0000
0000
,
2202
0000
0000
0000
3323
0030
0000
0000
1020
0030
0000
0000
0020
0030
0000
0000
0000
0000
0000
0000
1020
0030
0000
0000
0020
0030
0000
0000
0120
0030
0100
0000
,
0120
0030
0000
0000
0120
0030
0000
0000
1020
0030
0000
0000
0020
0030
0000
0000
0020
0030
0100
0000
0122
0030
0000
0000
1003
0000
0000
0000
0000
0000
0000
0000
,
2220
0000
0000
0000
3332
0003
0000
0000
0102
0003
0000
0000
0002
0003
0000
0000
0000
0000
0000
0000
0102
0003
0000
0000
0002
0003
0000
0000
1002
0003
1000
0000
,
1002
0003
0000
0000
1002
0003
0000
0000
0102
0003
0000
0000
0002
0003
0000
0000
0002
0003
1000
0000
1002
0003
0000
0000
0100
0000
0000
0000
0000
0000
0000
0000
,
2022
0000
0000
0000
3233
0300
0000
0000
0201
0300
0000
0000
0200
0300
0000
0000
0000
0000
0000
0000
0201
0300
0000
0000
0200
0300
0000
0000
0210
0300
0010
0000
,
0211
0300
0000
0000
0211
0300
0000
0000
0211
0300
0000
0000
0211
0300
0000
0000
0011
0000
1000
0000
0001
0000
0010
0000
0101
0000
1000
0000
0001
0000
0100
0000
,
1011
0000
0000
0000
1011
1011
1011
0000
,
0000
0000
0000
0000
0000
0000
0000
0000
0000
0000
0000
0000
0000
0000
0000
0000
2222
0000
0000
0000
0000
0000
0000
0000
0000
0000
0000
0000
0000
0000
0000
3333
2222
0000
0000
0000
0000
0000
0000
0000
0000
0000
0000
0000
0000
0000
0000
3333
2222
0000
0000
0000
0000
0000
0000
0000
0000
0000
0000
0000
0000
0000
0000
3333
,
2222
0000
0000
0033
3322
0000
0000
0000
0033
0000
0022
0000
0000
0000
0033
0000
,
1011
0000
1000
0000
1011
0000
1000
0000
0110
1000
0001
0010
1100
0001
1000
0010
,
0100
0000
0000
0000
0000
0100
0000
0000
0000
0000
0000
0000
0000
0000
0000
0000
1111
0000
0000
0000
0000
0000
0000
0000
0000
0000
0000
0000
0000
0000
0000
0000
0001
0000
0000
0000
0000
0000
0000
0000
0000
0000
0000
0000
1000
0000
0000
0000
1000
0000
0000
0000
0000
0000
0000
0000
1000
0000
0000
0000
0000
0000
0000
0000
,
0001
0000
0000
0000
0000
0000
0000
0000
0000
0000
0000
0000
0000
0000
0000
0000
0020
0000
0000
0000
0000
0000
0000
0030
0020
0000
0000
0000
0000
0000
0000
0000
0031
0000
0000
0000
0000
0000
0000
0000
0200
0000
0000
0000
1000
0000
0000
0000
1000
0000
0000
0000
0000
0000
0000
0000
1000
0000
0000
0000
0000
0000
0000
0000
,
0321
0000
0000
0000
0000
0000
0000
0000
0000
0000
0000
0000
0030
0000
0000
0000
0020
0000
0000
0000
0000
0000
0000
0030
0020
0000
0000
0000
0000
0000
0000
0000
0031
0000
0000
0000
0000
0000
0000
0000
0000
0000
0000
0000
1000
0000
0000
0000
1000
0000
0000
0000
0000
0000
0000
0000
1000
0000
0000
0000
0000
0000
0000
0000
,
0001
0000
0000
0000
0000
0000
0000
0000
0000
0000
0000
0000
0000
0000
0000
0000
0020
0000
0000
0000
0000
0000
0000
0030
0020
0000
0000
0000
0000
0000
0000
0000
0031
0000
0000
0000
0000
0000
0000
0000
0200
0000
0000
0000
1000
0000
0000
0000
1000
0000
0000
0000
0001
0000
0000
0000
1000
0000
0000
0000
0000
0000
0000
0000
,
0321
0000
0000
0000
0000
0000
0000
0000
0000
0000
0000
0000
0030
0000
0000
0000
0002
0000
0000
0000
0000
0000
0000
0003
0002
0000
0000
0000
0000
0000
0000
0000
0013
0000
0000
0000
0000
0000
0000
0000
0000
0000
0000
0000
0100
0000
0000
0000
0100
0000
0000
0000
0000
0000
0000
0000
0100
0000
0000
0000
0000
0000
0000
0000
,
0010
0000
0000
0000
0000
0000
0000
0000
0000
0000
0000
0000
0000
0000
0000
0000
0002
0000
0000
0000
0000
0000
0000
0003
0002
0000
0000
0000
0000
0000
0000
0000
0013
0000
0000
0000
0000
0000
0000
0000
2000
0000
0000
0000
0100
0000
0000
0000
0100
0000
0000
0000
0000
0000
0000
0000
0100
0000
0000
0000
0000
0000
0000
0000
,
3012
0000
0000
0000
0000
0000
0000
0000
0000
0000
0000
0000
0003
0000
0000
0000
0002
0000
0000
0000
0000
0000
0000
0003
0002
0000
0000
0000
0000
0000
0000
0000
0013
0000
0000
0000
0000
0000
0000
0000
0000
0000
0000
0000
0100
0000
0000
0000
0100
0000
0000
0000
0000
0000
0000
0000
0100
0000
0000
0000
0000
0000
0000
0000
,
0010
0000
0000
0000
0000
0000
0000
0000
0000
0000
0000
0000
0000
0000
0000
0000
0002
0000
0000
0000
0000
0000
0000
0003
0002
0000
0000
0000
0000
0000
0000
0000
0013
0000
0000
0000
0000
0000
0000
0000
2000
0000
0000
0000
0100
0000
0000
0000
0100
0000
0000
0000
0010
0000
0000
0000
0100
0000
0000
0000
0000
0000
0000
0000
,
3012
0000
0000
0000
0000
0000
0000
0000
0000
0000
0000
0000
0003
0000
0000
0000
0100
0000
0000
0000
0000
0000
0000
0000
0001
0000
0000
0000
0000
0000
0000
0000
0101
0000
0000
0000
0000
0000
0000
0000
1000
0000
0000
0000
0002
0000
0000
0003
0002
0000
0000
0000
0013
0000
0000
0000
0200
0000
0000
0000
0300
0000
0000
0000
,
1010
0000
0000
0000
0001
0000
0000
0000
1000
0000
0000
0000
0000
0000
0000
0000
0010
0000
0000
0000
0000
0000
0000
0000
0100
0000
0000
0000
0000
0000
0000
0000
1001
0000
0000
0000
0000
0000
0000
0000
0002
0000
0000
0000
0200
0000
0000
0300
0200
0000
0000
0000
0300
0000
0000
0000
0200
0000
0000
0000
0300
0000
0000
0000
,
2013
0000
0000
0000
0000
0000
0000
0000
0000
0000
0000
0000
0000
0000
0000
0000
3001
0000
0000
0000
0000
0000
0000
0000
0010
0000
0000
0000
0000
0000
0000
0000
1010
0000
0000
0000
0000
0000
0000
0000
1000
0000
0000
0000
0200
0000
0000
0300
0200
0000
0000
0000
0310
0000
0000
0000
0002
0000
0000
0000
0003
0000
0000
0000
,
1001
0000
0000
0000
0010
0000
0000
0000
0100
0000
0000
0000
0000
0000
0000
0000
0010
0000
0000
0000
0000
0000
0000
0000
1000
0000
0000
0000
0000
0000
0000
0000
1100
0000
0000
0000
0000
0000
0000
0000
2000
0000
0000
0000
0200
0000
0000
0300
0200
0000
0000
0000
0310
0000
0000
0000
0200
0000
0000
0000
0300
0000
0000
0000
,
3012
0000
0000
0000
0000
0000
0000
0000
0000
0000
0000
0000
0000
0000
0000
0000
1003
0000
0000
0000
0000
0000
0000
0000
0001
0000
0000
0000
0000
0000
0000
0000
0101
0000
0000
0000
0000
0000
0000
0000
0100
0000
0000
0000
0020
0000
0000
0030
0020
0000
0000
0000
1030
0000
0000
0000
0002
0000
0000
0000
0003
0000
0000
0000
,
1100
0000
0000
0000
0010
0000
0000
0000
1000
0000
0000
0000
0000
0000
0000
0000
0010
0000
0000
0000
0000
0000
0000
0000
0100
0000
0000
0000
0000
0000
0000
0000
0110
0000
0000
0000
0000
0000
0000
0000
0020
0000
0000
0000
2000
0000
0000
3000
2000
0000
0000
0000
3000
0000
0000
0000
2000
0000
0000
0000
3000
0000
0000
0000
,
0231
0000
0000
0000
0000
0000
0000
0000
0000
0000
0000
0000
0000
0000
0000
0000
0310
0000
0000
0000
0000
0000
0000
0000
1000
0000
0000
0000
0000
0000
0000
0000
1010
0000
0000
0000
0000
0000
0000
0000
0100
0000
0000
0000
0020
0000
0000
0030
0020
0000
0000
0000
0031
0000
0000
0000
2000
0000
0000
0000
3000
0000
0000
0000
,
0101
0010
0100
0000
1010
0000
0101
0000
1010
0000
0102
0000
1100
1100
0010
0000
,
1023
0000
0032
0003
1100
0000
0000
1100
,
0000
0000
0100
0010
0100
0000
0100
0000
1100
0000
0020
0000
0030
0100
0100
0000
,
1120
0030
0102
0003
1100
0000
0000
1100
,
0000
0000
0100
0010
0100
0000
0100
0000
1100
0000
0000
0000
0000
0100
0100
0000
,
1100
0000
0200
0300
0011
0000
0000
0011
,
0000
0000
0001
1000
0001
0000
0001
0000
0011
0000
2000
0000
3000
0001
0001
0000
,
2011
3000
0201
0300
0011
0000
0000
0011
,
0000
0000
0001
1000
0011
0000
0001
0000
0011
0000
0020
0230
1302
0003
0020
0230
,
1302
0203
0320
0030
2020
3002
2033
3000
0200
0300
0020
0032
0003
2000
3020
0030
,
0200
0302
2003
3000
0200
0320
0032
0003
2000
3000
0020
0230
0302
0003
0002
0003
,
0002
2003
3000
0000
0022
0230
0323
0030
2000
3000
0002
0203
0300
0020
0230
0300
,
0020
2030
3002
0003
0020
0230
2300
3002
2003
3000
0020
0030
0022
0030
0203
0300
,
0202
0320
2033
3020
2230
0302
3203
0302
0023
0030
0200
2300
3200
2300
3020
0030
,
2000
3002
2003
3002
0023
0030
0020
0230
0320
0230
2300
3000
0002
2003
3002
0003
,
0002
0003
0200
0320
2030
3200
0320
0032
2003
3020
0230
0302
0023
0230
2300
3020
,
0230
0000
0302
0000
0023
0000
0230
0000
2300
0000
3002
0000
0203
0000
0320
0000
2030
3200
0320
0032
0203
0320
2030
3200
0321
0000
0000
0000
0030
0000
0000
0000
;
