#TITLE:Hate Crew Deathroll;
#SUBTITLE:;
#ARTIST:Children of Bodom;
#TITLETRANSLIT:;
#SUBTITLETRANSLIT:;
#ARTISTTRANSLIT:;
#CREDIT:;
#BANNER:hcd.jpg;
#BACKGROUND:hatecrewdeathroll.jpg;
#LYRICSPATH:;
#CDTITLE:OMEGAspike.PNG;
#MUSIC:09_-_hate_crew_deathroll.mp3;
#OFFSET:0.085;
#SAMPLESTART:6.880;
#SAMPLELENGTH:14.920;
#SELECTABLE:YES;
#BPMS:0.000=210.000;
#STOPS:;
#BGCHANGES:;
// cache tags:
#FIRSTBEAT:0.500;
#LASTBEAT:740.000;
#SONGFILENAME:Songs/toune 5/COB - Hate Crew Deathroll/Hate Crew.sm;
#HASMUSIC:1;
#HASBANNER:1;
#MUSICLENGTH:215.693;
// end cache tags

//---------------dance-single - Copied from----------------
#NOTES:
     dance-single:
     Copied from:
     Hard:
     10:
     1.000,1.000,0.176,0.626,0.292,1365.000,38.000,135.000,0.000,11.000:
0000
1000
0100
0010
0001
0010
0010
0001
,
0010
0100
1000
0100
0010
0001
0010
0100
,
1000
0100
0010
0001
0010
0100
1000
0100
,
0010
0001
0010
0100
1000
0022
2233
3300
,
0010
1000
0010
0100
0010
1000
0001
0100
,
0010
1000
0010
0100
0010
0100
0010
1000
,
0010
0100
0010
0100
0001
1000
0001
0100
,
0010
0010
0010
0010
1010
1000
1000
1000
,
1000
0010
1000
0010
0100
0010
0100
0001
,
1000
0100
0010
0100
0010
1000
0010
0100
,
0010
0100
0010
1000
0001
0100
0010
0100
,
0012
1000
0010
0100
2003
0100
0010
0001
,
3010
0100
0010
0100
0010
1000
0001
0100
,
0010
0100
0001
1000
0010
0100
0001
1000
,
0100
0010
0001
0010
0100
1000
0100
1000
,
0010
0010
0010
0010
0110
0100
0100
0100
,
0100
1000
0001
0100
0001
1000
0010
0100
,
0001
1000
0010
0100
0001
1000
0010
0100
,
0001
0010
1000
0100
0010
0100
0001
1000
,
2010
0100
0010
0001
3012
0100
1000
2200
,
3303
0010
1000
0100
0001
0010
0001
0010
,
1000
0100
1000
0100
0001
0010
0001
0010
,
1000
0100
1000
0100
0001
0010
0001
0010
,
0002
0000
2003
0000
,
3010
0001
0010
0001
0100
0010
0100
0010
,
1000
0100
1000
0100
0001
0010
0001
0010
,
1000
0100
1000
0100
0001
0010
0001
0000
,
0010
0000
0000
0001
0000
0000
0000
0000
0000
0100
0000
0000
0000
0000
0000
0000
0100
0000
1000
0000
0100
0000
0010
0000
,
2002
3003
1000
0001
0010
0100
0010
0100
,
0001
0010
0001
0010
1000
0100
1000
0100
,
0001
0010
0001
0010
1000
0010
1000
0010
,
0002
0000
0203
0000
,
0310
0001
0010
0001
1000
0100
1000
0100
,
0001
0010
0001
0010
1000
0100
1000
0100
,
0001
0010
0001
0010
1000
0100
1000
0100
,
0010
1000
0000
0010
0000
0100
0010
0001
,
0100
0020
0000
0000
0130
1000
0100
0001
,
0010
0200
0000
0000
0310
0100
1000
0010
,
1000
0002
0000
0000
0013
1000
0100
0010
,
0002
0000
0000
0000
2003
0000
0000
3001
,
0010
2000
0000
0000
3001
0010
1000
0010
,
0100
0002
0000
0000
0013
1000
0010
1000
,
0100
0002
0000
0000
0013
1000
0010
1000
,
0200
0000
0320
0000
,
1030
0200
0000
0000
0310
0001
0010
1000
,
0001
0200
0000
0000
0310
0001
0010
1000
,
0100
0020
0000
0031
0010
0100
1000
0100
,
0020
0000
0230
0000
,
0301
0020
0000
0000
1030
0100
0010
0001
,
1000
0020
0000
0000
0130
1000
0100
0010
,
0001
0020
0000
0000
1030
0100
1000
0001
,
2200
0000
3322
0000
,
1033
0100
0010
0000
0001
0010
0100
0000
,
2000
0000
3100
1000
0100
1000
0100
1000
,
0100
0010
0001
0000
1000
0100
0010
0000
,
0010
0100
0010
1000
0010
0001
0010
0100
,
1000
0100
0010
0000
0001
0010
0100
0000
,
2000
0000
3100
1000
0100
1000
0100
1000
,
0100
0010
0001
0000
1000
0100
0010
0000
,
1000
0100
1000
0001
1000
0100
1000
0010
,
1000
0100
1000
0001
0010
0001
0100
0010
,
1000
0001
0100
0010
1000
0001
0100
2002
,
3013
0100
0010
1000
0010
0100
0010
0100
,
0001
1000
0001
0100
0010
0100
0010
1000
,
0010
0100
1000
0010
0100
0001
0010
0100
,
0001
1000
0010
0100
0001
1000
0001
0010
,
1001
0010
0100
1000
0010
0100
0010
1000
,
0100
0010
0001
1000
0001
0010
0100
0001
,
1000
0010
0100
0001
0000
1010
0100
0001
,
1100
0011
0000
0011
0000
1000
0100
0010
,
2200
3300
1000
0100
0010
0100
0001
0100
,
1000
0100
0001
0100
0010
0100
1000
0100
,
0010
0001
0100
0001
1000
0010
0100
0001
,
0100
0001
1000
0010
0100
0001
0100
0022
,
2233
3310
0001
0010
0100
0001
0010
1000
,
0001
0010
0100
0001
1000
0010
0100
0001
,
1000
0001
0100
0010
0001
1000
0001
0100
,
0010
1000
0001
1000
0100
0001
0100
0001
,
1000
0100
0010
0001
0010
0100
1000
0000
0010
0000
0000
0000
0011
0000
0000
0000
,
1000
0100
0010
0001
0010
0100
1000
0000
0100
0000
0000
0000
0011
0000
0000
0000
,
1000
0100
0010
0001
0010
0100
1000
0000
0100
0000
0000
0000
0001
0000
0000
0000
,
2000
0000
3020
0000
,
1030
0100
0010
0001
0010
0100
1000
0000
0100
0000
0000
0000
0011
0000
0000
0000
,
1000
0100
0010
0001
0010
0100
1000
0000
0100
0000
0000
0000
0011
0000
0000
0000
,
1000
0100
0010
0001
0010
0100
1000
0000
0100
0000
0000
0000
0011
0000
0000
0000
,
2000
0000
3020
0000
,
1030
0100
0010
0100
0020
0000
0032
0000
,
1003
0010
0100
0010
0200
0000
0320
0000
,
1030
0010
0100
0001
0200
0000
0302
0000
,
2003
0000
3020
0000
,
1030
0010
0100
0010
0002
0000
0023
0000
,
1030
0010
0100
0010
0200
0000
0302
0000
,
1003
0010
0100
0001
0200
0000
0302
0000
,
0123
1000
0100
0001
0100
1000
0231
0010
1000
0010
0001
0010
,
1300
0100
0001
1000
0010
0100
0001
1000
,
0010
0001
0100
0001
0100
1000
0001
0100
,
0010
0001
1000
0010
0100
0001
1000
0100
,
0001
0010
0100
0001
0100
0010
1000
0001
,
1000
0100
0010
0001
1000
0010
0100
0001
,
1000
0001
0100
0010
0001
1000
0010
0100
,
0001
1000
0001
0100
0010
0100
0010
0001
,
0100
1000
0001
1000
0100
0010
0001
1000
,
0100
0010
0001
0010
0200
0000
0310
0001
,
2000
0000
3100
0010
0002
0000
0013
0100
,
2000
0000
3100
0001
0020
0000
1030
0001
,
0200
0000
0310
0002
0000
0003
0100
0001
,
1000
0010
0100
0001
1000
0001
0100
0010
,
1000
0001
0100
0001
1000
0010
0100
0001
,
1000
0001
0100
0010
0001
1000
0001
0100
,
0002
0010
1000
0010
1000
0010
0100
0010
,
1003
0100
0010
0000
0001
0010
0100
0000
,
2000
0000
3100
1000
0100
1000
0100
1000
,
0100
0010
0001
0000
1000
0100
0010
0000
,
1000
0001
0010
0001
0100
0001
0010
0001
,
1000
0100
0010
0000
0001
0010
0100
0000
,
2000
0000
3100
1000
0100
1000
0100
1000
,
0100
0010
0001
0000
1000
0100
0010
0000
,
0001
0010
1000
0001
0100
0001
1000
0010
,
0100
0001
0100
0010
0001
1000
0100
0010
,
0100
0010
0001
1000
0001
0100
0010
0100
,
0011
1000
0100
1100
1000
0001
0100
1000
,
0001
1000
0100
0010
1000
0001
0010
0100
,
1100
0010
0100
0011
1000
0001
1100
0100
,
0010
1100
0010
1000
0010
0001
1000
0100
,
0011
0100
0010
2200
3300
0010
0001
1000
,
0001
0100
0010
0001
1000
0010
0001
0010
,
0200
0000
0000
0320
,
0000
0000
0000
0000
,
2030
0000
0000
0000
,
3020
0032
0023
0032
0023
0032
0000
0000
,
0103
1000
0100
0010
0001
0010
0100
1000
0100
0010
0001
0010
0100
1000
0100
0010
,
0001
0010
0100
0010
0001
0010
0100
1000
0100
0010
0100
0010
0001
0010
0100
0010
,
0100
1000
0010
0100
0010
0001
1000
0100
,
0010
0100
0010
0002
0000
0000
0000
0000
,
0103
0010
0100
0010
0100
0010
0100
0022
,
0033
0000
1000
0000
0100
0000
1000
0000
0100
0000
1000
0000
0100
0000
1000
0100
,
0010
0001
0010
0100
1000
0100
0010
0001
0010
0100
1000
0100
0010
0001
0010
0100
,
1000
0100
0010
0100
0010
0001
0010
0100
1000
0100
0010
0100
0010
0001
0010
0100
,
1000
0100
0010
0001
0010
0100
1000
0100
,
0010
0100
0001
1000
0100
0010
0001
0100
,
1000
0001
0100
0001
0010
1000
0001
0100
,
1000
0100
0010
0001
0010
0100
1000
0100
0010
0001
0010
0100
1000
0100
0010
0100
,
0020
0000
0000
0000
,
1030
0100
0010
0001
0010
0100
1000
0100
,
0010
0100
0001
1000
0010
0001
0010
0100
1000
0100
0010
0001
0010
0100
1000
0100
,
0010
0001
0010
0100
1000
0100
0010
0001
0010
0100
1000
0010
0100
0010
0001
0010
,
1000
0100
0010
0001
1000
0100
0010
0001
1000
0100
0010
0001
1000
0100
0010
0001
,
1000
0100
0010
0001
0010
0100
1000
0100
0010
0001
0010
0100
1000
0100
0010
0001
,
0010
0100
1000
0100
0010
0001
0010
0100
1000
0100
0010
0001
0010
0100
1000
0100
,
0010
0001
0010
0100
1000
0100
0010
0001
0010
0100
1000
0100
0001
1000
0001
0100
,
0010
0001
0010
0100
2000
0000
3200
0000
,
0301
0010
0100
1000
0200
0000
0320
0000
,
1030
0001
0100
0010
2000
0000
3200
0000
,
0302
0000
2003
0000
,
3001
0100
1000
0010
2000
0000
3020
0000
,
1030
0001
0100
0001
2000
0000
3200
0000
,
0310
1000
0010
0001
0200
0000
0320
0000
,
2030
0000
3200
0000
,
0310
0001
1000
0001
0200
0000
0320
0000
,
1030
0100
0010
0100
0002
0000
2003
0000
,
3100
0010
1000
0001
0200
0000
0320
0000
,
2030
0000
3200
0000
,
0310
0001
1000
0100
0002
0000
0203
0000
,
1300
0010
0001
0100
0020
0000
0230
0000
,
1300
0001
0100
0001
0200
0000
0320
0000
,
2130
0010
0001
0010
0100
0010
3002
0010
0100
1000
0100
0010
,
1003
0100
0001
0100
0001
1000
0100
0010
,
0001
1000
0001
0100
0010
0001
1000
0010
,
0001
0100
0001
0100
0001
1000
0001
0100
,
0001
0010
0001
1000
0001
0100
0010
0001
,
1000
0001
0100
0001
1000
0010
0001
0100
,
0010
0100
0001
1000
0001
0100
0010
0001
,
1000
0001
0100
0010
0001
0010
0001
0010
,
0100
0010
1000
0010
0001
0010
1000
0010
,
0001
0100
0001
0010
0200
0000
0310
0001
,
2000
0000
3100
0010
0002
0000
0013
1000
,
0200
0000
1300
0001
0200
0000
0301
0010
,
2000
0000
3001
0020
0000
0130
1000
0100
,
0010
0100
0001
1000
0010
0001
0100
0010
,
0001
1000
0001
0100
0010
0001
0100
1000
,
0001
0010
0100
0001
1000
0010
0100
0001
,
0100
0001
0010
1000
0001
0010
0100
0001
,
1000
0100
0010
0000
0001
0010
0100
0000
,
2000
0000
3100
1000
0100
1000
0100
1000
,
0100
0010
0001
0000
1000
0100
0022
0000
,
0033
0000
0000
0000
;
