#TITLE:LOW;
#SUBTITLE:;
#ARTIST:RAM;
#TITLETRANSLIT:;
#SUBTITLETRANSLIT:;
#ARTISTTRANSLIT:;
#CREDIT:;
#BANNER:Low BN.png;
#BACKGROUND:Low BG.png;
#LYRICSPATH:;
#CDTITLE:!Snowcrafta CDtitle 3.png;
#MUSIC:19.LOW.mp3;
#OFFSET:-0.440;
#SAMPLESTART:99.860;
#SAMPLELENGTH:12.000;
#SELECTABLE:YES;
#BPMS:0.000=160.001;
#STOPS:;
#BGCHANGES:;
// cache tags:
#FIRSTBEAT:2.000;
#LASTBEAT:291.500;
#SONGFILENAME:Songs/Ace Megapack/LOW/LOW.sm;
#HASMUSIC:1;
#HASBANNER:1;
#MUSICLENGTH:112.590;
// end cache tags

//---------------dance-single - ----------------
#NOTES:
     dance-single:
     :
     Hard:
     11:
     1.000,1.000,0.506,0.000,1.000,976.000,57.000,0.000,0.000,0.000:
0000
0000
0000
0000
0000
0000
0000
0000
0001
0100
0001
0100
0001
0010
0001
0010
,
0001
1000
0010
0100
0001
0100
0010
0100
0001
1000
0010
1000
0010
1000
0100
0001
,
0100
0001
0010
0100
1000
0001
0100
0010
1000
0100
1000
0100
1000
0001
0010
0001
,
0010
0100
1000
0010
1000
0010
1000
0001
0100
0010
1000
0001
0100
0010
1000
0100
,
1000
0010
0100
0001
0010
0001
0010
0001
1000
0001
1000
0001
1000
0010
1000
0010
,
0100
0001
0010
0100
1000
0010
0100
0001
1000
0100
1000
0100
0010
0001
0010
0001
,
0010
0100
1000
0010
0100
0001
0010
0100
1000
0010
0100
0001
1000
0010
0100
0001
,
0010
0100
1000
0010
0100
0010
0100
0001
0010
0100
1000
0010
0100
0001
1000
0010
,
1000
0010
1000
0010
0100
0001
0100
0001
0010
0100
1000
0100
0011
0000
1000
0000
,
0110
0000
0001
0010
0100
1000
0010
0100
0011
0000
1000
0000
0011
0000
1000
0010
,
0100
0010
1000
0001
0010
0100
1000
0010
0100
0001
1000
0010
0100
0001
1000
0001
,
0101
0000
0100
0001
1000
0010
0100
0001
0100
0001
0100
0010
0100
0010
1000
0000
,
1001
0000
1000
0010
0100
0010
0100
0010
1000
0001
0010
0100
0010
0001
1000
0010
,
0100
0010
1000
0100
1000
0100
0001
0010
0001
0010
0100
1000
0010
0100
0001
0000
,
0011
0000
1000
0010
0100
0001
0100
0001
0100
0010
0100
0010
1000
0010
1000
0010
,
0100
0001
0100
0001
0010
0100
1000
0010
0100
0001
1000
0100
0010
0001
1000
0001
,
1000
0001
1000
0010
0100
0010
0100
0010
0100
0010
1000
0100
0010
0001
1010
0000
,
1100
0000
1010
0001
0100
0010
1000
0010
0100
0010
0100
0001
1010
0000
0110
0000
,
1001
0000
0011
1000
0010
0100
0001
0100
0001
0100
0010
1000
0010
0100
0101
0000
,
1010
0000
1001
0010
0100
1000
0001
0100
0010
1000
0001
1000
0001
0010
0001
0010
,
0100
1000
0010
0100
0001
1000
0010
0100
0010
0100
0001
1000
0100
0010
0100
1000
,
0001
0010
0100
0010
0001
1000
0010
0100
0001
1000
0010
0100
0010
0100
0010
1000
,
0001
0010
0100
0010
0001
1000
0100
1000
0001
0010
0001
0100
0010
0100
1000
0010
,
0100
0001
1000
0001
0100
0001
0100
0010
0100
0010
1000
0001
0100
0010
1000
0001
,
0100
0001
1000
0010
0100
0001
1000
0010
0100
0010
0100
0001
1000
0100
0010
0100
,
1000
0010
0100
0001
0010
0001
0010
0001
1000
0001
1000
0001
1000
0010
1000
0010
,
1000
0100
1000
0100
0010
0001
0010
0100
1000
0010
0100
0001
1000
0010
0100
0001
,
1000
0001
1000
0001
1000
0001
0010
0100
0010
0100
0010
0100
0010
1000
0001
1000
,
0001
1000
0001
0100
0001
0100
0001
0100
0010
0100
0010
0100
0010
1000
0001
0010
,
0100
1000
0001
0100
0010
0100
0010
0100
0001
1000
0100
0010
0100
1000
0001
0010
,
0100
0010
0001
0010
0001
1000
0100
0010
0100
1000
0100
1000
0010
0100
0001
1000
,
0001
1000
0001
0100
0010
1000
0010
0100
0010
1000
0010
0100
0001
1000
0010
0100
,
0010
0100
0001
0010
0001
0010
0001
0010
0001
0010
0001
0010
0001
0000
0011
0000
,
0000
0011
0000
0011
,
0000
0101
0000
0000
0000
0000
0110
0000
0000
0110
0000
0000
1001
0000
0011
0000
,
0000
0000
0000
1001
0000
0000
0000
0000
0000
0000
0000
0000
0000
1001
0000
0000
,
0000
0000
0011
0000
0000
1000
0000
0000
1000
0000
0000
0011
0000
0000
1001
0000
,
0000
0000
0000
0011
0000
0000
0000
0000
0000
0000
0000
0000
0101
0000
0000
0000
,
0000
1001
0000
0000
0000
1001
0000
0000
0110
0000
0000
0110
0000
0000
0000
1001
,
0000
0000
0000
0011
0000
0000
0000
0000
1001
0000
0000
0000
0000
0000
0000
0000
,
0000
0000
1010
0000
1001
0000
0000
0011
0000
0000
0000
0000
1001
0000
0100
0000
,
0001
1000
0010
0100
0001
0100
1000
0010
,
0100
0000
0000
0011
0000
0011
0000
0000
0000
1100
0000
0000
1100
0000
0100
0000
,
0001
1000
0010
0100
0001
0100
0010
0100
,
0010
1000
0001
0100
1001
0010
0001
0110
,
1000
0100
0010
0001
1000
0010
0100
0001
,
0100
0000
0101
0000
0000
0011
0000
0000
1000
0000
0000
1010
0000
0000
0011
0000
,
1100
0000
1001
0000
0110
0000
0000
0000
0000
0000
0000
0000
0000
0000
1000
0010
,
0100
0001
1000
0010
1000
0010
0100
0010
0100
0001
0100
0001
0010
0001
0010
0100
,
1000
0010
0100
0001
1000
0010
0100
0010
0100
0001
0010
0100
1000
0100
0010
0001
,
0100
0010
1000
0010
0100
0001
0100
0001
0100
0001
0010
0001
0010
0100
1000
0010
,
0100
0001
1000
0010
0100
0010
0100
0001
1000
0100
0010
0100
1000
0001
0010
0100
,
0010
0001
1000
0010
0100
0001
1000
0010
0100
0010
1000
0001
0010
0100
0010
0001
,
1000
0010
0100
0001
1000
0001
1000
0001
1000
0001
0010
0100
1000
0010
0100
0001
,
1000
0010
0100
0001
1000
0010
0100
0010
1000
0001
0010
0100
0010
0100
0001
1000
,
0010
0100
0001
0100
0010
0100
0001
0010
0100
1000
0010
0100
0001
1000
0010
0100
,
0010
1000
0001
0010
0100
1000
0010
0100
0001
1000
0010
0100
0010
0100
0010
1000
,
0001
0010
0100
0010
0001
1000
0010
0100
0001
1000
0010
0100
0010
0100
0001
1000
,
0010
0100
0001
1000
0010
0100
0010
1000
0001
0010
0100
0010
0001
1000
0100
0010
,
0001
0010
0100
1000
0001
0100
0010
0100
0010
1000
0001
0100
0010
0100
0010
1000
,
0001
0100
0010
0100
0010
0100
0010
0100
0001
0010
0100
1000
0100
0010
0001
0100
,
0010
1000
0100
0010
0100
1000
0001
0010
0100
0010
0001
1000
0010
0100
0010
1000
,
0001
0100
0010
0100
0001
1000
0010
0100
0001
1000
0010
0100
0001
0010
0100
1000
,
0010
0100
0001
1000
0100
0010
0100
1000
0001
0010
0100
0010
0001
1000
0100
0010
,
0100
1000
0010
0100
0001
1000
0100
0010
0100
1000
0001
0010
0100
0010
0100
0010
,
1000
0001
0010
0100
0010
0100
0010
1000
0001
0010
0100
1000
0010
0100
0001
1000
,
0100
1000
0100
1000
0001
0010
0100
1000
0010
0100
0001
1000
0010
0100
0001
1000
,
0010
0100
0001
0100
0010
0100
0010
1000
0010
0100
0001
0010
0001
0010
0001
0010
,
0100
1000
0010
1000
0010
1000
0100
0010
0001
0100
0001
0100
0001
0010
0100
1000
,
0010
0100
0001
1000
0100
1000
0100
1000
0100
0010
0001
0010
0001
0010
0001
0010
,
0100
1000
0010
0100
0001
0010
0001
0010
0100
1000
0010
0100
0001
1000
0100
0010
,
0100
1000
0001
0010
0100
0010
0001
1000
0010
0100
0001
0100
0010
0100
0001
0100
,
0010
0100
0001
0010
0100
1000
0100
0010
0100
1000
0010
0100
0010
0100
1001
0000
;
