#TITLE:Battle With Marx;
#SUBTITLE:;
#ARTIST:Kirby Super Star;
#TITLETRANSLIT:;
#SUBTITLETRANSLIT:;
#ARTISTTRANSLIT:;
#CREDIT:;
#BANNER:Battle With Marx - Banner.png;
#BACKGROUND:Battle With Marx - Background.png;
#LYRICSPATH:;
#CDTITLE:!kilgacdtitle.png;
#MUSIC:Kirby Super Star - Battle With Marx.mp3;
#OFFSET:-3.920;
#SAMPLESTART:46.920;
#SAMPLELENGTH:14.500;
#SELECTABLE:YES;
#BPMS:0.000=186.740;
#STOPS:;
#BGCHANGES:;
// cache tags:
#FIRSTBEAT:0.000;
#LASTBEAT:191.000;
#SONGFILENAME:Songs/Community Keyboard Megapack - Volume 2/(Kilgamayan) Battle With Marx/Kirby Super Star - Battle With Marx.sm;
#HASMUSIC:1;
#HASBANNER:1;
#MUSICLENGTH:74.422;
// end cache tags

//---------------dance-single - Heavy----------------
#NOTES:
     dance-single:
     Heavy:
     Hard:
     12:
     1.000,1.000,1.000,0.847,1.000,659.000,84.000,63.000,0.000,3.000:
0100
0000
0000
1000
0001
0000
0010
1000
0010
0000
0001
0100
1010
0000
0011
0000
,
1100
0000
0001
0010
0100
0010
0001
1000
0100
1000
0010
0100
0001
0000
1000
0100
,
0010
0001
0010
0100
1000
0100
0010
0001
1100
0000
0011
0000
1100
0000
0100
0000
,
0001
0000
0010
0000
0001
0000
0010
0000
0100
0000
1000
0000
0100
0000
0000
0000
0000
0000
0000
0000
0000
0001
0000
0000
0010
0000
0000
0000
0000
0000
0100
0000
0000
0001
0000
0000
1000
0000
0000
0000
0000
0000
0100
0000
0000
0001
0000
0000
,
0110
0000
1010
0000
0101
0000
0010
1000
0010
0100
0010
0001
0010
0100
1000
0010
,
0101
0000
1001
0000
1100
0010
0001
0010
0100
0000
1000
0001
1100
0000
0110
0000
,
0011
0000
0000
1000
0000
0000
0100
0000
0000
1000
0000
0000
0010
0000
0000
1000
0000
0000
0100
0000
0000
0010
0000
0000
0001
0000
0000
0010
0000
0000
0100
0000
0000
1000
0000
0000
0001
0000
0010
0000
0100
0000
1000
0000
0100
0000
0010
0000
,
0001
0000
0000
1000
0011
0000
0001
1000
0110
0000
0001
0010
1100
0000
1010
0000
,
0001
0000
1000
0000
0001
0000
1000
0000
0001
0000
1000
0000
0100
0000
0000
0000
0000
0000
0000
0000
0000
1000
0000
0000
0101
0000
0000
0000
0000
0000
0010
0000
0000
0100
0000
0000
1001
0000
0000
0010
0000
0000
0100
0000
0000
1000
0000
0000
,
0110
0000
0000
0000
0000
0000
1001
0000
0000
0000
0000
0000
0010
0000
0100
0000
1000
0000
0001
0000
0010
0000
0100
0000
1000
0000
0000
0000
0000
0000
0000
0000
0000
0100
0000
0000
0011
0000
0000
0000
0000
0000
0010
0000
0000
0100
0000
0000
,
1000
0000
0001
0000
1000
0000
0010
0000
1000
0000
0001
0000
1000
0000
0000
0000
0000
0000
0000
0000
0000
0010
0000
0000
1001
0000
0000
0000
0000
0000
0010
0000
0000
0001
0000
0000
1000
0000
0100
0000
1000
0000
0100
0000
0010
0000
0001
0000
,
0010
0000
0000
0000
0010
0100
1000
0001
0010
0100
1000
0100
1001
0000
0000
0000
,
0010
0000
0000
0100
0000
0000
1000
0000
0000
0000
0000
0000
0001
0000
0100
0000
0001
0000
0010
0000
0001
0000
0100
0000
0010
0000
0000
0000
0000
0000
0000
0000
0000
0001
0000
0000
1000
0000
0000
0000
0000
0000
0010
0000
0000
1000
0000
0000
,
0010
0000
0100
1000
0011
0000
1010
0000
0011
0000
0100
0010
0001
1000
0100
1000
,
0001
0010
0100
0001
0100
0000
0010
0001
0010
0001
1000
0001
0010
0100
0010
0001
,
1100
0000
0000
0000
0000
0000
0101
0000
0000
0000
0000
0000
1100
0000
0000
0000
0000
0000
0010
0000
0000
0000
0000
0000
1000
0000
0010
0000
0100
0000
0001
0000
1000
0000
0010
0000
0100
0000
0000
0000
0000
0000
0000
0000
0000
0001
0000
0000
,
0100
0000
0010
0001
0010
0000
0100
1000
0110
0000
1001
0000
1010
0100
0010
0001
,
0010
0000
0010
0100
1000
0001
0010
0100
1001
0000
0110
0000
0101
0010
1000
0010
,
1000
0000
0100
1000
0011
0000
1100
0000
0011
1000
0010
1000
0100
1000
0100
0010
,
0100
0000
0000
0001
0000
0000
0100
0000
0000
0001
0000
0000
0010
0000
0001
0000
0010
0000
0100
0000
1000
0000
0100
0000
0010
0000
0000
0000
0000
0000
0000
0000
0000
1000
0000
0000
0011
0000
0000
0000
0000
0000
0010
0000
0000
1000
0000
0000
,
0101
0000
0000
0000
0000
0000
0100
0000
0000
0001
0000
0000
1010
0000
0000
0000
0000
0000
0101
0000
0000
0000
0000
0000
0010
0000
0100
0000
0010
0000
0100
0000
0010
0000
0100
0000
0010
0000
0000
0000
0000
0000
0000
0000
0000
0100
0000
0000
,
1001
0000
0000
0000
0000
0000
0100
0000
0000
1000
0000
0000
0011
0000
0000
0000
0000
0000
0100
0000
0000
0001
0000
0000
1100
0000
0000
0000
0000
0000
0011
0000
0000
0000
0000
0000
0100
0000
0010
0000
0100
0000
1000
0000
0001
0000
0010
0000
,
0001
0000
0000
0000
0000
0000
0000
0000
0000
0001
0000
0000
0110
0000
0000
0000
0000
0000
0010
0000
0000
0100
0000
0000
1000
0000
0100
0000
0010
0000
0001
0000
1000
0000
0100
0000
0010
0000
0000
0000
0000
0000
0000
0000
0000
0100
0000
0000
,
1010
0000
0000
0000
0000
0000
0100
0000
0000
0010
0000
0000
0001
0000
1000
0000
0001
0000
0100
0000
0001
0000
1000
0000
0001
0000
0000
0000
0000
0000
0000
0000
0000
1000
0000
0000
0001
0000
0000
0100
0000
0000
0010
0000
0000
1000
0000
0000
,
0001
0000
0000
1000
0000
0000
0010
0000
0000
0100
0000
0000
1001
0000
0000
0000
0000
0000
0000
0000
0000
1000
0000
0000
0001
0000
0000
0010
0000
0000
0100
0000
0000
1000
0000
0000
0001
0000
0100
0000
0001
0000
0010
0000
0100
0000
1000
0000
,
0200
0000
0300
0010
0002
1000
0103
1000
0100
1000
0020
0001
2130
0000
3002
0010
,
0203
0010
0301
0010
0200
1000
0301
0010
0102
0000
0003
1000
0200
0010
0301
0010
,
0200
0010
0301
1000
0210
0000
2300
0001
3200
0001
1300
0001
0020
0100
1030
0100
,
2001
0000
3000
0010
0002
0010
0103
0010
2000
0100
3010
0001
2000
0001
3010
0100
,
1000
0000
0100
0000
1000
0000
0010
0000
1000
0000
0100
0000
2000
0000
0000
0000
0000
0000
3000
0000
0000
0010
0000
0000
0002
0000
0000
1000
0000
0000
0103
0000
0000
0010
0000
0000
2000
0000
0000
0001
0000
0000
3010
0000
0000
0001
0000
0000
,
0200
0000
0000
0010
0000
0000
0301
0000
0000
1000
0000
0000
0001
0000
0010
0000
0001
0000
1000
0000
0001
0000
0100
0000
2001
0000
0000
0000
0000
0000
3000
0000
0000
0000
0000
0000
0011
0000
0000
0000
0000
0000
0110
0000
0000
0000
0000
0000
,
1100
0000
0000
0010
0000
0000
0100
0000
0000
0010
0000
0000
1001
0000
0000
0000
0000
0000
0000
0000
0000
0010
0000
0000
0100
0000
0000
1000
0000
0000
0100
0000
0000
0010
0000
0000
0001
0000
0010
0000
0100
0000
1000
0000
0001
0000
0010
0000
,
0100
0000
0000
0001
0010
0001
0100
0001
0110
0000
0010
0100
1001
0000
0000
0100
,
0010
0000
0000
0001
0000
0000
0010
0000
0000
0100
0000
0000
1000
0000
0010
0000
0100
0000
0001
0000
0100
0000
0010
0000
1000
0000
0000
0000
0000
0000
0100
0000
0000
0100
0000
0000
0100
0000
0000
0000
0000
0000
0200
0000
0000
0310
0000
0000
,
0200
0000
0000
1000
0000
0000
0320
0000
0000
1000
0000
0000
0032
0000
0000
0010
0000
0000
0103
0000
0000
0010
0000
0000
0001
0000
1000
0000
0001
0000
0100
0000
0001
0000
0010
0000
0100
0000
0000
0000
0000
0000
1100
0000
0000
0000
0000
0000
,
0101
0000
0000
0000
0000
0000
0010
0000
0000
0001
0000
0000
0110
0000
0000
0000
0000
0000
1100
0000
0000
0000
0000
0000
0101
0000
0000
0000
0000
0000
0010
0000
0000
0100
0000
0000
1000
0000
0100
0000
0010
0000
0001
0000
0010
0000
0100
0000
,
1000
0000
0010
0010
0010
0000
0020
0130
0020
0001
0230
0001
2300
0010
3002
0100
,
0023
0000
0000
0100
0000
0000
1030
0000
0000
0000
0000
0000
0010
0000
0100
0000
0010
0000
0100
0000
0010
0000
0100
0000
0010
0000
0000
0000
0000
0000
1100
0000
0000
0000
0000
0000
0011
0000
0000
0000
0000
0000
1000
0000
0000
0001
0000
0000
,
0110
0000
0000
0000
0000
0000
1100
0000
0000
0000
0000
0000
0011
0000
0000
0100
0000
0000
1000
0000
0000
0100
0000
0000
0001
0000
0010
0000
0001
0000
0010
0000
0001
0000
0010
0000
0001
0000
0000
0000
0000
0000
0001
0000
0000
0001
0000
0000
,
0001
0000
0002
0003
0012
0000
0023
0000
1230
0000
0300
0010
0200
0000
0310
0001
,
1020
0000
0032
0000
2103
0000
3200
0010
2300
0000
3010
0001
0110
0000
0010
0100
,
1001
0000
0000
0001
1000
0100
0010
0001
1100
0000
0010
0100
1002
0000
0013
0100
,
2000
0100
3010
0001
0020
0001
0130
0001
2000
0100
3010
0001
2000
0100
3010
0100
,
0001
0000
1000
0000
0100
0000
0010
0000
0001
0000
1000
0000
0200
0000
0000
0000
0000
0000
0300
0000
0000
0001
0000
0000
2000
0000
0000
0001
0000
0000
3010
0000
0000
0100
0000
0000
0020
0000
0000
0100
0000
0000
1030
0000
0000
0001
0000
0000
,
2000
0000
0000
0010
0000
0000
3100
0000
0000
0010
0000
0000
0002
0000
0000
0010
0000
0000
0103
0000
0000
1000
0000
0000
0010
0000
0100
0000
1000
0000
0100
0000
0010
0000
0001
0000
2000
0000
0000
0000
0000
0000
3001
0000
0000
0010
0000
0000
,
0002
0010
1003
0100
2000
0001
3010
0100
0002
0100
0013
0100
2000
0010
3001
0010
,
0102
0000
0000
0000
0000
0000
0013
0000
0000
0100
0000
0000
2010
0000
0000
0000
0000
0000
3000
0000
0000
0010
0000
0000
0002
0000
0000
1000
0000
0000
0013
0000
0000
0100
0000
0000
0001
0000
1000
0000
0001
0000
1000
0000
0001
0000
1000
0000
,
0002
0000
0000
0000
0000
0000
0003
0000
0000
1000
0000
0000
0200
0000
0000
0010
0000
0000
0301
0000
0000
0000
0000
0000
0010
0000
0100
0000
0010
0000
0100
0000
0010
0000
0100
0000
1001
0000
0000
0000
0000
0000
0000
0000
0000
0000
0000
0000
;
