#TITLE:Delirium;
#SUBTITLE:8-Arrowed;
#ARTIST:=);
#TITLETRANSLIT:;
#SUBTITLETRANSLIT:;
#ARTISTTRANSLIT:;
#CREDIT:Izzy;
#BANNER:Delirium-bn.png;
#BACKGROUND:Delirium-bg.png;
#LYRICSPATH:;
#CDTITLE:!IzzyTitle.png;
#MUSIC:Delirium.mp3;
#OFFSET:1.380;
#SAMPLESTART:37.480;
#SAMPLELENGTH:9.980;
#SELECTABLE:YES;
#BPMS:0.000=163.000;
#STOPS:;
#BGCHANGES:;
// cache tags:
#FIRSTBEAT:4.000;
#LASTBEAT:357.000;
#SONGFILENAME:Songs/Izzy's 8-Arrowed Pack Volume 1/Delirium/Delirium.sm;
#HASMUSIC:1;
#HASBANNER:1;
#MUSICLENGTH:133.590;
// end cache tags

//---------------dance-double - Dedicated to Veronik----------------
#NOTES:
     dance-double:
     Dedicated to Veronik:
     Hard:
     11:
     1.000,1.000,1.000,1.000,1.000,1093.000,441.000,265.000,0.000,378.000:
00000000
00000000
00000000
00000000
,
20000001
00000010
00000100
00001000
00000001
30000010
20000100
00001000
00000001
00000100
00000010
30001000
20000001
00000100
00000010
00001000
,
00000010
30000100
00000001
00001000
00000010
00000100
00000001
00001000
00000010
00001000
00000001
00000010
00000100
00001000
00000001
00000010
,
00020100
00000010
00000001
00001000
00000100
00031000
00020001
00000010
00000100
00000010
00000001
00030100
00020010
00001000
00000001
00000010
,
00000100
00031000
00000001
00000100
00000001
00000010
00000100
00001000
00000001
00000010
00000100
00001000
00010001
00100010
00010100
00101000
,
00010001
00000010
00000100
00001000
00010001
00000010
00000100
00001000
00010010
00000100
00000001
00000100
00010010
00001000
00010010
00000100
,
00010001
00000010
00000100
00001000
00010100
00000010
00000001
00000100
00010010
00001000
00000010
00010100
00010001
00000010
00010001
00010100
,
00010010
00000100
00000001
00000010
00010100
00001000
00000001
00000100
00010010
00001000
00000010
00000100
00010001
00001000
00010010
00000100
,
00010001
00000010
00000001
00000010
00010100
00001000
00000010
00000100
00010001
00001000
00000010
00011000
00010100
00000010
00010001
00010010
,
00010001
00000010
00000100
00001000
00100001
00000010
00000100
00001000
00100001
00000100
00000010
00001000
00100001
00000100
00100010
00001000
,
00100001
00000010
00000001
00000010
00100001
00001000
00000100
00001000
00100100
00001000
00000010
00100100
00100010
00001000
00100001
00100100
,
00100010
00001000
00000001
00000100
00100010
00000100
00000001
00001000
00100010
00000100
00000001
00001000
00100010
00000100
00100001
00000010
,
00100100
00001000
00000010
00000100
00100001
00001000
00000001
00000010
00100100
00001000
00000010
00100100
00100001
00000010
00100100
00101000
,
00100010
00000100
00000001
00000010
10010100
00001000
00000010
00000100
10010010
00001000
00000100
00000010
10010001
00000100
10010010
00000100
,
10010001
00000010
00000100
00001000
10010001
00000010
00000001
00000010
10010001
00000100
00000010
10010100
10010001
00000010
10010100
10011000
,
10010001
00000010
00000100
00001000
10010010
00000100
00000010
00000100
10010001
00001000
00000010
00001000
10010010
00000100
10010001
00001000
,
10010100
00000010
00000001
00000010
10010001
00000010
00000100
00001000
10010001
00000010
00000100
10011000
10010010
00000100
10010010
10011000
,
10010100
00000010
00000001
00000100
11010010
00000100
00000001
00001000
11010010
00000100
00000001
00001000
11010001
00000010
11010001
00000010
,
11010100
00001000
00000001
00000010
11010100
00001000
00000001
00000100
11010010
00001000
00000100
11010010
11010001
00000100
11010010
11010100
,
11010001
00000010
00000100
00001000
11010100
00000010
00000001
00000100
11010010
00000100
00000001
00000010
11010100
00001000
00000010
00000100
,
00000022
00000000
00000000
00000000
00000000
00000000
00000000
00000033
11012200
00000000
11010000
00000000
11010000
00000000
11010000
00003300
,
11011001
00000000
00000001
00000000
00020110
00000000
00001000
00030000
00020110
00000000
00000001
00030000
00020110
00030000
00020110
00030000
,
00020011
00000000
00001000
00030000
00020101
00000000
00000010
00030000
00020101
00000000
00030000
00011000
00020001
00030000
00010100
00010010
,
00020100
00000000
00000010
00030000
00021001
00000000
00000100
00030000
00021001
00000000
00000010
00030000
00021100
00030000
00020101
00030000
,
00020110
00000000
00000001
00030000
00021100
00000000
00000010
00030000
00020101
00000000
00030000
00010010
00021000
00030000
00010001
00010001
,
00020001
00000000
00001000
00030000
00020110
00000000
00000001
00030000
00020110
00000000
00001000
00030000
00020110
00030000
00020110
00030000
,
00021100
00000000
00000001
00030000
00021010
00000000
00000100
00030000
00021010
00000000
00030000
00010001
00021000
00030000
00010010
00010100
,
00020010
00000000
00000100
00030000
00021001
00000000
00000010
00030000
00021001
00000000
00000100
00030000
00020011
00030000
00021010
00030000
,
00021001
00000000
00001000
00030000
00020011
00000000
00000100
00030000
00011000
10000001
00011000
10000001
00011000
10000001
00011000
10000001
,
00200010
00000000
00000100
00300000
00201001
00000000
00000010
00300000
00201001
00000000
00000100
00300000
00201001
00300000
00201001
00300000
,
00200101
00000000
00000010
00300000
00201100
00000000
00000001
00300000
00201100
00000000
00300000
00100010
00200100
00300000
00100100
00100100
,
00200100
00000000
00000001
00300000
00201001
00000000
00001000
00300000
00201001
00000000
00000001
00300000
00201010
00300000
00201100
00300000
,
00201001
00000000
00000100
00300000
00201010
00000000
00000001
00300000
00201100
00000000
00300000
00100001
00200010
00300000
00100100
00100100
,
00200100
00000000
00000010
00300000
00201001
00000000
00000100
00300000
00201001
00000000
00000010
00300000
00201001
00300000
00201001
00300000
,
00201010
00000000
00000100
00300000
00200011
00000000
00001000
00300000
00200011
00000000
00300000
00100100
00200010
00300000
00101000
00101000
,
00201000
00000000
00001000
00300000
00020110
00000000
00000001
00030000
00020110
00000000
00001000
00030000
00020101
00030000
00020011
00030000
,
00021001
00030000
00000010
00000000
00010101
00000000
00001000
00000000
00011000
00100100
00011000
00100100
00011000
00100100
00011000
00100100
,
00011000
00000001
00000100
00010010
00000100
00000010
00011000
00000010
00010100
00000010
00000100
00010001
00000100
00000001
00010010
00000001
,
00011000
00000001
00001000
00010100
00001000
00000100
00010010
00000100
00011000
00000100
00001000
00010001
00001000
00000001
00010100
00000001
,
00010010
00000100
00000010
00010001
00000010
00000001
00011000
00000001
00010100
00000001
00000100
00010010
00000100
00000010
00011000
00000100
,
00010010
00000100
00000010
00010001
00000010
00000001
00011000
00000010
00011000
00000010
00001000
00010100
00001000
00000100
00010010
00000001
,
10011000
00000001
10010100
00000001
10011000
00000010
10010100
00000010
10011000
00000100
10010010
10010100
10011000
00000001
10010010
00000001
,
10011000
00000001
10011000
10010100
10010010
00000001
10010010
00000100
10011000
00000100
10011000
00000001
10011000
00000001
10010100
00000001
,
10010010
10010100
10011000
00000100
10010010
00000001
10011000
00000001
10010100
00000010
10011000
00000010
10010100
00000001
10010010
00000100
,
20021000
00000010
00000100
30030010
20021000
00000001
00000100
30030001
20021000
00000100
00000010
30030100
20021000
00000001
00000100
30030010
,
20021000
00000010
00000100
30030001
00021000
00000010
00000100
00030001
00021000
00000100
00000010
00030100
00021000
00030010
00020100
00030001
,
00020010
00000100
00001000
00030001
00020010
00000100
00001000
00030001
00020010
00000001
00030100
00010010
00020100
00030001
00010010
00010100
,
00021000
00000001
00000100
00030010
00021000
00000001
00000100
00030001
00020010
00000100
00001000
00030010
00021000
00030001
00020100
00030010
,
00020100
00000001
00000010
00030100
00021000
00000100
00001000
00030010
00020100
00000001
00030100
00010001
00020010
00030100
00011000
00010100
,
00021000
00000100
00000010
00030001
00201000
00000100
00000010
00300001
00200010
00000001
00000100
00300010
00201000
00300010
00200100
00300001
,
00200010
00000100
00001000
00300100
00200010
00000100
00001000
00300010
00200100
00000010
00301000
00100100
00200010
00300001
00100010
00100100
,
00201000
00000010
00000100
00300001
00200010
00000100
00001000
00300010
00200100
00000010
00001000
00300100
00200010
00300001
00200100
00300010
,
00200100
00000010
00001000
00300100
00200010
00000001
00000100
00300010
10011001
00000000
10011001
00000000
10011001
00000000
10011001
00000000
,
10011001
00000000
00000000
10010101
10011010
00000000
00000000
10010011
,
10011100
00000000
00000000
10011001
10011001
00000000
00000000
00000000
,
11110101
11110101
11111010
11111010
11110011
11110011
11111100
11111001
,
11111001
00000000
11111101
00000000
,
01000001
00000000
00000001
00000000
00020110
00000000
00001000
00030000
00020110
00000000
00000001
00030000
00020110
00030000
00020110
00030000
,
00020011
00000000
00001000
00030000
00020101
00000000
00000010
00030000
00020101
00000000
00030000
00011000
00020001
00030000
00010100
00010010
,
00020100
00000000
00000010
00030000
00021001
00000000
00000100
00030000
00021001
00000000
00000010
00030000
00021100
00030000
00020101
00030000
,
00020110
00000000
00000001
00030000
00021100
00000000
00000010
00030000
00020101
00000000
00030000
00010010
00021000
00030000
00010100
00010100
,
00020100
00000000
00001000
00030000
00020110
00000000
00000001
00030000
00020110
00000000
00001000
00030000
00020110
00030000
00020110
00030000
,
00021100
00000000
00000001
00030000
00021010
00000000
00000100
00030000
00021010
00000000
00030000
00010001
00021000
00030000
00010010
00010100
,
00020010
00000000
00000100
00030000
00021001
00000000
00000010
00030000
00021001
00000000
00000100
00030000
00020011
00030000
00021010
00030000
,
00021001
00000000
00001000
00030000
00020011
00000000
00001001
00030000
00021001
00000000
00030000
10010000
10010000
00000000
00000000
00000000
,
20021000
00000100
00000010
00000001
00001000
30030100
20020010
00000001
00001000
00000010
00000100
30030001
20021000
00000010
00000100
00000001
,
00000100
30030010
00001000
00000001
00000100
00000010
00001000
00000001
00000100
00000001
00001000
00000100
00000010
00000001
00001000
00000100
,
00220010
00000100
00001000
00000001
00000010
00330001
00221000
00000100
00000010
00000100
00001000
00330001
00220010
00000100
00001000
00000010
,
00000100
00330001
00000010
00000100
00001000
00000010
00000100
00000010
00001000
00000100
00000010
00000001
00000100
00000010
00001000
00000100
,
00220010
00000001
00000010
00000100
00001000
00330100
00220010
00000001
00000100
00000010
00001000
00330010
00220100
00000001
00000100
00000010
,
00001000
00330100
00000010
00000001
00000010
00000100
00001000
00000010
00000100
00000001
00000100
00000010
00001000
00000100
00001000
00000010
,
20020100
00000001
00000010
00000001
00000100
30030010
20021000
00000010
00000100
00000001
00000010
30030001
20020100
00000010
00001000
00000100
,
00000010
30030100
00001000
00000100
00000010
00000001
00000100
00000010
00001000
00000001
00000100
00000001
00000010
00000100
00001000
00000100
,
00220010
00000001
00000010
00000001
00000010
00330100
00221000
00000100
00001000
00000001
00000010
00330100
00221000
00000010
00000100
00000001
,
00000010
00330100
00001000
00000001
00000010
00000100
00000010
00000001
00001000
00000100
00000010
00000001
00001000
00000100
00000010
00000001
,
20021000
00000001
00000010
00000100
00001000
30030001
20020010
00000001
00000010
00000100
00001000
30030001
20020010
00000100
00001000
00000001
,
00000100
30030010
00000100
00000010
00001000
00000010
00001000
00000010
00001000
00000100
00000010
00000001
00000010
00000100
00000010
00000001
,
20020100
00000001
00000100
00000001
00000010
30030001
20020010
00000001
00000010
00000100
00000010
30030001
20021000
00000010
00000100
00000001
,
00000010
30030100
00000010
00000100
00001000
00000100
00001000
00000100
00001000
00000001
00000100
00000001
00001000
00000100
00000010
00000100
,
00220010
00000001
00000010
00000001
00000100
00330010
00220100
00000010
00001000
00000001
00000010
00330100
00220010
00000001
00001000
00000010
,
00000100
00330001
00000100
00000001
00000010
00000100
00000010
00000100
00001000
00000001
00001000
00000001
00000100
00000010
00001000
00000100
,
00000010
00000000
00000001
00000000
00001000
00000000
00000010
00001000
,
20020001
00000000
00000000
30030000
20020010
00000000
00000000
30030000
20020100
00000000
30030000
10010010
20020001
30030000
10010010
10010010
,
20020010
00000000
00000000
30030000
20020001
00000000
00000000
30030000
20020010
00000000
00000000
30030000
20020100
30030000
20021000
30030000
,
20020100
00000000
00000000
30030000
20020010
00000000
00000000
30030000
20020100
00000000
30030000
10010100
20020010
30030000
10010100
10010100
,
20020100
00000000
00000000
30030000
20021000
00000000
00000000
30030000
20020001
00000000
00000000
30030000
20020100
30030000
20020001
30030000
,
20021000
00000000
00000000
30030000
20020100
00000000
00000000
30030000
20020010
00000000
30030000
10010001
20020001
30030000
10011000
10011000
,
20021000
00000000
00000000
30030000
20021000
00000000
00000000
30030000
20020100
00000000
00000000
30030000
20020010
30030000
20020001
30030000
,
20020010
00000000
00000000
30030000
20020100
00000000
00000000
30030000
10000001
00011000
10000001
00011000
10000001
00011000
10000001
00000000
,
22022202
33033303
00000000
00000000
;

//---------------dance-double - Copied from Dedicate----------------
#NOTES:
     dance-double:
     Copied from Dedicate:
     Challenge:
     14:
     1.000,1.000,1.000,1.000,1.000,1108.000,1045.000,266.000,0.000,242.000:
00000000
00000000
00000000
00000000
,
10000001
01000010
00100100
00011000
10000001
01000010
00100100
00011000
10000001
00100100
01000010
00011000
10000001
00100100
01000010
00011000
,
01000010
00100100
10000001
00011000
01000010
00100100
10000001
00011000
01000010
00011000
10000001
01000010
00100100
00011000
10000001
01000010
,
00100100
01000010
10000001
00011000
00100100
00011000
10000001
01000010
00100100
01000010
10000001
00100100
01000010
00011000
10000001
01000010
,
00100100
00011000
10000001
00100100
10000001
01000010
00100100
00011000
10000001
01000010
00100100
00011000
10000001
01000010
00100100
00011000
,
10000001
01000010
00100100
00011000
10000001
01000010
00100100
00011000
01000010
00100100
10000001
00100100
01000010
00011000
01000010
00100100
,
10000001
01000010
00100100
00011000
00100100
01000010
10000001
00100100
01000010
00011000
01000010
00100100
10000001
01000010
10000001
00100100
,
01000010
00100100
10000001
01000010
00100100
00011000
10000001
00100100
01000010
00011000
01000010
00100100
10000001
00011000
01000010
00100100
,
10000001
01000010
10000001
01000010
00100100
00011000
01000010
00100100
10000001
00011000
01000010
00011000
00100100
01000010
10000001
01000010
,
10000001
01000010
00100100
00011000
10000001
01000010
00100100
00011000
10000001
00100100
01000010
00011000
10000001
00100100
01000010
00011000
,
10000001
01000010
10000001
01000010
10000001
00011000
00100100
00011000
00100100
00011000
01000010
00100100
01000010
00011000
10000001
00100100
,
01000010
00011000
10000001
00100100
01000010
00100100
10000001
00011000
01000010
00100100
10000001
00011000
01000010
00100100
10000001
01000010
,
00100100
00011000
01000010
00100100
10000001
00011000
10000001
01000010
00100100
00011000
01000010
00100100
10000001
01000010
00100100
00011000
,
01000010
00100100
10000001
01000010
00100100
00011000
01000010
00100100
01000010
00011000
00100100
01000010
10000001
00100100
01000010
00100100
,
10000001
01000010
00100100
00011000
10000001
01000010
10000001
01000010
10000001
00100100
01000010
00100100
10000001
01000010
00100100
00011000
,
10000001
01000010
00100100
00011000
01000010
00100100
01000010
00100100
10000001
00011000
01000010
00011000
01000010
00100100
10000001
00011000
,
00100100
01000010
10000001
01000010
10000001
01000010
00100100
00011000
10000001
01000010
00100100
00011000
01000010
00100100
01000010
00011000
,
00100100
01000010
10000001
00100100
01000010
00100100
10000001
00011000
01000010
00100100
10000001
00011000
10000001
01000010
10000001
01000010
,
00100100
00011000
10000001
01000010
00100100
00011000
10000001
00100100
01000010
00011000
00100100
01000010
10000001
00100100
01000010
00100100
,
10000001
01000010
00100100
00011000
00100100
01000010
10000001
00100100
01000010
00100100
10000001
01000010
00100100
00011000
01000010
00100100
,
10000001
01000010
00100100
00011000
01000010
00100100
10000001
01000010
00100100
01000010
10000001
00011000
01000010
10000001
00100100
01000010
,
10011001
00000000
00000001
00000000
20020110
00000000
00001000
30030000
20020110
00000000
00000001
30030000
20020110
30030000
20020110
30030000
,
20020011
00000000
00001000
30030000
20020101
00000000
00000010
30030000
20020101
00000000
30030000
10011000
20020001
30030000
10010100
10010010
,
20020100
00000000
00000010
30030000
20021001
00000000
00000100
30030000
20021001
00000000
00000010
30030000
20021100
30030000
20020101
30030000
,
20020110
00000000
00000001
30030000
20021100
00000000
00000010
30030000
20020101
00000000
30030000
10010010
20021000
30030000
10010001
10010001
,
20020001
00000000
00001000
30030000
20020110
00000000
00000001
30030000
20020110
00000000
00001000
30030000
20020110
30030000
20020110
30030000
,
20021100
00000000
00000001
30030000
20021010
00000000
00000100
30030000
20021010
00000000
30030000
10010001
20021000
30030000
10010010
10010100
,
20020010
00000000
00000100
30030000
20021001
00000000
00000010
30030000
20021001
00000000
00000100
30030000
20020011
30030000
20021010
30030000
,
20021001
00000000
00001000
30030000
20020011
00000000
00000100
30030000
00001001
10010000
00001001
10010000
00001001
10010000
00001001
10010000
,
02200010
00000000
00000100
03300000
02201001
00000000
00000010
03300000
02201001
00000000
00000100
03300000
02201001
03300000
02201001
03300000
,
02200101
00000000
00000010
03300000
02201100
00000000
00000001
03300000
02201100
00000000
03300000
01100010
02200100
03300000
01100100
01100100
,
02200100
00000000
00000001
03300000
02201001
00000000
00001000
03300000
02201001
00000000
00000001
03300000
02201010
03300000
02201100
03300000
,
02201001
00000000
00000100
03300000
02201010
00000000
00000001
03300000
02201100
00000000
03300000
01100001
02200010
03300000
01100100
01100100
,
02200100
00000000
00000010
03300000
02201001
00000000
00000100
03300000
02201001
00000000
00000010
03300000
02201001
03300000
02201001
03300000
,
02201010
00000000
00000100
03300000
02200011
00000000
00001000
03300000
02200011
00000000
03300000
01100100
02200010
03300000
01101000
01101000
,
02201000
00000000
00001000
03300000
02200110
00000000
00000001
03300000
02200110
00000000
00001000
03300000
02200101
03300000
02200011
03300000
,
02201001
03300000
00000010
00000000
01100101
00000000
00001000
00000000
00001100
00110000
00001100
00110000
00001100
00110000
00001100
00110000
,
00001100
10000001
00100100
01000010
00100100
01000010
00011000
01000010
00100100
01000010
00100100
10000001
00100100
10000001
01000010
10000001
,
00011000
10000001
00011000
00100100
00011000
00100100
01000010
00100100
00011000
00100100
00011000
10000001
00011000
10000001
00100100
10000001
,
01000010
00100100
01000010
10000001
01000010
10000001
00011000
10000001
00100100
10000001
00100100
01000010
00100100
01000010
00011000
00100100
,
01000010
00100100
01000010
10000001
01000010
10000001
00011000
01000010
00011000
01000010
00011000
00100100
00011000
00100100
01000010
10000001
,
00011000
10000001
00100100
10000001
00011000
01000010
00100100
01000010
00011000
00100100
01000010
00100100
00011000
10000001
01000010
10000001
,
00011000
10000001
00011000
00100100
01000010
10000001
01000010
00100100
00011000
00100100
00011000
10000001
00011000
10000001
00100100
10000001
,
01000010
00100100
00011000
00100100
01000010
10000001
00011000
10000001
00100100
01000010
00011000
01000010
00100100
10000001
01000010
00100100
,
00011000
01000010
00100100
01000010
00011000
10000001
00100100
10000001
00011000
00100100
01000010
00100100
00011000
10000001
00100100
01000010
,
00011000
01000010
00100100
10000001
00011000
01000010
00100100
10000001
00011000
00100100
01000010
00100100
00011000
01000010
00100100
10000001
,
01000010
00100100
00011000
10000001
01000010
00100100
00011000
10000001
01000010
10000001
00100100
01000010
00100100
10000001
01000010
00100100
,
00011000
10000001
00100100
01000010
00011000
10000001
00100100
10000001
01000010
00100100
00011000
01000010
00011000
10000001
00100100
01000010
,
00100100
10000001
01000010
00100100
00011000
00100100
00011000
01000010
00100100
10000001
00100100
10000001
01000010
00100100
00011000
00100100
,
00011000
00100100
01000010
10000001
00011000
00100100
01000010
10000001
01000010
10000001
00100100
01000010
00011000
01000010
00100100
10000001
,
01000010
00100100
00011000
00100100
01000010
00100100
00011000
01000010
00100100
01000010
00011000
00100100
01000010
10000001
01000010
00100100
,
00011000
01000010
00100100
10000001
01000010
00100100
00011000
01000010
00100100
01000010
00011000
00100100
01000010
10000001
00100100
01000010
,
00100100
01000010
00011000
00100100
01000010
10000001
00100100
01000010
00011000
10000001
01000010
00100100
00011000
10000001
01000010
00100100
,
10011001
00000000
00000000
10010101
10011010
00000000
00000000
10010011
,
10011100
00000000
00000000
10011001
10011001
00000000
00000000
00000000
,
11111111
11111111
11111111
11111111
11111111
11111111
11111111
11111111
,
11111111
00000000
11111111
00000000
,
11111111
00000000
00000001
00000000
20020110
00000000
00001000
30030000
20020110
00000000
00000001
30030000
20020110
30030000
20020110
30030000
,
20020011
00000000
00001000
30030000
20020101
00000000
00000010
30030000
20020101
00000000
30030000
10011000
20020001
30030000
10010100
10010010
,
20020100
00000000
00000010
30030000
20021001
00000000
00000100
30030000
20021001
00000000
00000010
30030000
20021100
30030000
20020101
30030000
,
20020110
00000000
00000001
30030000
20021100
00000000
00000010
30030000
20020101
00000000
30030000
10010010
20021000
30030000
10010100
10010100
,
20020100
00000000
00001000
30030000
20020110
00000000
00000001
30030000
20020110
00000000
00001000
30030000
20020110
30030000
20020110
30030000
,
20021100
00000000
00000001
30030000
20021010
00000000
00000100
30030000
20021010
00000000
30030000
10010001
20021000
30030000
10010010
10010100
,
20020010
00000000
00000100
30030000
20021001
00000000
00000010
30030000
20021001
00000000
00000100
30030000
20020011
30030000
20021010
30030000
,
20021001
00000000
00001000
30030000
20020011
00000000
00001001
30030000
20021001
00000000
30030000
10010000
10010000
00000000
00000000
00000000
,
00011000
00100100
01000010
10000001
00011000
00100100
01000010
10000001
00011000
01000010
00100100
10000001
00011000
01000010
00100100
10000001
,
00100100
01000010
00011000
10000001
00100100
01000010
00011000
10000001
00100100
10000001
00011000
00100100
01000010
10000001
00011000
00100100
,
01000010
00100100
00011000
10000001
01000010
10000001
00011000
00100100
01000010
00100100
00011000
10000001
01000010
00100100
00011000
01000010
,
00100100
10000001
01000010
00100100
00011000
01000010
00100100
01000010
00011000
00100100
01000010
10000001
00100100
01000010
00011000
00100100
,
01000010
10000001
01000010
00100100
00011000
00100100
01000010
10000001
00100100
01000010
00011000
01000010
00100100
10000001
00100100
01000010
,
00011000
00100100
01000010
10000001
01000010
00100100
00011000
01000010
00100100
10000001
00100100
01000010
00011000
00100100
00011000
01000010
,
00100100
10000001
01000010
10000001
00100100
01000010
00011000
01000010
00100100
10000001
01000010
10000001
00100100
01000010
00011000
00100100
,
01000010
00100100
00011000
00100100
01000010
10000001
00100100
01000010
00011000
10000001
00100100
10000001
01000010
00100100
00011000
00100100
,
01000010
10000001
01000010
10000001
01000010
00100100
00011000
00100100
00011000
10000001
01000010
00100100
00011000
01000010
00100100
10000001
,
01000010
00100100
00011000
10000001
01000010
00100100
01000010
10000001
00011000
00100100
01000010
10000001
00011000
00100100
01000010
10000001
,
00011000
10000001
01000010
00100100
00011000
10000001
01000010
10000001
01000010
00100100
00011000
10000001
01000010
00100100
00011000
10000001
,
00100100
01000010
00100100
01000010
00011000
01000010
00011000
01000010
00011000
00100100
01000010
10000001
01000010
00100100
01000010
10000001
,
00100100
10000001
00100100
10000001
01000010
10000001
01000010
10000001
01000010
00100100
01000010
10000001
00011000
01000010
00100100
10000001
,
01000010
00100100
01000010
00100100
00011000
00100100
00011000
00100100
00011000
10000001
00100100
10000001
00011000
00100100
01000010
00100100
,
01000010
10000001
01000010
10000001
00100100
01000010
00100100
01000010
00011000
10000001
01000010
00100100
01000010
10000001
00011000
01000010
,
00100100
10000001
00100100
10000001
01000010
00100100
01000010
00100100
00011000
10000001
00011000
10000001
00100100
01000010
00011000
00100100
,
01000010
00000000
00000001
00000000
00001000
00000000
00000010
00001000
,
20020001
00000000
00000000
30030000
20020010
00000000
00000000
30030000
20020100
00000000
30030000
10010010
20020001
30030000
10010010
10010010
,
20020010
00000000
00000000
30030000
20020001
00000000
00000000
30030000
20020010
00000000
00000000
30030000
20020100
30030000
20021000
30030000
,
20020100
00000000
00000000
30030000
20020010
00000000
00000000
30030000
20020100
00000000
30030000
10010100
20020010
30030000
10010100
10010100
,
20020100
00000000
00000000
30030000
20021000
00000000
00000000
30030000
20020001
00000000
00000000
30030000
20020100
30030000
20020001
30030000
,
20021000
00000000
00000000
30030000
20020100
00000000
00000000
30030000
20020010
00000000
30030000
10010001
20020001
30030000
10011000
10011000
,
20021000
00000000
00000000
30030000
20021000
00000000
00000000
30030000
20020100
00000000
00000000
30030000
20020010
30030000
20020001
30030000
,
20020010
00000000
00000000
30030000
20020100
00000000
00000000
30030000
10000001
00011000
10000001
00011000
10000001
00011000
10000001
00000000
,
22222222
33333333
00000000
00000000
;

//---------------dance-double - Copied from Dedicate----------------
#NOTES:
     dance-double:
     Copied from Dedicate:
     Medium:
     9:
     1.000,1.000,1.000,1.000,0.030,661.000,371.000,281.000,0.000,277.000:
00000000
00000000
00000000
00000000
,
20000001
00000000
00000100
00000000
00000001
30000000
20000100
00000000
00000001
00000000
00000010
30000000
20001000
00000000
00000010
00000000
,
00000010
30000000
00000001
00000000
00001000
00000000
00000001
00000000
00000010
00000000
00000001
00000000
00001000
00000000
00000001
00000000
,
00020100
00000000
00000001
00000000
00000100
00030000
00020001
00000000
00000100
00000000
00000001
00030000
00021000
00000000
00000001
00000000
,
00000100
00030000
00000001
00000000
00001000
00000000
00000100
00000000
00000001
00000000
00000100
00000000
00011000
00000000
00010100
00000000
,
00010001
00000100
00011000
00000100
00011000
00000001
00010010
00010010
,
00010001
00000100
00010100
00000001
00011000
00000010
00010001
00010001
,
00010010
00000001
00010100
00000001
00010010
00000010
00010001
00010010
,
00011000
00000001
00010100
00000010
00010001
00000010
00011000
00010001
,
00010001
00000100
00101000
00000100
00100001
00000010
00101000
00100010
,
00101000
00000001
00100001
00000100
00101000
00000010
00101000
00100001
,
00100010
00000001
00100010
00000001
00100010
00000001
00101000
00100001
,
00101000
00000010
00100001
00000001
00101000
00000010
00100001
00100100
,
00100010
00000001
10010100
00000010
10010010
00000100
10011000
10010010
,
10010001
00000100
10011000
00000001
10010001
00000010
10010001
10010100
,
10010001
00000100
10010010
00000010
10010001
00000010
10011000
10010001
,
10010100
00000001
10010001
00000100
10010001
00000100
10010010
10010010
,
10010100
00000001
10010010
00000001
10011000
00000001
10010001
10010001
,
10011000
00000001
10010100
00000001
10011000
00000100
10011000
10010010
,
10011000
00000100
10011000
00000001
10010010
00000001
10011000
00000010
,
00000022
00000000
00000000
00000000
00000000
00000000
00000000
00000033
10012200
00000000
10010000
00000000
10010000
00000000
10010000
00003300
,
10011001
00000000
00000001
00000000
00020110
00000000
00001000
00030000
00020110
00000000
00000001
00030000
00020110
00030000
00020110
00030000
,
00020011
00000000
00001000
00030000
00020101
00000000
00000010
00030000
00020101
00000000
00000000
00030000
00020001
00030000
00020100
00030000
,
00020100
00000000
00000010
00030000
00021001
00000000
00000100
00030000
00021001
00000000
00000010
00030000
00021100
00030000
00020101
00030000
,
00020110
00000000
00000001
00030000
00021100
00000000
00000010
00030000
00020101
00000000
00000000
00030000
00021010
00030000
00020001
00030000
,
00020001
00000000
00001000
00030000
00020110
00000000
00000001
00030000
00020110
00000000
00001000
00030000
00020110
00030000
00020110
00030000
,
00021100
00000000
00000001
00030000
00021010
00000000
00000100
00030000
00021010
00000000
00000000
00030000
00021000
00030000
00020010
00030000
,
00020010
00000000
00000100
00030000
00021001
00000000
00000010
00030000
00021001
00000000
00000100
00030000
00020011
00030000
00021010
00030000
,
00021001
00000000
00001000
00030000
00020011
00000000
00000100
00030000
00011000
00000000
00011000
00000000
00011000
00000000
00011000
00000000
,
00200010
00000000
00000100
00300000
00201001
00000000
00000010
00300000
00201001
00000000
00000100
00300000
00201001
00300000
00201001
00300000
,
00200101
00000000
00000010
00300000
00201100
00000000
00000001
00300000
00201100
00000000
00000000
00300000
00200100
00300000
00200100
00300000
,
00200100
00000000
00000001
00300000
00201001
00000000
00001000
00300000
00201001
00000000
00000001
00300000
00201010
00300000
00201100
00300000
,
00201001
00000000
00000100
00300000
00201010
00000000
00000001
00300000
00201100
00000000
00000000
00300000
00200010
00300000
00200100
00300000
,
00200100
00000000
00000010
00300000
00201001
00000000
00000100
00300000
00201001
00000000
00000010
00300000
00201001
00300000
00201001
00300000
,
00201010
00000000
00000100
00300000
00200011
00000000
00001000
00300000
00200011
00000000
00000000
00300000
00200010
00300000
00201000
00300000
,
00201000
00000000
00001000
00300000
00020110
00000000
00000001
00030000
00020110
00000000
00001000
00030000
00020101
00030000
00020011
00030000
,
00021001
00030000
00000010
00000000
00010101
00000000
00001000
00000000
00011000
00000000
00011000
00000000
00011000
00000000
00011000
00000000
,
00011000
00000000
00000100
00010000
00000100
00000000
00011000
00000000
00010100
00000000
00000100
00010000
00000100
00000000
00010010
00000000
,
00011000
00000000
00001000
00010000
00001000
00000000
00010010
00000000
00011000
00000000
00001000
00010000
00001000
00000000
00010100
00000000
,
00010010
00000000
00000010
00010000
00000010
00000000
00011000
00000000
00010100
00000000
00000100
00010000
00000100
00000000
00011000
00000000
,
00010010
00000000
00000010
00010000
00000010
00000000
00011000
00000000
00011000
00000000
00001000
00010000
00001000
00000000
00010010
00000000
,
10011000
10010100
10011000
10010100
10011000
10010010
10011000
10010010
,
10011000
10011000
10010010
10010010
10011000
10011000
10011000
10010100
,
10010010
10011000
10010010
10011000
10010100
10011000
10010100
10010010
,
20021000
00000000
00000100
30030000
20021000
00000000
00000100
30030000
20021000
00000000
00000010
30030000
20021000
00000000
00000100
30030000
,
20021000
00000000
00000100
30030000
00021000
00000000
00000100
00030000
00021000
00000000
00000010
00030000
00021000
00030000
00020100
00030000
,
00020010
00000000
00001000
00030000
00020010
00000000
00001000
00030000
00020010
00000000
00000100
00030000
00020100
00030000
00020010
00030000
,
00021000
00000000
00000100
00030000
00021000
00000000
00000100
00030000
00020010
00000000
00001000
00030000
00021000
00030000
00020100
00030000
,
00020100
00000000
00000010
00030000
00021000
00000000
00001000
00030000
00020100
00000000
00000100
00030000
00020010
00030000
00021000
00030000
,
00021000
00000000
00000010
00030000
00201000
00000000
00000010
00300000
00200010
00000000
00000100
00300000
00201000
00300000
00200100
00300000
,
00200010
00000000
00001000
00300000
00200010
00000000
00001000
00300000
00200100
00000000
00001000
00300000
00200010
00300000
00200010
00300000
,
00201000
00000000
00000100
00300000
00200010
00000000
00001000
00300000
00200100
00000000
00001000
00300000
00200010
00300000
00200100
00300000
,
00200100
00000000
00001000
00300000
00200010
00000000
00000100
00300000
10000001
00000000
10000001
00000000
10000001
00000000
10000001
00000000
,
10000001
00000000
00000000
10011001
10011001
00000000
00000000
10011001
,
10011001
00000000
00000000
10011001
10011001
00000000
00000000
00000000
,
01100110
01100110
01100110
01100110
01100110
01100110
01100110
01100110
,
01100110
00000000
10011001
00000000
,
01000001
00000000
00000001
00000000
00020110
00000000
00001000
00030000
00020110
00000000
00000001
00030000
00020110
00030000
00020110
00030000
,
00020011
00000000
00001000
00030000
00020101
00000000
00000010
00030000
00020101
00000000
00000000
00030000
00020001
00030000
00020100
00030000
,
00020100
00000000
00000010
00030000
00021001
00000000
00000100
00030000
00021001
00000000
00000010
00030000
00021100
00030000
00020101
00030000
,
00020110
00000000
00000001
00030000
00021100
00000000
00000010
00030000
00020101
00000000
00000000
00030000
00021000
00030000
00020100
00030000
,
00020100
00000000
00001000
00030000
00020110
00000000
00000001
00030000
00020110
00000000
00001000
00030000
00020110
00030000
00020110
00030000
,
00021100
00000000
00000001
00030000
00021010
00000000
00000100
00030000
00021010
00000000
00000000
00030000
00021000
00030000
00020010
00030000
,
00020010
00000000
00000100
00030000
00021001
00000000
00000010
00030000
00021001
00000000
00000100
00030000
00020011
00030000
00021010
00030000
,
00021001
00000000
00001000
00030000
00020011
00000000
00001001
00030000
00021001
00000000
00030000
00000000
00010000
00000000
00000000
00000000
,
20021000
00000000
00000010
00000000
00001000
30030000
20020010
00000000
00001000
00000000
00000100
30030000
20021000
00000000
00000100
00000000
,
00000100
30030000
00001000
00000000
00000100
00000000
00001000
00000000
00000100
00000000
00001000
00000000
00000010
00000000
00001000
00000000
,
00220010
00000000
00001000
00000000
00000010
00330000
00221000
00000000
00000010
00000000
00001000
00330000
00220010
00000000
00001000
00000000
,
00000100
00330000
00000010
00000000
00001000
00000000
00000100
00000000
00001000
00000000
00000010
00000000
00000100
00000000
00001000
00000000
,
00220010
00000000
00000010
00000000
00001000
00330000
00220010
00000000
00000100
00000000
00001000
00330000
00220100
00000000
00000100
00000000
,
00001000
00330000
00000010
00000000
00000010
00000000
00001000
00000000
00000100
00000000
00000100
00000000
00001000
00000000
00001000
00000000
,
20020100
00000000
00000010
00000000
00000100
30030000
20021000
00000000
00000100
00000000
00000010
30030000
20020100
00000000
00001000
00000000
,
00000010
30030000
00001000
00000000
00000010
00000000
00000100
00000000
00001000
00000000
00000100
00000000
00000010
00000000
00001000
00000000
,
00220010
00000000
00000010
00000000
00000010
00330000
00221000
00000000
00001000
00000000
00000010
00330000
00221000
00000000
00000100
00000000
,
00000010
00330000
00001000
00000000
00000010
00000000
00000010
00000000
00001000
00000000
00000010
00000000
00001000
00000000
00000010
00000000
,
20021000
00000000
00000010
00000000
00001000
30030000
20020010
00000000
00000010
00000000
00001000
30030000
20020010
00000000
00001000
00000000
,
00000100
30030000
00000100
00000000
00001000
00000000
00001000
00000000
00001000
00000000
00000010
00000000
00000010
00000000
00000010
00000000
,
20020100
00000000
00000100
00000000
00000010
30030000
20020010
00000000
00000010
00000000
00000010
30030000
20021000
00000000
00000100
00000000
,
00000010
30030000
00000010
00000000
00001000
00000000
00001000
00000000
00001000
00000000
00000100
00000000
00001000
00000000
00000010
00000000
,
00220010
00000000
00000010
00000000
00000100
00330000
00220100
00000000
00001000
00000000
00000010
00330000
00220010
00000000
00001000
00000000
,
00000100
00330000
00000100
00000000
00000010
00000000
00000010
00000000
00001000
00000000
00001000
00000000
00000100
00000000
00001000
00000000
,
00000010
00000000
00000001
00000000
00001000
00000000
00000010
00001000
,
20020001
00000000
00000000
30030000
20020010
00000000
00000000
30030000
20020100
00000000
00000000
30030000
20020001
30030000
20020010
30030000
,
20020010
00000000
00000000
30030000
20020001
00000000
00000000
30030000
20020010
00000000
00000000
30030000
20020100
30030000
20021000
30030000
,
20020100
00000000
00000000
30030000
20020010
00000000
00000000
30030000
20020100
00000000
00000000
30030000
20020010
30030000
20020100
30030000
,
20020100
00000000
00000000
30030000
20021000
00000000
00000000
30030000
20020001
00000000
00000000
30030000
20020100
30030000
20020001
30030000
,
20021000
00000000
00000000
30030000
20020100
00000000
00000000
30030000
20020010
00000000
00000000
30030000
20020001
30030000
20021000
30030000
,
20021000
00000000
00000000
30030000
20021000
00000000
00000000
30030000
20020100
00000000
00000000
30030000
20020010
30030000
20020001
30030000
,
20020010
00000000
00000000
30030000
20020100
00000000
00000000
30030000
10000001
00000000
10000001
00000000
10000001
00000000
10000001
00000000
,
20022002
30033003
00000000
00000000
;

//---------------dance-double - Delirium----------------
#NOTES:
     dance-double:
     Delirium:
     Easy:
     7:
     1.000,1.000,1.000,1.000,0.030,451.000,300.000,227.000,0.000,63.000:
00000000
00000000
00000000
00000000
,
20000001
00000000
00000000
00000000
00000001
30000000
20000000
00000000
00000001
00000000
00000000
30000000
20001000
00000000
00000000
00000000
,
00000010
30000000
00000000
00000000
00001000
00000000
00000000
00000000
00000010
00000000
00000000
00000000
00001000
00000000
00000000
00000000
,
00020100
00000000
00000000
00000000
00000100
00030000
00020000
00000000
00000100
00000000
00000000
00030000
00021000
00000000
00000000
00000000
,
00000100
00030000
00000000
00000000
00001000
00000000
00000000
00000000
00000001
00000000
00000000
00000000
00011000
00000000
00010000
00000000
,
00010001
00000000
00011000
00000000
00011000
00000000
00010010
00010000
,
00010001
00000000
00010100
00000000
00011000
00000000
00010001
00010000
,
00010010
00000000
00010100
00000000
00010010
00000000
00010001
00010000
,
00011000
00000000
00010100
00000000
00010001
00000000
00011000
00010000
,
00010001
00000000
00101000
00000000
00100001
00000000
00101000
00100000
,
00101000
00000000
00100001
00000000
00101000
00000000
00101000
00100000
,
00100010
00000000
00100010
00000000
00100010
00000000
00101000
00100000
,
00101000
00000000
00100001
00000000
00101000
00000000
00100001
00100000
,
00100010
00000000
10010100
00000000
10010010
00000000
10011000
10010000
,
10010001
00000000
10011000
00000000
10010001
00000000
10010001
10010000
,
10010001
00000000
10010010
00000000
10010001
00000000
10011000
10010000
,
10010100
00000000
10010001
00000000
10010001
00000000
10010010
10010000
,
10010100
00000000
10010010
00000000
10011000
00000000
10010001
10010000
,
10011000
00000000
10010100
00000000
10011000
00000000
10011000
10010000
,
10011000
10011000
10010010
10011000
,
00000022
00000000
00000000
00000000
00000000
00000000
00000000
00000033
10012200
00000000
10010000
00000000
10010000
00000000
10010000
00003300
,
10011000
00000000
00000000
00000000
00020010
00000000
00000000
00030000
00020100
00000000
00000000
00030000
00020010
00030000
00020000
00030000
,
00020010
00000000
00000000
00030000
00020100
00000000
00000000
00030000
00020001
00000000
00000000
00030000
00020001
00030000
00020000
00030000
,
00020100
00000000
00000000
00030000
00020001
00000000
00000000
00030000
00021000
00000000
00000000
00030000
00021000
00030000
00020000
00030000
,
00020100
00000000
00000000
00030000
00020100
00000000
00000000
00030000
00020001
00000000
00000000
00030000
00021000
00030000
00020000
00030000
,
00020001
00000000
00000000
00030000
00020010
00000000
00000000
00030000
00020100
00000000
00000000
00030000
00020100
00030000
00020000
00030000
,
00020100
00000000
00000000
00030000
00021000
00000000
00000000
00030000
00020010
00000000
00000000
00030000
00021000
00030000
00020000
00030000
,
00020010
00000000
00000000
00030000
00021000
00000000
00000000
00030000
00020001
00000000
00000000
00030000
00020010
00030000
00020000
00030000
,
00020001
00000000
00000000
00030000
00020010
00000000
00000000
00030000
00011000
00000000
00010000
00000000
00011000
00000000
00010000
00000000
,
00200010
00000000
00000000
00300000
00201000
00000000
00000000
00300000
00200001
00000000
00000000
00300000
00200001
00300000
00200000
00300000
,
00200001
00000000
00000000
00300000
00200100
00000000
00000000
00300000
00201000
00000000
00000000
00300000
00200100
00300000
00200000
00300000
,
00200100
00000000
00000000
00300000
00201000
00000000
00000000
00300000
00201000
00000000
00000000
00300000
00200010
00300000
00200000
00300000
,
00201000
00000000
00000000
00300000
00201000
00000000
00000000
00300000
00200100
00000000
00000000
00300000
00200010
00300000
00200000
00300000
,
00200100
00000000
00000000
00300000
00201000
00000000
00000000
00300000
00201000
00000000
00000000
00300000
00200001
00300000
00200000
00300000
,
00201000
00000000
00000000
00300000
00200001
00000000
00000000
00300000
00200001
00000000
00000000
00300000
00200010
00300000
00200000
00300000
,
00201000
00000000
00000000
00300000
00020010
00000000
00000000
00030000
00020100
00000000
00000000
00030000
00020100
00030000
00020000
00030000
,
00020001
00030000
00000000
00000000
00010001
00000000
00000000
00000000
00011000
00000000
00010000
00000000
00011000
00000000
00010000
00000000
,
00011000
00000000
00000000
00010000
00000100
00000000
00010000
00000000
00010100
00000000
00000000
00010000
00000100
00000000
00010000
00000000
,
00011000
00000000
00000000
00010000
00001000
00000000
00010000
00000000
00011000
00000000
00000000
00010000
00001000
00000000
00010000
00000000
,
00010010
00000000
00000000
00010000
00000010
00000000
00010000
00000000
00010100
00000000
00000000
00010000
00000100
00000000
00010000
00000000
,
00010010
00000000
00000000
00010000
00000010
00000000
00010000
00000000
00011000
00000000
00000000
00010000
00001000
00000000
00010000
00000000
,
00011000
00010000
00011000
00010000
00011000
00010000
00011000
00010000
,
00011000
00010000
00010010
00010000
00011000
00010000
00011000
00010000
,
00010010
00010000
00010010
00010000
00010100
00010000
00010100
00010000
,
00021000
00000000
00000000
00030000
00021000
00000000
00000000
00030000
00021000
00000000
00000000
00030000
00021000
00000000
00000000
00030000
,
00021000
00000000
00000000
00030000
00021000
00000000
00000000
00030000
00021000
00000000
00000000
00030000
00021000
00030000
00020000
00030000
,
00020010
00000000
00000000
00030000
00020010
00000000
00000000
00030000
00020010
00000000
00000000
00030000
00020100
00030000
00020000
00030000
,
00021000
00000000
00000000
00030000
00021000
00000000
00000000
00030000
00020010
00000000
00000000
00030000
00021000
00030000
00020000
00030000
,
00020100
00000000
00000000
00030000
00021000
00000000
00000000
00030000
00020100
00000000
00000000
00030000
00020001
00030000
00020000
00030000
,
00021000
00000000
00000000
00030000
00201000
00000000
00000000
00300000
00200010
00000000
00000000
00300000
00201000
00300000
00200000
00300000
,
00200001
00000000
00000000
00300000
00200010
00000000
00000000
00300000
00200001
00000000
00000000
00300000
00200010
00300000
00200000
00300000
,
00201000
00000000
00000000
00300000
00200010
00000000
00000000
00300000
00200100
00000000
00000000
00300000
00200001
00300000
00200000
00300000
,
00200100
00000000
00000000
00300000
00200010
00000000
00000000
00300000
10000001
00000000
10000000
00000000
10000001
00000000
10000000
00000000
,
10000001
00000000
00000000
10011001
10011001
00000000
00000000
10011001
,
10011001
00000000
00000000
10011001
10011001
00000000
00000000
00000000
,
10011001
10011001
10011001
10011001
10011001
10011001
10011001
10011001
,
10011001
00000000
10011001
00000000
,
01000001
00000000
00000000
00000000
00020100
00000000
00000000
00030000
00020010
00000000
00000000
00030000
00020100
00030000
00020000
00030000
,
00020010
00000000
00000000
00030000
00020001
00000000
00000000
00030000
00020100
00000000
00000000
00030000
00020001
00030000
00020000
00030000
,
00020100
00000000
00000000
00030000
00021000
00000000
00000000
00030000
00020001
00000000
00000000
00030000
00021000
00030000
00020000
00030000
,
00020100
00000000
00000000
00030000
00020100
00000000
00000000
00030000
00020001
00000000
00000000
00030000
00021000
00030000
00020000
00030000
,
00020100
00000000
00000000
00030000
00020100
00000000
00000000
00030000
00020010
00000000
00000000
00030000
00020010
00030000
00020000
00030000
,
00021000
00000000
00000000
00030000
00021000
00000000
00000000
00030000
00020010
00000000
00000000
00030000
00021000
00030000
00020000
00030000
,
00020010
00000000
00000000
00030000
00021000
00000000
00000000
00030000
00021000
00000000
00000000
00030000
00020001
00030000
00020000
00030000
,
00020001
00000000
00000000
00030000
00020010
00000000
00000000
00030000
00020001
00000000
00030000
00000000
00010000
00000000
00000000
00000000
,
00021000
00000000
00000000
00000000
00001000
00030000
00020000
00000000
00001000
00000000
00000000
00030000
00021000
00000000
00000000
00000000
,
00000100
00030000
00000000
00000000
00000100
00000000
00000000
00000000
00000100
00000000
00000000
00000000
00000010
00000000
00000000
00000000
,
00020010
00000000
00000000
00000000
00000010
00030000
00020000
00000000
00000010
00000000
00000000
00030000
00020010
00000000
00000000
00000000
,
00000100
00030000
00000000
00000000
00001000
00000000
00000000
00000000
00001000
00000000
00000000
00000000
00000100
00000000
00000000
00000000
,
00200010
00000000
00000000
00000000
00001000
00300000
00200000
00000000
00000100
00000000
00000000
00300000
00200100
00000000
00000000
00000000
,
00001000
00300000
00000000
00000000
00000010
00000000
00000000
00000000
00000100
00000000
00000000
00000000
00001000
00000000
00000000
00000000
,
02000100
00000000
00000000
00000000
00000100
03000000
02000000
00000000
00000100
00000000
00000000
03000000
02000100
00000000
00000000
00000000
,
00000010
03000000
00000000
00000000
00000010
00000000
00000000
00000000
00001000
00000000
00000000
00000000
00000010
00000000
00000000
00000000
,
20000010
00000000
00000000
00000000
00000010
30000000
20000000
00000000
00001000
00000000
00000000
30000000
20001000
00000000
00000000
00000000
,
00000010
30000000
00000000
00000000
00000010
00000000
00000000
00000000
00001000
00000000
00000000
00000000
00001000
00000000
00000000
00000000
,
20021000
00000000
00000000
00000000
00001000
30030000
20020000
00000000
00000010
00000000
00000000
30030000
20020010
00000000
00000000
00000000
,
00000100
30030000
00000000
00000000
00001000
00000000
00000000
00000000
00001000
00000000
00000000
00000000
00000010
00000000
00000000
00000000
,
20020100
00000000
00000000
00000000
00000010
30030000
20020000
00000000
00000010
00000000
00000000
30030000
20021000
00000000
00000000
00000000
,
00000010
30030000
00000000
00000000
00001000
00000000
00000000
00000000
00001000
00000000
00000000
00000000
00001000
00000000
00000000
00000000
,
20020010
00000000
00000000
00000000
00000100
30030000
20020000
00000000
00001000
00000000
00000000
30030000
20020010
00000000
00000000
00000000
,
00000100
30030000
00000000
00000000
00000010
00000000
00000000
00000000
00001000
00000000
00000000
00000000
00000100
00000000
00000000
00000000
,
00000010
00000000
00000001
00000000
00001000
00000000
00000010
00001000
,
00020001
00000000
00000000
00030000
00020010
00000000
00000000
00030000
00020100
00000000
00000000
00030000
00020001
00030000
00020010
00030000
,
00020010
00000000
00000000
00030000
00020001
00000000
00000000
00030000
00020010
00000000
00000000
00030000
00020100
00030000
00021000
00030000
,
00020100
00000000
00000000
00030000
00020010
00000000
00000000
00030000
00020100
00000000
00000000
00030000
00020010
00030000
00020100
00030000
,
00020100
00000000
00000000
00030000
00021000
00000000
00000000
00030000
00020001
00000000
00000000
00030000
00020100
00030000
00020001
00030000
,
00021000
00000000
00000000
00030000
00020100
00000000
00000000
00030000
00020010
00000000
00000000
00030000
00020001
00030000
00021000
00030000
,
00021000
00000000
00000000
00030000
00021000
00000000
00000000
00030000
00020100
00000000
00000000
00030000
00020010
00030000
00020001
00030000
,
00020010
00000000
00000000
00030000
00020100
00000000
00000000
00030000
00011000
00000000
00011000
00000000
00011000
00000000
00011000
00000000
,
00022000
00033000
00000000
00000000
;

//---------------dance-double - Delirium----------------
#NOTES:
     dance-double:
     Delirium:
     Beginner:
     6:
     1.000,1.000,1.000,1.000,0.030,451.000,288.000,218.000,0.000,20.000:
00000000
00000000
00000000
00000000
,
00020001
00000000
00000000
00000000
00000001
00030000
00020000
00000000
00000001
00000000
00000000
00030000
00021000
00000000
00000000
00000000
,
00000010
00030000
00000000
00000000
00001000
00000000
00000000
00000000
00000010
00000000
00000000
00000000
00001000
00000000
00000000
00000000
,
00020100
00000000
00000000
00000000
00000100
00030000
00020000
00000000
00000100
00000000
00000000
00030000
00021000
00000000
00000000
00000000
,
00000100
00030000
00000000
00000000
00001000
00000000
00000000
00000000
00000001
00000000
00000000
00000000
00011000
00000000
00010000
00000000
,
00010001
00000000
00011000
00000000
00011000
00000000
00010010
00010000
,
00010001
00000000
00010100
00000000
00011000
00000000
00010001
00010000
,
00010010
00000000
00010100
00000000
00010010
00000000
00010001
00010000
,
00011000
00000000
00010100
00000000
00010001
00000000
00011000
00010000
,
00010001
00000000
00011000
00000000
00010001
00000000
00011000
00010000
,
00011000
00000000
00010001
00000000
00011000
00000000
00011000
00010000
,
00010010
00000000
00010010
00000000
00010010
00000000
00011000
00010000
,
00011000
00000000
00010001
00000000
00011000
00000000
00010001
00010000
,
00010010
00000000
00010100
00000000
00010010
00000000
00011000
00010000
,
00010001
00000000
00011000
00000000
00010001
00000000
00010001
00010000
,
00010001
00000000
00010010
00000000
00010001
00000000
00011000
00010000
,
00010100
00000000
00010001
00000000
00010001
00000000
00010010
00010000
,
00010100
00000000
00010010
00000000
00011000
00000000
00010001
00010000
,
00011000
00000000
00010100
00000000
00011000
00000000
00011000
00010000
,
00011000
00011000
00010010
00011000
,
00000022
00000000
00000000
00000000
00000000
00000000
00000000
00000033
00012200
00000000
00010000
00000000
00010000
00000000
00010000
00003300
,
00011000
00000000
00000000
00000000
00020010
00000000
00000000
00030000
00020100
00000000
00000000
00030000
00020010
00030000
00020000
00030000
,
00020010
00000000
00000000
00030000
00020100
00000000
00000000
00030000
00020001
00000000
00000000
00030000
00020001
00030000
00020000
00030000
,
00020100
00000000
00000000
00030000
00020001
00000000
00000000
00030000
00021000
00000000
00000000
00030000
00021000
00030000
00020000
00030000
,
00020100
00000000
00000000
00030000
00020100
00000000
00000000
00030000
00020001
00000000
00000000
00030000
00021000
00030000
00020000
00030000
,
00020001
00000000
00000000
00030000
00020010
00000000
00000000
00030000
00020100
00000000
00000000
00030000
00020100
00030000
00020000
00030000
,
00020100
00000000
00000000
00030000
00021000
00000000
00000000
00030000
00020010
00000000
00000000
00030000
00021000
00030000
00020000
00030000
,
00020010
00000000
00000000
00030000
00021000
00000000
00000000
00030000
00020001
00000000
00000000
00030000
00020010
00030000
00020000
00030000
,
00020001
00000000
00000000
00030000
00020010
00000000
00000000
00030000
00011000
00000000
00010000
00000000
00011000
00000000
00010000
00000000
,
00020010
00000000
00000000
00030000
00021000
00000000
00000000
00030000
00020001
00000000
00000000
00030000
00020001
00030000
00020000
00030000
,
00020001
00000000
00000000
00030000
00020100
00000000
00000000
00030000
00021000
00000000
00000000
00030000
00020100
00030000
00020000
00030000
,
00020100
00000000
00000000
00030000
00021000
00000000
00000000
00030000
00021000
00000000
00000000
00030000
00020010
00030000
00020000
00030000
,
00021000
00000000
00000000
00030000
00021000
00000000
00000000
00030000
00020100
00000000
00000000
00030000
00020010
00030000
00020000
00030000
,
00020100
00000000
00000000
00030000
00021000
00000000
00000000
00030000
00021000
00000000
00000000
00030000
00020001
00030000
00020000
00030000
,
00021000
00000000
00000000
00030000
00020001
00000000
00000000
00030000
00020001
00000000
00000000
00030000
00020010
00030000
00020000
00030000
,
00021000
00000000
00000000
00030000
00020010
00000000
00000000
00030000
00020100
00000000
00000000
00030000
00020100
00030000
00020000
00030000
,
00020001
00030000
00000000
00000000
00010001
00000000
00000000
00000000
00011000
00000000
00010000
00000000
00011000
00000000
00010000
00000000
,
00011000
00000000
00000000
00010000
00000100
00000000
00010000
00000000
00010100
00000000
00000000
00010000
00000100
00000000
00010000
00000000
,
00011000
00000000
00000000
00010000
00001000
00000000
00010000
00000000
00011000
00000000
00000000
00010000
00001000
00000000
00010000
00000000
,
00010010
00000000
00000000
00010000
00000010
00000000
00010000
00000000
00010100
00000000
00000000
00010000
00000100
00000000
00010000
00000000
,
00010010
00000000
00000000
00010000
00000010
00000000
00010000
00000000
00011000
00000000
00000000
00010000
00001000
00000000
00010000
00000000
,
00011000
00010000
00011000
00010000
00011000
00010000
00011000
00010000
,
00011000
00010000
00010010
00010000
00011000
00010000
00011000
00010000
,
00010010
00010000
00010010
00010000
00010100
00010000
00010100
00010000
,
00021000
00000000
00000000
00030000
00021000
00000000
00000000
00030000
00021000
00000000
00000000
00030000
00021000
00000000
00000000
00030000
,
00021000
00000000
00000000
00030000
00021000
00000000
00000000
00030000
00021000
00000000
00000000
00030000
00021000
00030000
00020000
00030000
,
00020010
00000000
00000000
00030000
00020010
00000000
00000000
00030000
00020010
00000000
00000000
00030000
00020100
00030000
00020000
00030000
,
00021000
00000000
00000000
00030000
00021000
00000000
00000000
00030000
00020010
00000000
00000000
00030000
00021000
00030000
00020000
00030000
,
00020100
00000000
00000000
00030000
00021000
00000000
00000000
00030000
00020100
00000000
00000000
00030000
00020001
00030000
00020000
00030000
,
00021000
00000000
00000000
00030000
00021000
00000000
00000000
00030000
00020010
00000000
00000000
00030000
00021000
00030000
00020000
00030000
,
00020001
00000000
00000000
00030000
00020010
00000000
00000000
00030000
00020001
00000000
00000000
00030000
00020010
00030000
00020000
00030000
,
00021000
00000000
00000000
00030000
00020010
00000000
00000000
00030000
00020100
00000000
00000000
00030000
00020001
00030000
00020000
00030000
,
00020100
00000000
00000000
00030000
00020010
00000000
00000000
00030000
00010001
00000000
00010000
00000000
00010001
00000000
00010000
00000000
,
00010001
00000000
00000000
00011001
00011001
00000000
00000000
00011001
,
00011001
00000000
00000000
00011001
00011001
00000000
00000000
00000000
,
00011001
00011001
00011001
00011001
00011001
00011001
00011001
00011001
,
00011001
00000000
10011001
00000000
,
00010001
00000000
00000000
00000000
00020100
00000000
00000000
00030000
00020010
00000000
00000000
00030000
00020100
00030000
00020000
00030000
,
00020010
00000000
00000000
00030000
00020001
00000000
00000000
00030000
00020100
00000000
00000000
00030000
00020001
00030000
00020000
00030000
,
00020100
00000000
00000000
00030000
00021000
00000000
00000000
00030000
00020001
00000000
00000000
00030000
00021000
00030000
00020000
00030000
,
00020100
00000000
00000000
00030000
00020100
00000000
00000000
00030000
00020001
00000000
00000000
00030000
00021000
00030000
00020000
00030000
,
00020100
00000000
00000000
00030000
00020100
00000000
00000000
00030000
00020010
00000000
00000000
00030000
00020010
00030000
00020000
00030000
,
00021000
00000000
00000000
00030000
00021000
00000000
00000000
00030000
00020010
00000000
00000000
00030000
00021000
00030000
00020000
00030000
,
00020010
00000000
00000000
00030000
00021000
00000000
00000000
00030000
00021000
00000000
00000000
00030000
00020001
00030000
00020000
00030000
,
00020001
00000000
00000000
00030000
00020010
00000000
00000000
00030000
00020001
00000000
00030000
00000000
00010000
00000000
00000000
00000000
,
00021000
00000000
00000000
00000000
00001000
00030000
00020000
00000000
00001000
00000000
00000000
00030000
00021000
00000000
00000000
00000000
,
00000100
00030000
00000000
00000000
00000100
00000000
00000000
00000000
00000100
00000000
00000000
00000000
00000010
00000000
00000000
00000000
,
00020010
00000000
00000000
00000000
00000010
00030000
00020000
00000000
00000010
00000000
00000000
00030000
00020010
00000000
00000000
00000000
,
00000100
00030000
00000000
00000000
00001000
00000000
00000000
00000000
00001000
00000000
00000000
00000000
00000100
00000000
00000000
00000000
,
00020010
00000000
00000000
00000000
00001000
00030000
00020000
00000000
00000100
00000000
00000000
00030000
00020100
00000000
00000000
00000000
,
00001000
00030000
00000000
00000000
00000010
00000000
00000000
00000000
00000100
00000000
00000000
00000000
00001000
00000000
00000000
00000000
,
00020100
00000000
00000000
00000000
00000100
00030000
00020000
00000000
00000100
00000000
00000000
00030000
00020100
00000000
00000000
00000000
,
00000010
00030000
00000000
00000000
00000010
00000000
00000000
00000000
00001000
00000000
00000000
00000000
00000010
00000000
00000000
00000000
,
00020010
00000000
00000000
00000000
00000010
00030000
00020000
00000000
00001000
00000000
00000000
00030000
00021000
00000000
00000000
00000000
,
00000010
00030000
00000000
00000000
00000010
00000000
00000000
00000000
00001000
00000000
00000000
00000000
00001000
00000000
00000000
00000000
,
00021000
00000000
00000000
00000000
00001000
00030000
00020000
00000000
00000010
00000000
00000000
00030000
00020010
00000000
00000000
00000000
,
00000100
00030000
00000000
00000000
00001000
00000000
00000000
00000000
00001000
00000000
00000000
00000000
00000010
00000000
00000000
00000000
,
00020100
00000000
00000000
00000000
00000010
00030000
00020000
00000000
00000010
00000000
00000000
00030000
00021000
00000000
00000000
00000000
,
00000010
00030000
00000000
00000000
00001000
00000000
00000000
00000000
00001000
00000000
00000000
00000000
00001000
00000000
00000000
00000000
,
00020010
00000000
00000000
00000000
00000100
00030000
00020000
00000000
00001000
00000000
00000000
00030000
00020010
00000000
00000000
00000000
,
00000100
00030000
00000000
00000000
00000010
00000000
00000000
00000000
00001000
00000000
00000000
00000000
00000100
00000000
00000000
00000000
,
00000010
00000000
00000001
00000000
00001000
00000000
00000010
00001000
,
00020001
00000000
00000000
00030000
00020010
00000000
00000000
00030000
00020100
00000000
00000000
00030000
00020001
00030000
00020010
00030000
,
00020010
00000000
00000000
00030000
00020001
00000000
00000000
00030000
00020010
00000000
00000000
00030000
00020100
00030000
00021000
00030000
,
00020100
00000000
00000000
00030000
00020010
00000000
00000000
00030000
00020100
00000000
00000000
00030000
00020010
00030000
00020100
00030000
,
00020100
00000000
00000000
00030000
00021000
00000000
00000000
00030000
00020001
00000000
00000000
00030000
00020100
00030000
00020001
00030000
,
00021000
00000000
00000000
00030000
00020100
00000000
00000000
00030000
00020010
00000000
00000000
00030000
00020001
00030000
00021000
00030000
,
00021000
00000000
00000000
00030000
00021000
00000000
00000000
00030000
00020100
00000000
00000000
00030000
00020010
00030000
00020001
00030000
,
00020010
00000000
00000000
00030000
00020100
00000000
00000000
00030000
00011000
00000000
00011000
00000000
00011000
00000000
00011000
00000000
,
00022000
00033000
00000000
00000000
;
