#TITLE:BREAKIN'★STAR;
#SUBTITLE:;
#ARTIST:P*Light;
#TITLETRANSLIT:;
#SUBTITLETRANSLIT:;
#ARTISTTRANSLIT:;
#CREDIT:owenviau1;
#BANNER:../Banner.png;
#BACKGROUND:../BG.png;
#LYRICSPATH:;
#CDTITLE:../CDTitleOV1.png;
#MUSIC:PLight - BREAKIN' STAR.ogg;
#OFFSET:-1.022;
#SAMPLESTART:66.845;
#SAMPLELENGTH:29.999;
#SELECTABLE:YES;
#BPMS:0.000=175.000;
#STOPS:;
#BGCHANGES:;
// cache tags:
#FIRSTBEAT:0.000;
#LASTBEAT:400.000;
#SONGFILENAME:Songs/Index Tesseract/BREAKIN' STAR - [Owen71]/BREAKIN' STAR.sm;
#HASMUSIC:1;
#HASBANNER:1;
#MUSICLENGTH:140.930;
// end cache tags

//---------------dance-single - Owen71----------------
#NOTES:
     dance-single:
     Owen71:
     Challenge:
     14:
     1.000,1.000,0.341,0.993,1.000,1121.000,48.000,140.000,19.000,23.000:
1000
0000
0020
0000
0130
0000
0001
1000
0001
0100
0010
1000
0010
0000
0100
0001
,
1000
0000
0000
0000
0000
0000
0010
0000
0000
0000
0000
0000
1000
0000
0000
0000
0000
0000
0001
0000
0000
0000
0000
0000
0010
0000
0000
0100
0000
0000
1000
0000
0000
0001
0000
0000
0100
0000
0010
0000
0100
0000
0001
0000
1000
0000
0010
0000
,
1000
0000
0100
0000
0010
0000
0001
1000
0001
0100
0010
1000
0010
0000
0100
0001
,
1000
0000
0000
0010
0000
0000
0100
0001
1000
0001
0010
0100
1000
0001
0100
0001
1000
0010
0200
0000
0000
0302
0000
0000
,
1003
0100
0010
0001
1000
0000
0010
0100
0010
1000
0001
0010
0100
0000
1000
0001
,
1000
0000
0000
0000
0000
0000
0010
0000
0000
0000
0000
0000
0100
0000
0000
0000
0000
0000
0001
0000
0000
1000
0000
0000
0100
0000
0000
0010
0000
0000
0001
0000
0000
1000
0000
0000
0001
0000
0100
0000
0010
0000
1000
0000
0010
0000
0100
0000
,
0001
0000
1000
0000
0100
0010
0001
1000
0100
1000
0010
0100
0001
0000
1000
0010
,
1000
0000
0000
0000
0000
0000
0001
0000
0010
0000
0100
0000
1000
0000
0001
0000
1000
0000
0010
0000
0100
0000
0010
0000
1000
0000
0001
0000
0010
0000
0001
0000
0100
0000
0010
0000
1000
0000
0000
0001
0000
0000
0100
0000
0000
0010
0000
0000
,
100M
0001
0100
0010
1000
0001
1000
0100
,
0010
0001
1000
0100
1000
0010
0101
0001
,
1001
0100
0100
0010
1000
1000
0001
0010
,
0100
0000
1000
0001
1000
0000
0010
0000
0100
0000
0001
0000
1001
0000
1000
0000
,
0010
0100
0010
1000
0001
0010
0001
0100
0010
1000
0010
0100
0001
1000
0100
0010
,
0001
1000
0100
1000
0010
0100
0001
1000
0001
0100
0010
1000
0010
0100
0001
1000
,
0100
1000
0001
0010
0001
0100
0010
1000
0010
0100
0001
1000
0100
0010
0001
1000
,
0010
0100
0001
1000
0001
0010
0200
0000
,
2302
3000
0000
0223
0300
0000
2230
0300
,
0000
0000
3202
0300
0000
0000
0000
0000
2023
0000
0030
0000
0200
0000
0000
0000
,
3322
0030
0000
0223
0030
0000
2320
0030
,
0000
0000
3022
0000
0030
0000
0000
0000
2023
0000
0030
0000
0200
0300
0200
0300
,
3022
0030
0000
2203
0300
0000
3220
0300
,
0000
0232
0300
0000
2203
0300
0020
0000
,
3232
0300
0000
2023
0030
0000
3220
0300
,
0000
0000
2032
0000
3000
0000
0000
0000
0223
0000
0030
0000
0020
0030
0020
0030
,
0302
1003
0010
2000
3001
0100
0020
0130
,
0001
2000
3100
0010
0002
1003
1010
0010
,
0120
0130
0001
2000
3010
1000
0200
0310
,
0001
2000
3100
1000
0020
0130
0101
0002
,
1003
0010
0100
0010
1000
0001
0100
0001
0010
0100
1000
0001
0100
0010
0100
0001
,
1000
0100
1000
0001
0010
0001
0100
0010
1000
0010
0100
0001
1000
0100
0010
0001
,
2000
0000
3000
0000
0020
0000
0030
0000
0200
0300
0002
0003
2000
3000
0002
0003
,
0202
0000
0000
0000
1313
0000
0000
0000
0220
0000
0330
0000
0000
0000
0000
0000
0202
0000
0000
0303
0000
0000
0000
0000
2000
0000
0000
0000
0000
0000
0000
0000
,
3010
0100
0010
1000
0001
0100
0010
1000
0010
0100
0001
1000
0100
0010
0001
0010
,
0100
1000
0001
0100
0001
1000
0001
0100
0010
1000
0010
0100
0001
1000
0010
1000
,
0001
0100
0010
1000
0010
0100
0001
1000
0010
1000
0001
0100
0001
1000
0100
0010
,
0100
1000
0001
1000
0001
0100
0010
1000
0010
0100
0001
1000
0010
1000
0001
1000
,
0100
0010
0001
1000
0100
1000
0001
0010
0001
0100
0010
1000
0010
0100
0001
1000
,
0001
0100
0010
1000
0010
0100
0001
1000
0001
0010
0001
0100
0010
1000
0010
0100
,
0001
1000
0100
0010
0001
1000
0100
1000
0001
0100
0010
1000
0010
0100
0001
1000
,
0010
0000
0000
0100
0000
0000
0001
0000
1000
0000
0100
0000
0020
0000
0001
0000
,
0130
1000
0001
0100
0010
1000
0010
0100
0001
1000
0100
1000
0001
0010
0001
0100
,
0010
1000
0010
0100
0001
1000
0010
1000
0100
0010
0001
1000
0100
1000
0001
0100
,
0001
0010
0100
1000
0001
1000
0010
0100
0010
1000
0001
0100
0001
1000
0100
0010
,
0001
1000
0100
1000
0010
0100
0010
1000
0001
0100
0001
0010
0100
1000
0100
0010
,
0001
1000
0010
1000
0001
0100
0010
1000
0010
0100
0001
1000
0100
1000
0001
0010
,
0001
0100
0010
1000
0010
0100
0001
1000
0001
0100
0010
1000
0010
1000
0001
0100
,
0010
0100
0001
1000
0001
0010
0001
0100
0010
1000
0010
0100
0001
1000
0100
0010
,
M002
0000
0203
0300
M000
0000
0020
0030
M200
0300
000M
0000
M020
0030
0200
0300
,
0001
1000
0100
1000
0001
0100
0010
1000
0010
0100
0001
1000
0100
0010
0001
1000
,
0001
0100
0010
0100
0001
1000
0010
1000
0100
0010
0001
1000
0100
1000
0001
0010
,
0001
0100
0010
1000
0010
0100
0001
1000
0100
1000
0001
0010
0001
0100
0010
1000
,
0010
0100
0001
1000
0010
1000
0001
0100
0001
1000
0100
0010
0001
1000
0001
0100
,
0010
1000
0010
0100
0001
1000
0001
1000
0100
0010
0001
1000
0100
1000
0001
0010
,
0001
0100
0010
1000
0010
0100
0001
1000
0001
0100
0010
1000
0010
0100
0001
1000
,
0100
1000
0001
1000
0010
0100
0010
1000
0001
0100
0001
0010
0100
1000
0001
1000
,
0010
0000
0100
0001
1000
0000
0100
0000
0010
0000
0001
0000
2000
0000
3020
0030
,
0100
0001
1000
0010
1000
0001
0100
0001
1000
0001
0100
0010
1000
0010
0100
0001
,
1000
0100
1000
0001
0010
0001
0100
0010
1000
0010
0100
0001
1000
0001
0010
0100
,
1000
0001
1000
0100
0010
0001
1000
0010
1000
0001
0100
0001
1000
0010
0100
0010
,
1000
0001
0010
0100
0010
0001
1000
0100
1000
0001
0010
0100
1000
0001
0100
0001
,
1000
0010
1000
0001
1000
0100
0010
0001
1000
0001
0010
0100
1000
0001
1000
0010
,
0100
0010
1000
0001
0100
0001
1000
0100
1000
0001
0010
0001
0100
0010
1000
0010
,
0100
0001
1000
0100
0010
0001
1000
0100
1000
0001
0100
0001
1000
0001
0100
0010
,
1000
0100
0010
0001
0010
0100
2000
0000
,
31M2
0000
4003
3020
0000
0430
0302
0000
,
4003
3200
0000
0340
0032
0000
4003
3000
,
0020
0000
0430
0304
0000
2003
3040
0000
,
0230
0304
0000
2003
3400
0000
0320
0030
,
0002
0000
4003
3040
0000
0230
0302
0000
,
4003
3400
0000
0320
0032
0000
4003
3000
,
020M
0000
0000
M000
0320
0000
M032
0000
0M00
0000
2003
0000
3M20
0000
0000
0000
,
0230
M000
0302
0000
0000
0000
2M03
0000
3020
0000
0000
0000
0130
0000
0100
0000
,
0002
1003
0010
2000
3001
0100
0020
0130
,
0001
2000
3100
0010
0002
1003
1010
0010
,
0120
0130
0001
2000
3010
1000
0200
0310
,
0001
2000
3100
1000
0020
0130
0101
0002
,
1003
0010
0100
0010
1000
0001
0100
0001
0010
0100
1000
0001
0100
0010
0100
0001
,
1000
0100
1000
0001
0010
0001
0100
0010
1000
0010
0100
0001
1000
0100
0010
0001
,
2000
0000
3000
0000
0020
0000
0030
0000
0200
0300
0002
0003
2000
3000
0002
0003
,
0202
0000
0000
0000
1313
0000
0000
0000
0220
0000
0330
0000
0000
0000
0000
0000
0202
0000
0000
0303
0000
0000
0000
0000
2000
0000
0000
0000
0000
0000
0000
0000
,
3010
0100
0010
1000
0001
0100
0010
1000
0010
0100
0001
1000
0100
0010
0001
0010
,
0100
1000
0001
0100
0001
1000
0001
0100
0010
1000
0010
0100
0001
1000
0010
1000
,
0001
0100
0010
1000
0010
0100
0001
1000
0010
1000
0001
0100
0001
1000
0100
0010
,
0100
1000
0001
1000
0001
0100
0010
1000
0010
0100
0001
1000
0010
1000
0001
1000
,
0100
0010
0001
1000
0100
1000
0001
0010
0001
0100
0010
1000
0010
0100
0001
1000
,
0001
0100
0010
1000
0010
0100
0001
1000
0001
0010
0001
0100
0010
1000
0010
0100
,
0001
1000
0100
0010
0001
1000
0100
1000
0001
0100
0010
1000
0010
0100
0001
1000
,
0010
0000
0000
0100
0000
0000
0001
0000
1000
0000
0100
0000
0020
0000
0001
0000
,
0130
1000
0001
0100
0010
1000
0010
0100
0001
1000
0100
1000
0001
0010
0001
0100
,
0010
1000
0010
0100
0001
1000
0010
1000
0100
0010
0001
1000
0100
1000
0001
0100
,
0001
0010
0100
1000
0001
1000
0010
0100
0010
1000
0001
0100
0001
1000
0100
0010
,
0001
1000
0100
1000
0010
0100
0010
1000
0001
0100
0001
0010
0100
1000
0100
0010
,
0001
1000
0010
1000
0001
0100
0010
1000
0010
0100
0001
1000
0100
1000
0001
0010
,
0001
0100
0010
1000
0010
0100
0001
1000
0001
0100
0010
1000
0010
1000
0001
0100
,
0010
0100
0001
1000
0001
0010
0001
0100
0010
1000
0010
0100
0001
1000
0100
0010
,
M002
0000
0203
0300
M000
0000
0020
0030
M200
0300
000M
0000
M020
0030
0200
0300
,
0002
0000
0000
0000
,
0000
0000
0000
0000
,
0000
0000
0000
0000
,
0000
0000
0000
0000
,
0003
0000
0000
0000
,
0000
0000
0000
0000
,
0000
0000
0000
0000
;
