#TITLE:Crush Everyone;
#SUBTITLE:The BOSS Song of Kirby5464;
#ARTIST:The Quick Brown Fox;
#TITLETRANSLIT:;
#SUBTITLETRANSLIT:;
#ARTISTTRANSLIT:;
#CREDIT:;
#BANNER:BN.png;
#BACKGROUND:BG.png;
#LYRICSPATH:;
#CDTITLE:../CDTitleKIRBY.png;
#MUSIC:Crush Everyone.ogg;
#OFFSET:-0.150;
#SAMPLESTART:28.647;
#SAMPLELENGTH:24.000;
#SELECTABLE:YES;
#DISPLAYBPM:320.000;
#BPMS:0.000=160.015,76.000=320.029,196.000=160.015,240.000=320.029;
#STOPS:;
#BGCHANGES:;
// cache tags:
#FIRSTBEAT:0.000;
#LASTBEAT:384.000;
#SONGFILENAME:Songs/Index Tesseract/Crush Everyone - [Kirby5464]/Crush Everyone.sm;
#HASMUSIC:1;
#HASBANNER:1;
#MUSICLENGTH:94.667;
// end cache tags

//---------------dance-single - ----------------
#NOTES:
     dance-single:
     :
     Hard:
     15:
     1.000,1.000,0.359,0.940,0.518,663.000,34.000,89.000,44.000,0.000:
M000
0000
0000
0000
0000
0000
0000
0000
0000
0000
0000
0000
00M0
0000
0000
0M00
0000
0000
0000
0000
0000
000M
0000
0000
0000
0000
0000
0000
0000
0000
M000
0000
0000
0000
0000
0000
000M
0000
000M
0000
000M
0000
000M
0000
0000
0000
0000
0000
,
1100
0000
0000
0011
0000
0000
0110
0000
0000
0000
1100
0000
1001
0000
0000
0000
,
0M20
0M00
0M00
0M00
0M00
0M00
0M00
0M00
0M00
0M00
0M00
0M00
0M30
0000
0000
0000
0000
0000
0000
0000
0000
0000
0000
0000
,
0011
0000
0000
1100
0000
0000
0110
0000
0000
0000
0011
0000
1001
0000
0000
0000
,
1010
0000
0000
0101
0000
0000
0110
0000
0000
0000
1001
0000
2020
0000
3030
0000
,
0110
0000
0000
0011
0000
0000
1100
0000
0000
0000
1001
0000
0110
0000
0000
0000
,
M002
M000
M000
M000
M000
M000
M000
M000
M000
M000
M000
M000
M003
0000
0000
0000
0000
0000
0000
0000
0000
0000
0000
0000
,
1100
0000
0000
0011
0000
0000
0110
0000
0000
0000
1100
0000
1001
0000
0000
0000
,
0101
0000
0000
1010
0000
0000
0110
0000
0000
0000
1001
0000
2020
0000
3030
0000
,
2000
3000
0001
0010
0100
1000
0001
0100
0010
0000
0000
0000
0000
0000
0000
0000
,
0002
0003
1000
0100
1000
0001
0100
0010
1000
0000
0000
0000
0000
0000
0000
0000
,
0200
0300
0001
0100
0010
1000
0100
0010
0001
0000
0000
0000
0000
0000
0000
0000
,
0020
0030
1000
0001
0100
0001
0010
0100
1000
0000
0000
0000
0000
0000
0000
0000
,
0100
0000
0010
1000
0100
0010
0001
1000
0010
0100
0001
0010
0001
1000
0100
0010
,
0200
2300
3002
0203
0320
2030
3200
2300
,
3001
1000
0100
0010
0001
1000
0010
0100
0001
0010
0100
0010
0001
1000
0100
1000
,
0004
0043
0430
4300
3004
0403
0340
4030
,
3002
0000
0000
0000
0003
0000
0000
0000
0000
0000
0000
0000
1000
0100
0010
0001
,
2000
3000
0000
MMMM
,
0001
0100
0010
1000
0100
1000
0001
0010
,
0001
1000
0100
0010
0100
1000
0001
0010
,
0100
1000
0010
0100
0001
1000
0100
0010
,
0001
1000
0100
1000
0001
0010
0001
1000
,
0010
1000
0100
0010
0001
1000
0100
0010
,
0100
1000
0001
0100
0001
0010
0100
1000
,
0001
0010
0100
0010
0001
1000
0100
1000
,
0010
0100
0010
1000
0001
0100
0010
1000
,
0100
0010
0001
1000
0010
0100
0001
0010
,
0001
1000
0100
1000
0001
0100
0010
1000
,
0100
0010
0100
1000
0001
0100
0001
0010
,
0100
1000
0010
0100
0010
1000
0100
1000
,
0001
0010
0001
1000
0100
0010
0001
1000
,
0010
0100
0001
1000
0001
0010
0100
1000
,
0002
0003
0000
0000
,
0000
0000
0000
0000
,
1000
0100
0010
0001
0100
0010
1000
0001
,
0010
0100
1000
0001
0010
0001
1000
0100
,
1000
0001
0100
0001
0010
0100
1000
0001
,
0010
0100
0010
0001
1000
0010
1000
0100
,
0010
0001
1000
0100
0010
0100
1000
0001
,
0010
0001
1000
0100
0010
0001
1000
0010
,
0100
0001
0010
0001
1000
0100
1000
0001
,
0100
0010
1000
0100
0010
0100
1000
0001
,
0100
0001
0010
0100
1000
0010
0100
0010
,
1000
0100
1000
0001
0010
0001
1000
0100
,
0010
0001
1000
0010
0100
0001
1000
0001
,
0010
0100
1000
0001
0100
0001
1000
0010
,
2000
3002
0203
0320
2030
3200
0320
0032
,
2003
3200
0320
0230
2300
3002
0203
0320
,
2030
3000
0000
0000
,
0002
1003
0100
0010
0001
1000
0100
1000
0001
0010
0001
1000
0100
0010
0100
1000
,
0001
0100
0001
0010
0100
1000
0001
0100
0020
0000
2030
0000
3200
0000
0320
0000
,
0032
1003
0100
1000
0001
0010
0100
1000
0001
0010
0100
0010
0001
1000
0010
1000
,
0002
0003
0000
0000
0011
0000
0000
1000
0010
0000
0100
0000
0001
0000
1000
0000
,
0010
1000
0001
0100
0001
1000
0100
1000
0010
0100
0010
1000
0001
0100
0010
1000
,
0200
0320
0032
2003
3020
0230
0302
2003
,
3001
1000
0100
0010
0001
1000
0100
0010
0100
1000
0001
0100
0001
0010
0100
1000
,
0040
0430
0304
0043
0034
4003
3040
4030
,
3002
0000
0000
0000
0003
0000
0000
0000
0000
0000
0000
0000
1000
0100
1000
0001
,
0200
0300
0000
MMMM
,
1000
0100
0010
0001
1000
0100
1000
0001
,
0010
0001
1000
0010
1000
0100
0010
0001
,
1000
0100
0010
0100
1000
0001
0100
0001
,
0010
0100
1000
0001
0010
0100
0010
0001
,
1000
0100
1000
0001
0010
0100
1000
0001
,
0100
0010
1000
0100
1000
0001
0010
0001
,
1000
0010
0100
0001
0010
0100
0010
0001
,
1000
0010
1000
0100
0010
0001
0100
0010
,
0100
0001
0010
0001
1000
0100
1000
0001
,
0010
0100
1000
0001
0100
0010
1000
0001
,
1000
0100
0010
0001
1000
0010
1000
0001
,
0100
0010
1000
0100
0010
0001
2000
3200
,
2300
3002
0023
0230
0320
0032
2003
3020
,
2030
3200
0320
0032
0203
0320
0230
0302
,
2003
3000
0000
0000
,
0000
0000
0000
0000
,
0001
0010
0100
1000
0001
0010
0001
1000
,
0100
1000
0001
0100
0001
0010
0100
1000
,
0001
0010
0100
0010
0001
1000
0010
1000
,
0100
0010
0001
1000
0100
0010
0100
1000
,
0001
0010
0001
1000
0100
0010
0001
1000
,
0010
0100
0001
0010
0001
1000
0100
1000
,
0001
0100
0010
1000
0100
0010
0100
1000
,
0001
0100
0001
0010
0100
1000
0010
0100
,
0010
1000
0100
1000
0001
0010
0001
1000
,
0100
0010
0001
1000
0010
0100
0001
1000
,
0001
0010
0100
1000
0001
0100
0001
1000
,
0010
0100
0001
0010
0001
1000
0010
0100
,
0002
2003
3020
0230
0302
0023
0230
2300
,
3002
0000
0023
0000
0230
0000
0320
0000
0031
1000
0001
1000
0001
1000
0001
1000
,
0002
0003
0000
0000
,
0000
0000
0000
0000
,
0220
0000
0000
0000
,
0330
0000
0000
0000
,
0000
0000
0000
0000
,
0000
0000
0000
0000
,
00M0
0000
0000
0000
;

//---------------dance-single - ----------------
#NOTES:
     dance-single:
     :
     Challenge:
     29:
     1.000,1.000,0.401,0.676,1.000,1126.000,38.000,64.000,70.000,0.000:
M000
0000
0000
0000
0000
0000
0000
0000
0000
0000
0000
0000
00M0
0000
0000
0M00
0000
0000
0000
0000
0000
000M
0000
0000
0000
0000
0000
0000
0000
0000
M000
0000
0000
0000
0000
0000
000M
0000
000M
0000
000M
0000
000M
0000
0000
0000
0000
0000
,
1100
0000
0000
0011
0000
0000
0110
0000
0000
0000
1100
0000
1001
0000
0000
0000
,
2M2M
0M0M
0M0M
0M0M
0M0M
0M0M
0M0M
0M0M
0M0M
0M0M
0M0M
0M0M
3M3M
0000
0000
0000
0000
0000
0000
0000
0000
0000
0000
0000
,
0011
0000
0000
1100
0000
0000
0110
0000
0000
0000
0011
0000
1001
0000
0000
0000
,
1010
0000
0000
0101
0000
0000
0110
0000
0000
0000
1001
0000
2020
0000
3030
0000
,
0110
0000
0000
0011
0000
0000
1100
0000
0000
0000
1001
0000
0110
0000
0000
0000
,
M2M2
M0M0
M0M0
M0M0
M0M0
M0M0
M0M0
M0M0
M0M0
M0M0
M0M0
M0M0
M3M3
0000
0000
0000
0000
0000
0000
0000
0000
0000
0000
0000
,
1100
0000
0000
0011
0000
0000
0110
0000
0000
0000
1100
0000
1001
0000
0000
0000
,
0101
0000
0000
1010
0000
0000
0110
0000
0000
0000
1001
0000
2020
0000
3030
0000
,
1100
0000
0001
0010
0100
1000
0001
0100
0010
0000
0000
0000
0000
0000
0000
0000
,
0011
0000
1000
0100
1000
0001
0100
0010
1000
0000
0000
0000
0000
0000
0000
0000
,
0101
0000
0001
0100
0010
1000
0100
0010
0001
0000
0000
0000
0000
0000
0000
0000
,
1010
0000
1000
0001
0100
0001
0010
0100
1000
0000
0000
0000
0000
0000
0000
0000
,
0110
0000
0010
1000
0100
0010
0001
1000
0010
0100
0001
0010
0001
1000
0100
0010
,
0100
1000
0001
0100
0001
0010
0100
1000
0010
0100
0010
1000
0100
1000
0001
0010
,
0001
1000
0100
0010
0001
1000
0010
0100
0001
0010
0100
0010
0001
1000
0100
1000
,
0002
0203
0320
2030
3002
0023
0230
2300
3002
0203
0320
2030
3200
2300
3002
0203
,
0320
0000
0000
0000
0030
0000
0000
0000
0000
0000
0000
0000
1000
0100
0010
0001
,
2000
3000
0000
MMMM
,
0001
0010
0100
1000
0001
0010
0001
1000
0010
1000
0001
0010
0100
0010
0001
1000
,
0100
1000
0010
0100
0010
1000
0001
0100
0010
1000
0100
0010
0001
1000
0010
0100
,
0001
1000
0001
0010
0100
1000
0010
0100
0010
1000
0100
1000
0001
0010
0001
1000
,
0010
1000
0001
0010
0100
0010
0001
1000
0100
1000
0001
0100
0010
1000
0100
1000
,
0001
0010
0100
1000
0010
0100
0010
1000
0100
1000
0001
0010
0001
1000
0010
1000
,
0001
0010
0100
0010
0001
1000
0100
1000
0010
0100
0010
1000
0001
0100
0010
1000
,
0100
0010
0001
1000
0010
0100
0001
1000
0001
0100
0010
1000
0100
0010
0001
1000
,
0010
1000
0001
0010
0001
1000
0100
1000
0001
0010
0100
1000
0001
0010
0001
1000
,
0010
1000
0001
0010
0100
0010
0001
1000
0100
1000
0010
0100
0010
1000
0001
0100
,
0010
1000
0100
0010
0001
1000
0010
0100
0001
1000
0001
0010
0100
1000
0010
0100
,
0010
1000
0100
1000
0001
0010
0001
1000
0010
1000
0001
0010
0100
0010
0001
1000
,
0100
0010
0001
1000
0010
0100
0001
1000
0001
0010
0100
1000
0010
0100
0010
1000
,
0100
1000
0001
0010
0001
1000
0010
1000
0001
0010
0100
0010
0001
1000
0100
1000
,
0010
0100
0010
1000
0001
0100
0010
1000
0100
0010
0001
1000
0010
0100
0001
1000
,
0002
0003
0000
0000
,
0000
0000
0000
0000
,
1000
0100
0010
0001
1000
0010
0100
0001
1000
0001
0010
0100
1000
0010
0100
0010
,
1000
0100
1000
0001
0010
0001
1000
0010
1000
0001
0010
0100
0010
0001
1000
0100
,
1000
0001
0100
0010
1000
0100
1000
0001
0010
0100
1000
0010
0100
0010
1000
0100
,
1000
0001
0010
0001
1000
0010
1000
0001
0010
0100
0010
0001
1000
0100
1000
0010
,
0100
0010
1000
0001
0100
0010
1000
0100
0010
0001
1000
0010
0100
0001
1000
0001
,
0100
0010
1000
0100
0010
0001
1000
0010
1000
0001
0010
0001
1000
0100
1000
0001
,
0010
0100
1000
0001
0010
0001
1000
0010
1000
0001
0010
0100
0010
0001
1000
0100
,
1000
0010
0100
0010
1000
0001
0100
0010
1000
0100
0010
0001
1000
0010
0100
0001
,
1000
0001
0010
0100
1000
0010
0100
0010
1000
0100
1000
0001
0010
0001
1000
0010
,
1000
0001
0010
0100
0010
0001
1000
0100
0010
0001
1000
0010
0100
0001
1000
0001
,
0010
0100
1000
0010
0100
0010
1000
0100
1000
0001
0010
0001
1000
0010
1000
0001
,
0010
0100
0010
0001
1000
0100
1000
0010
0100
0010
1000
0001
0100
0010
1000
0100
,
1000
0001
0100
0010
1000
0100
0010
0001
,
1000
0100
0010
0100
1000
0001
0100
0010
,
2000
3000
0000
0000
,
0002
1003
0100
0010
0001
1000
0100
1000
0001
0010
0001
1000
0100
0010
0100
1000
,
0001
0100
0001
0010
0100
1000
0001
0100
0020
2030
3200
0320
0032
2003
3020
0230
,
0302
1003
0100
1000
0001
0010
0100
1000
0001
0010
0100
0010
0001
1000
0010
1000
,
0200
0310
0001
1000
0200
1300
0001
0010
0002
1003
0100
0010
0200
1300
0001
0010
,
0100
1000
0001
0100
0001
1000
0100
1000
0010
0100
0010
1000
0001
0100
0010
1000
,
0100
0010
0001
1000
0100
1000
0001
0010
0001
1000
0010
0100
0001
0010
0100
0010
,
0001
1000
0100
0010
0001
1000
0100
0010
0100
1000
0001
0100
0001
0010
0100
1000
,
0020
0230
0320
2030
3200
2300
3002
0023
0032
2003
3200
0320
0230
2300
3002
0203
,
0320
0030
0000
0000
0000
0000
0000
0000
0000
0000
0000
0000
1000
0100
1000
0001
,
0200
0300
0000
MMMM
,
0001
0010
0100
1000
0001
0010
0001
1000
0010
1000
0001
0010
0100
0010
0001
1000
,
0100
1000
0010
0100
0010
1000
0001
0100
0010
1000
0100
0010
0001
1000
0010
0100
,
0001
1000
0001
0010
0100
1000
0010
0100
0010
1000
0100
1000
0001
0010
0001
1000
,
0010
1000
0001
0010
0100
0010
0001
1000
0100
1000
0001
0100
0010
1000
0100
1000
,
0001
0010
0100
1000
0010
0100
0010
1000
0100
1000
0001
0010
0001
1000
0010
1000
,
0001
0010
0100
0010
0001
1000
0100
1000
0010
0100
0010
1000
0001
0100
0010
1000
,
0100
0010
0001
1000
0010
0100
0001
1000
0001
0100
0010
1000
0100
0010
0001
1000
,
0010
1000
0001
0010
0001
1000
0100
1000
0001
0010
0100
1000
0001
0010
0001
1000
,
0010
1000
0001
0010
0100
0010
0001
1000
0100
1000
0010
0100
0010
1000
0001
0100
,
0010
1000
0100
0010
0001
1000
0010
0100
0001
1000
0001
0010
0100
1000
0010
0100
,
0010
1000
0100
1000
0001
0010
0001
1000
0010
1000
0001
0010
0100
0010
0001
1000
,
0100
0010
0001
1000
0010
0100
0001
1000
0001
0010
0100
1000
0001
0000
0010
0000
,
0001
1000
0100
0010
0100
1000
0001
0100
,
0001
0010
0100
1000
0010
0100
0010
1000
,
0002
0003
0000
0000
,
0000
0000
0000
0000
,
1000
0100
0010
0001
1000
0010
0100
0001
1000
0001
0010
0100
1000
0010
0100
0010
,
1000
0100
1000
0001
0010
0001
1000
0010
1000
0001
0010
0100
0010
0001
1000
0100
,
1000
0001
0100
0010
1000
0100
1000
0001
0010
0100
1000
0010
0100
0010
1000
0100
,
1000
0001
0010
0001
1000
0010
1000
0001
0010
0100
0010
0001
1000
0100
1000
0010
,
0100
0010
1000
0001
0100
0010
1000
0100
0010
0001
1000
0010
0100
0001
1000
0001
,
0100
0010
1000
0100
0010
0001
1000
0010
1000
0001
0010
0001
1000
0100
1000
0001
,
0010
0100
1000
0001
0010
0001
1000
0010
1000
0001
0010
0100
0010
0001
1000
0100
,
1000
0010
0100
0010
1000
0001
0100
0010
1000
0100
0010
0001
1000
0010
0100
0001
,
1000
0001
0010
0100
1000
0010
0100
0010
1000
0100
1000
0001
0010
0001
1000
0010
,
1000
0001
0010
0100
0010
0001
1000
0100
0010
0001
1000
0010
0100
0001
1000
0001
,
0010
0100
1000
0010
0100
0010
1000
0100
1000
0001
0010
0001
1000
0010
1000
0001
,
0010
0100
0010
0001
1000
0100
1000
0010
0100
0010
1000
0001
0100
0010
1000
0100
,
1000
0001
0100
0010
1000
0100
0010
0001
,
1000
0000
0000
0100
0000
0000
0010
0000
0000
0100
0000
0000
1000
0001
0010
0100
1000
0001
0010
0001
1000
0100
1000
0010
,
0200
0300
0000
0000
,
0000
0000
0000
0000
,
2002
0000
0000
0000
,
3003
0000
0000
0000
,
0000
0000
0000
0000
,
0000
0000
0000
0000
,
00M0
0000
0000
0000
;
