#TITLE:BLUE MIRAGE;
#SUBTITLE:;
#ARTIST:DJ CHUCKY;
#TITLETRANSLIT:;
#SUBTITLETRANSLIT:;
#ARTISTTRANSLIT:;
#CREDIT:;
#BANNER:;
#BACKGROUND:;
#LYRICSPATH:;
#CDTITLE:;
#MUSIC:BLUE MIRAGE.mp3;
#OFFSET:2.206;
#SAMPLESTART:33.088;
#SAMPLELENGTH:12.000;
#SELECTABLE:YES;
#BPMS:0.000=170.000;
#STOPS:;
#BGCHANGES:;
// cache tags:
#FIRSTBEAT:8.000;
#LASTBEAT:324.000;
#SONGFILENAME:Songs/toune/BLUE MIRAGE/BLUE MIRAGE.sm;
#HASMUSIC:1;
#HASBANNER:0;
#MUSICLENGTH:118.883;
// end cache tags

//---------------iidx-single7 - blue mirage----------------
#NOTES:
     iidx-single7:
     blue mirage:
     Hard:
     10:
     1.000,1.000,1.000,0.000,1.000,862.000,203.000,0.000,0.000,25.000:  // measure 1
00000000
00000000
00000000
00000000
,  // measure 2
00000000
00000000
00000000
00000000
,  // measure 3
00001001
00000000
00000000
00000000
,  // measure 4
00000000
00000000
00000000
00000000
,  // measure 5
00001011
00100000
10000000
00000000
00001000
00100000
10000000
00000000
00001000
00100000
10000000
00000000
00001000
00100000
10000000
00000000
,  // measure 6
00001000
00010000
01000000
00000000
00001000
00010000
01000000
00000000
00001000
00010000
01000000
00000000
00001000
00010000
01000000
00000000
,  // measure 7
00000100
00010000
10000000
00000000
00000100
00010000
10000000
00000000
00000100
00010000
10000000
00000000
00000100
00010000
10000000
00000000
,  // measure 8
00000010
00001000
01000000
00000000
00000010
00001000
01000000
00000000
00000010
00001000
01000000
00000000
00000010
00001000
01000000
00000000
,  // measure 9
00001000
00100000
10000000
00000000
00001000
00100000
10000000
00000000
00001000
00100000
10000000
00000000
00001000
00100000
10000000
00000000
,  // measure 10
00000100
00010000
10000000
00000000
00000100
00010000
10000000
00000000
00000100
00010000
10000000
00000000
00000100
00010000
10000000
00000000
,  // measure 11
00000010
00001000
01000000
00000000
00000010
00001000
01000000
00000000
00000010
00001000
01000000
00000000
00000010
00001000
01000000
00000000
,  // measure 12
00000101
00100000
10000000
00000000
00000100
00100000
10000000
00000000
00000100
00100000
10000000
00000000
00000100
00100000
10000000
00000000
,  // measure 13
10001011
00000000
00000100
00000000
00100000
00000100
00000000
00000000
00000100
00000000
10000000
00000100
00100000
00000000
00000100
00000000
,  // measure 14
10000000
00000000
00000010
00000000
00100000
00000010
00000000
00000000
00000010
00000000
10000000
00000010
00100000
00000000
00000100
00000010
,  // measure 15
10000000
00000000
00000100
00000000
00100000
00000100
00000000
00000000
00000100
00000000
10000000
00000100
00100000
00000000
00000100
00000000
,  // measure 16
10000000
00000010
00000000
00000000
00100010
00000000
00000000
00000010
00000000
00000000
10000100
00000000
01000000
00000100
00001000
01000010
,  // measure 17
10000000
00000000
00000100
00000000
00100000
00000100
00000000
00000000
00000100
00000000
10000000
00000100
00100000
00000000
00000100
00000000
,  // measure 18
10000000
00000010
00000000
00000000
00100010
00000000
00000000
00000010
00000000
00000000
10000010
00000000
00100000
00000010
00000100
00000010
,  // measure 19
10000000
00000000
00000100
00000000
00100000
00000100
00000000
00000000
00000100
00000000
10000000
00000100
00100000
00000000
00000100
00100000
,  // measure 20
10000001
00001000
00000000
00000000
01001001
00000000
00000000
00001000
00000001
00000100
00000000
00000000
00000101
00000000
00000100
00000010
,  // measure 21
10000001
00100000
00001001
00000000
00100000
00001001
00000000
00100000
00001001
00000000
00100000
00001001
00000000
00100000
00001001
00000000
,  // measure 22
00000000
00000000
00000000
00000000
,  // measure 23
10000001
00100000
00001001
00000000
00100000
00001001
00000000
00100000
00001001
00000000
00100000
00001001
00000000
00100000
00001001
00000000
,  // measure 24
00000000
00000000
00000000
00000000
,  // measure 25
10000001
00100000
00001001
00000000
00100000
00001001
00000000
00100000
00001001
00000000
00100000
00001001
00000000
00100000
00001001
00000000
,  // measure 26
10000001
00100000
00001001
00000000
00100000
00001001
00000000
00100000
00001001
00000000
00100000
00001001
00000000
00100000
00001001
00000000
,  // measure 27
10000001
00100000
00001001
00000000
00100000
00001001
00000000
00100000
00001001
00000000
00100000
00001001
00000000
00100000
00001001
00000000
,  // measure 28
10000001
00100000
00001001
00000000
00100000
00001001
00000000
00100000
00001001
00000000
00100000
00001001
00000000
00100000
00001001
00000000
,  // measure 29
10000001
00100000
00001000
00000000
01000001
00010000
00000100
00000000
00100001
00001000
00000010
00000000
01000001
00010000
00000100
00000000
,  // measure 30
10000001
00100000
00001000
00000000
01000001
00010000
00000100
00000000
00100001
00001000
00000010
00000000
01000001
00010000
00000100
00000000
,  // measure 31
10000001
00100000
00001000
00000000
01000001
00010000
00000100
00000000
00100001
00001000
00000010
00000000
01000001
00010000
00000100
00000000
,  // measure 32
10000001
00100000
00001000
00100000
01000001
00010000
00000100
01000000
00100001
00001000
00000010
00001000
01000001
00010000
00000100
01000000
,  // measure 33
10000001
00000000
00000000
00000000
,  // measure 34
10000000
00010000
00000010
10000000
00010000
00000010
10000000
00010000
00000010
10000000
00010000
00000010
10000001
00100000
00001000
00100000
,  // measure 35
10000001
00100000
00001000
00000000
10000000
00001000
00000000
00000000
10001000
00000000
00000000
00001000
10000000
00000000
00001000
00000000
,  // measure 36
10100000
00001000
00000010
00000000
10000000
00000010
00000000
00000000
10000010
00000000
00000000
00000010
10000000
00100000
00001000
00000010
,  // measure 37
11000000
00010000
00000100
00000000
10000000
00000100
00000000
00000000
10000100
00000000
00000000
00000100
10000000
00000000
00000100
01000000
,  // measure 38
10001000
00000000
00000010
00000000
00000000
00000000
00000000
00000000
10000010
00000000
00000000
00000000
00000000
00000000
00000010
00000000
10000000
00000000
00000000
00000000
00000100
10000000
00000000
00000000
10000000
00000000
00000100
00000000
00100000
00000000
00001000
00000000
,  // measure 39
10000001
01000000
00010000
00000000
10000000
00010000
00000000
00000000
10010000
00000000
00000000
00010000
10000000
00000000
00010000
01000000
,  // measure 40
10010000
00000100
00000000
00000000
10000100
00000000
00000000
00000100
10000000
00000000
00000100
00000000
10000000
00000100
00010000
00000100
,  // measure 41
10000000
00100000
00001000
00000000
10000000
00001000
00000000
00000000
10001000
00000000
00000000
00001000
10000000
00000000
00001000
01000000
,  // measure 42
10010000
00000000
00000000
00000000
00000000
00000000
00000000
00000000
00000000
00000000
00000000
00000000
00000100
00000000
00000000
00000000
00000000
00000000
00000000
00000000
00000000
00000000
00000000
00000000
00000000
00000000
00000000
00000000
00000000
00000000
00000000
00000000
00000000
00000000
00000000
00000000
00000000
00000000
00000000
00000000
00000000
00000000
00000000
00000000
00000000
00000000
00000000
00000000
10000100
00000000
00000000
00000000
00000000
00000000
00000000
00000000
00000000
00000000
00000000
00000000
00000000
00000000
00000000
00000000
00000000
00000000
00000000
00000000
00000000
00000000
00000000
00000000
00000000
00000000
00000000
00000000
00000000
00000000
00000000
00000000
00000000
00000000
00000000
00000000
00000100
00000000
00000000
00000000
00000000
00000000
00000000
00000000
00000000
00000000
00000000
00000000
10000000
00000000
00000000
00000000
00000000
00000000
00000000
00000000
00000000
00000000
00000000
00000000
00000010
00000000
00000000
00000000
00000000
00000000
00000000
00000000
00000000
00000000
00000000
00000000
00000000
00000000
00000000
00000000
00000000
00000000
00000000
00000000
00000000
00000000
00000000
00000000
00000000
00000000
00000000
00000000
00000000
00000000
00000000
00000000
00000000
00000000
00000000
00000000
01000010
00000000
00000000
00000000
00000000
00000000
00000000
00000000
00000000
00000000
00000000
00000000
00000000
00000000
00000000
00000000
10000000
00000000
00000000
00000000
00000000
00000000
00000000
00000000
00000100
00000000
00000000
00000000
00000000
00000000
01000000
00000000
00000000
00000000
00000000
00000000
00010000
00000000
00000000
00000000
00000000
00000000
00000000
00000000
00000000
00000000
00000000
00000000
,  // measure 43
10000001
00100000
00001000
00000000
10100000
00001000
00000000
00100000
10001000
00000000
00100000
00001000
10000000
00100000
00001000
00000000
,  // measure 44
10000000
00100000
00000010
00000000
10100000
00000010
00000000
00100000
10000010
00000000
00100000
00000010
10000000
00100000
00001000
00000010
,  // measure 45
10000000
00010000
00000100
00000000
10010000
00000100
00000000
00010000
10000100
00000000
00010000
00000100
10000000
00010000
00000100
00000000
,  // measure 46
10010000
00000000
00000010
00000000
00000000
00000000
00010000
00000000
10000010
00000000
00000000
00000000
00010000
00000000
00000010
00000000
10000000
00000000
00010000
00000000
00000100
10000000
00000000
00000000
10010000
00000000
00000100
00000000
00001000
00000000
00000010
00000000
,  // measure 47
10000000
00100000
00001000
00000000
10100000
00001000
00000000
00100000
10001000
00000000
00100000
00001000
10000000
00100000
00001000
00000000
,  // measure 48
10100000
00000010
00000000
00100000
10000010
00000000
00100000
00000010
10000000
00100000
00000010
00000000
10100000
00000010
00001000
00000010
,  // measure 49
10000000
00010000
00000100
00000000
10010000
00000100
00000000
00010000
10000100
00000000
00010000
00000100
10000000
00010000
00000100
00000000
,  // measure 50
00000010
00000000
00000000
00000000
00000000
00000000
00000000
00000000
00000000
00000000
00000000
00000000
00010000
00000000
00000000
00000000
10000001
00000000
00000000
00000000
00000000
00000000
00000000
00000000
00000000
00000000
00000000
00000000
00000000
00000000
00000000
00000000
00000000
00000000
00000000
00000000
00000000
00000000
00000000
00000000
00000000
00000000
00000000
00000000
00000000
00000000
00000000
00000000
10010001
00000000
00000000
00000000
00000000
00000000
00000000
00000000
00000000
00000000
00000000
00000000
00000000
00000000
00000000
00000000
00000000
00000000
00000000
00000000
00000000
00000000
00000000
00000000
00000000
00000000
00000000
00000000
00000000
00000000
10000001
00000000
00000000
00000000
00000000
00000000
00001000
00000000
00000000
00000000
00000000
00000000
00000000
00000000
00000000
00000000
00000000
00000000
10000001
00000000
00000000
00000000
00000000
00000000
00000000
00000000
00000000
00000000
00000000
00000000
00000100
00000000
00000000
00000000
00000000
00000000
00000000
00000000
00000000
00000000
00000000
00000000
00000000
00000000
00000000
00000000
00000000
00000000
00000000
00000000
00000000
00000000
00000000
00000000
00000000
00000000
00000000
00000000
00000000
00000000
00000000
00000000
00000000
00000000
00000000
00000000
00000100
00000000
00000000
00000000
00000000
00000000
00000000
00000000
00000000
00000000
00000000
00000000
00000000
00000000
00000000
00000000
00000000
00000000
00000000
00000000
00000000
00000000
00000000
00000000
00000000
00000000
00000000
00000000
00000000
00000000
00000000
00000000
00000000
00000000
00000000
00000000
00000010
00000000
00000000
00000000
00000000
00000000
00000000
00000000
00000000
00000000
00000000
00000000
,  // measure 51
00001001
00100000
10000000
01000000
00001000
00100000
10000000
01000000
00001000
00100000
10000000
01000000
00001000
00100000
10000000
01000000
,  // measure 52
00000100
00010000
10000000
01000000
00000100
00010000
10000000
01000000
00000100
00010000
10000000
01000000
00000100
00010000
10000000
01000000
,  // measure 53
00000010
10001000
00000000
00100000
00000010
10001000
00000000
00100000
00000010
10001000
00000000
00100000
00000010
10001000
00000000
00100000
,  // measure 54
00000010
00001000
01000000
00010000
00000010
00001000
01000000
00010000
00000010
00001000
01000000
00010000
00000010
00001000
01000000
00010000
,  // measure 55
00000101
00010000
10000000
01000000
00000100
00010000
10000000
01000000
00000100
00010000
10000000
01000000
00000100
00010000
10000000
01000000
,  // measure 56
00000100
00001000
10000000
00100000
00000100
00001000
10000000
00100000
00000100
00001000
10000000
00100000
00000100
00001000
10000000
00100000
,  // measure 57
00000010
00001000
01000000
00010000
00000010
00001000
01000000
00010000
00000010
00001000
01000000
00010000
00000010
00001000
01000000
00010000
,  // measure 58
00000100
00010000
10000000
00100000
00000100
00010000
10000000
00100000
00000100
00010000
10000000
00100000
00000100
00010000
10000000
00100000
,  // measure 59
10010001
00000100
00001000
01000000
00010000
00000010
01000000
00100000
00000100
10000000
00010000
00000010
01000000
00100000
00000100
00010000
,  // measure 60
10000000
00000010
00010000
10000000
00100010
00000100
00001000
01000000
00000010
00100000
10000000
00000100
00010000
10000000
00001000
00000010
,  // measure 61
01000000
00000100
00010000
10000000
00001000
00000010
10000000
00100000
00000010
00010000
01000000
00000100
00001000
00100000
00000100
01000000
,  // measure 62
00100000
00000010
00010000
00100000
10000000
00000100
01000000
00010000
00000010
00100000
10000000
00001000
00100000
00000100
01000000
00000010
,  // measure 63
00010001
00000100
10000000
00001000
01000000
00000100
00001000
00100000
00000010
01000000
00000100
00100000
10000000
00010000
00000010
01000000
,  // measure 64
00001000
00000100
00010000
00000010
10000000
00100000
00010000
00000010
00001000
01000000
00000100
01000000
00010000
00001000
10000000
00000010
,  // measure 65
00100001
00000100
00010000
10000000
00000010
00100000
00000100
01000000
00010000
01000000
00000010
00001000
10000000
00001000
01000000
00000010
,  // measure 66
10010101
00000000
00000000
00000001
,  // measure 67
10000011
00000000
00101000
10010000
00000000
00001010
10000000
00010000
00101010
10010000
00000000
00100000
,  // measure 68
10000010
00000000
00101000
10010000
00000000
00001010
10000000
00010000
00101010
10010000
00000000
00100000
,  // measure 69
10000010
00000000
00101000
10010000
00000000
00001010
10000000
00010000
00101010
10010000
00000000
00100000
,  // measure 70
10000010
00000000
00101000
10010000
00000000
00000010
10000000
00010000
10101010
00010001
00000000
00000000
,  // measure 71
10000011
00000000
00101000
10010000
00000000
00001010
10000000
00000000
00101010
10010000
00000000
00100000
,  // measure 72
10000010
00000000
00101000
10010000
00000000
00001010
10000000
00010000
00101010
10010000
00000000
00100000
,  // measure 73
10000010
00000000
00101000
10010000
00000000
00001010
10000000
00010000
00101010
10010000
00000000
00100000
,  // measure 74
00000011
00010000
00000011
00000010
00010001
00000010
00000011
00010000
00000011
00000010
00000011
00000010
,  // measure 75
10000011
00000000
00101000
10010000
00000000
00001010
10000000
00010000
00101010
10010000
00000000
00100000
,  // measure 76
10000010
00000000
00101000
10010000
00000000
00001010
10000000
00010000
00101010
10010000
00000000
00100000
,  // measure 77
10000010
00000000
00101000
10010000
00000000
00001010
10000000
00010000
00101010
10010000
00000000
00100000
,  // measure 78
10000011
00000000
00001000
10010001
00000000
00000010
00000011
00010000
00000011
00010000
00000011
00010000
,  // measure 79
10000011
00000000
00101000
10010000
00000000
00001010
10000000
00000000
00101010
10010000
00000000
00100000
,  // measure 80
10000010
00000000
00101000
10010000
00000000
00001010
10000000
00010000
00101010
10010000
00000000
00100000
,  // measure 81
10000010
00000000
00100000
10010000
00000000
00000010
10000010
00010000
00100010
10000010
00010000
00100010
,  // measure 82
10001011
00000000
00000000
00000000
;

//---------------iidx-single7 - blue mirage[another]----------------
#NOTES:
     iidx-single7:
     blue mirage[another]:
     Challenge:
     12:
     1.000,1.000,1.000,0.000,1.000,984.000,426.000,0.000,0.000,169.000:  // measure 1
00000000
00000000
00000000
00000000
,  // measure 2
00000000
00000000
00000000
00000000
,  // measure 3
00001001
00000000
00000000
00000000
,  // measure 4
00000000
00000000
00000000
00000000
,  // measure 5
00001001
00010000
10000000
01000000
00001000
00010000
10000000
01000000
00001000
00010000
10000000
01000000
00001000
00010000
10000000
01000000
,  // measure 6
00000100
00001000
01000000
00100000
00000100
00001000
01000000
00100000
00000100
00001000
01000000
00100000
00000100
00001000
01000000
00100000
,  // measure 7
00000010
00000100
00100000
00010000
00000010
00000100
00100000
00010000
00000010
00000100
00100000
00010000
00000010
00000100
00100000
00010000
,  // measure 8
00000010
00001000
10000000
00100000
00000010
00001000
10000000
00100000
00000010
00001000
10000000
00100000
00000010
00001000
10000000
00100000
,  // measure 9
00001000
00100000
10000000
01000000
00001000
00100000
10000000
01000000
00001000
00100000
10000000
01000000
00001000
00100000
10000000
01000000
,  // measure 10
00000100
00010000
10000000
01000000
00000100
00010000
10000000
01000000
00000100
00010000
10000000
01000000
00000100
00010000
10000000
01000000
,  // measure 11
00000010
00000100
00100000
00001000
00000010
00000100
00100000
00001000
00000010
00000100
00100000
00001000
00000010
00000100
00100000
00001000
,  // measure 12
00000101
00001000
10000000
01000000
00000100
00001000
10000000
01000000
00000100
00001000
10000000
01000000
00000100
00001000
10000000
01000000
,  // measure 13
10000011
00010000
00000100
00000000
01010000
00000100
00000000
00010000
00000100
00000000
10010000
00000100
01000000
00010000
00000100
00000000
,  // measure 14
10100000
00001000
00000010
00000000
01001000
00000010
00000000
00001000
00000010
00000000
10001000
00000010
01000000
00001000
00000100
10000010
,  // measure 15
10100000
00010000
00000100
00000000
01010000
00000100
00000000
00010000
00000100
00000000
10010000
00000100
01000000
00010000
00000100
01000000
,  // measure 16
10001000
00000010
00000000
00001000
01000010
00000000
00001000
00000010
00000000
00001000
10000100
00000000
01001000
00000100
00010000
01000100
,  // measure 17
10100000
00001000
00000100
00000000
01001000
00000100
00000000
00001000
00000100
00000000
10001000
00000100
01000000
00001000
00000100
01000000
,  // measure 18
10010000
00000010
00000000
00010000
01000010
00000000
00010000
00000010
00000000
00010000
10000010
00000000
01010000
00000010
00000100
01000010
,  // measure 19
10100000
00010000
00000100
00000000
01010000
00000100
00000000
00010000
00000100
00000000
10010000
00000100
01000000
00010000
00000100
01100000
,  // measure 20
10001001
00000010
00000000
00001000
01000011
00000000
00001000
00000010
00010001
00000100
00000000
00010000
00000101
00010000
00000101
00000010
,  // measure 21
00000011
10100001
00001011
00000000
10100001
00001011
00000000
10100001
00001011
00000000
10100001
00001011
00000000
10100001
00001011
00000000
,  // measure 22
00000000
00000000
00000000
00000000
,  // measure 23
00000011
10100001
00001011
00000000
10100001
00001011
00000000
10100001
00001011
00000000
10100001
00001011
00000000
10100001
00001011
00000000
,  // measure 24
00000000
00000000
00000000
00000000
,  // measure 25
00000011
00000000
10100001
00000000
00001011
00000000
00000000
00000000
10100001
00000000
00001011
00000000
00000000
00000000
10100001
00000000
00001011
00000000
00000000
00000000
10100001
00000000
00001011
00000000
00000000
00000000
10100001
00000000
00001011
00000000
00000000
00010000
,  // measure 26
00000011
10100001
00001011
00000000
10100001
00001011
00000000
10100001
00001011
00000000
10100001
00001011
00000000
10100001
00001011
00010000
,  // measure 27
00000011
10100001
00001011
00000000
10100001
00001011
00000000
10100001
00001011
00000000
10100001
00001011
00000000
10100001
00001011
00010000
,  // measure 28
00000011
10100001
00001011
00000000
10100001
00001011
00000000
10100001
00001011
00000000
10100001
00001011
00000000
10100001
00001011
00010000
,  // measure 29
10000001
00100001
00001001
00100000
01000001
00010001
00000101
00010000
00100001
00001001
00000011
00001000
01000001
00010001
00000101
00010000
,  // measure 30
10000001
00100001
00001001
00100000
01000001
00010001
00000101
00010000
00100001
00001001
00000011
00001000
01000001
00010001
00000101
00010000
,  // measure 31
10000001
00100001
00001001
00100000
01000001
00010001
00000101
00010000
00100001
00001001
00000011
00001000
01000001
00010001
00000101
00010000
,  // measure 32
10000001
00100001
00001001
00100000
01000001
00010001
00000101
00010000
00100001
00001001
00000011
00001000
01000001
00010001
00000101
00010000
,  // measure 33
10000001
00000000
00000000
00000000
,  // measure 34
00100000
00001000
00000010
00100000
00001000
00000010
00100000
00001000
00000010
00100000
00001000
00000010
00100001
00001000
00000010
00001000
,  // measure 35
10100001
00001000
00000010
00000000
10001000
00000010
00000000
00001000
10000010
00000000
00001000
00000010
10000000
00001000
00000010
00000000
,  // measure 36
11000000
00000000
00010000
00000000
00000010
00000000
00000000
00000000
10010000
00000000
00000010
00000000
00000000
00000000
00010000
00000000
10000010
00000000
00000000
00000000
00010000
00000000
00000010
00000000
10000000
00000000
00010000
00000000
00000100
10000000
00000010
00000000
,  // measure 37
11000000
00010000
00000100
00000000
10010000
00000100
00000000
00010000
10000100
00000000
00010000
00000100
10000000
00010000
00000100
00000000
,  // measure 38
10010000
00000000
00000010
00000000
00000000
00000000
00010000
00000000
10000010
00000000
00000000
00000000
00010000
00000000
00000010
00000000
10000000
00000000
00010000
00000000
00001000
10000000
00000000
00000000
10010000
00000000
00001000
00000000
01000000
10000000
00010000
00000000
,  // measure 39
10000011
01000000
00010000
00000000
01000010
00010000
00000000
01000000
00010010
00000000
01000000
00010000
00000010
01000000
00010000
00000000
,  // measure 40
01000010
00000000
00001000
00000000
00000000
00000000
01000000
00000000
00001010
00000000
00000000
00000000
01000000
00000000
00001000
00000000
00000010
00000000
01000000
00000000
00001000
00000000
00000000
00000000
01000010
00000000
00001000
00000000
00100000
00000010
00001000
00000000
,  // measure 41
10000010
01000000
00010000
00000000
01000010
00010000
00000000
01000000
00010010
00000000
01000000
00010000
00000010
01000000
00010000
01000000
,  // measure 42
00100010
00000000
00000000
00000000
00000000
00000000
00000000
00000000
00000000
00000000
00000000
00000000
00010000
00000000
00000000
00000000
00000000
00000000
00000000
00000000
00000000
00000000
00000000
00000000
00000000
00000000
00000000
00000000
00000000
00000000
00000000
00000000
00000000
00000000
00000000
00000000
00100000
00000000
00000000
00000000
00000000
00000000
00000000
00000000
00000000
00000000
00000000
00000000
00010010
00000000
00000000
00000000
00000000
00000000
00000000
00000000
00000000
00000000
00000000
00000000
00000000
00000000
00000000
00000000
00000000
00000000
00000000
00000000
00000000
00000000
00000000
00000000
00100000
00000000
00000000
00000000
00000000
00000000
00000000
00000000
00000000
00000000
00000000
00000000
00010001
00000000
00000000
00000000
00000000
00000000
00000000
00000000
00000000
00000000
00000000
00000000
00100010
00000000
00000000
00000000
00000000
00000000
00000000
00000000
00000000
00000000
00000000
00000000
00001000
00000000
00000000
00000000
00000000
00000000
00000000
00000000
00000000
00000000
00000000
00000000
00000000
00000000
00000000
00000000
00000000
00000000
00000100
00000000
00000000
00000000
00000000
00000000
00100000
00000000
00000000
00000000
00000000
00000000
00000000
00000000
00000000
00000000
00000000
00000000
00001010
00000000
00000000
00000000
00000000
00000000
00000000
00000000
00000000
00000000
00000000
00000000
00100000
00000000
00000000
00000000
00000100
00000000
00000000
00000000
00000000
00000000
00000000
00000000
00010000
00000000
00000000
00000000
00000000
00000000
00000010
00000000
00000000
00000000
00000000
00000000
00100000
00000000
00000000
00000000
00000000
00000000
00000000
00000000
00000000
00000000
00000000
00000000
,  // measure 43
10000001
00010000
00000100
00000000
00010001
00000100
00000000
00010000
00000101
00000000
00010000
00000100
00000001
00010000
00000100
01000000
,  // measure 44
00100011
00000000
00010000
00000000
00000000
00000000
00100000
00000000
00010011
00000000
00000000
00000000
00100000
00000000
00010000
00000000
00000011
00000000
00100000
00000000
00010000
00000000
00000000
00000000
00100011
00000000
00010000
00000000
00000100
00000001
00000010
00000000
,  // measure 45
01000001
00001000
00000100
01000000
00001001
00000100
01000000
00001000
00000101
01000000
00001000
00000100
01000001
00001000
00000100
01000000
,  // measure 46
00001001
00000000
00000010
00000000
01000000
00000000
00001000
00000000
00000011
00000000
01000000
00000000
00001000
00000000
00000010
00000000
01000001
00000000
00001000
00000000
00000100
00000001
01000000
00000000
00001001
00000000
00000100
00000000
00010000
00000001
00001000
00000000
,  // measure 47
00100001
00010000
00001000
00100000
00010001
00001000
00100000
00010000
00001001
00100000
00010000
00001000
00100001
00010000
00001000
00100000
,  // measure 48
00001001
00000000
00000100
00000000
00100000
00000000
00010000
00000000
00000101
00000000
00100000
00000000
00010000
00000000
00000100
00000000
00100001
00000000
00010000
00000000
00000100
00000000
00100000
00000000
00010001
00000000
00000100
00000000
00001000
00000001
00000100
00000000
,  // measure 49
00100001
00010000
00001000
00100000
00010001
00001000
00100000
00010000
00001001
00100000
00010000
00001000
00100001
00010000
00001000
00100000
,  // measure 50
01000010
00000000
00000000
00000000
00000000
00000000
00000000
00000000
00000000
00000000
00000000
00000000
00010000
00000000
00000000
00000000
10000001
00000000
00000000
00000000
00000000
00000000
00000000
00000000
00000000
00000000
00000000
00000000
00000000
00000000
00000000
00000000
00000000
00000000
00000000
00000000
00100000
00000000
00000000
00000000
00000000
00000000
00000000
00000000
00000000
00000000
00000000
00000000
10010000
00000000
00000000
00000000
00000000
00000000
00000000
00000000
00000000
00000000
00000000
00000000
00100000
00000000
00000000
00000000
00000000
00000000
00000000
00000000
00000000
00000000
00000000
00000000
00000000
00000000
00000000
00000000
00000000
00000000
10000001
00000000
00000000
00000000
00000000
00000000
00001000
00000000
00000000
00000000
00000000
00000000
00000000
00000000
00000000
00000000
00000000
00000000
10100001
00000000
00000000
00000000
00000000
00000000
00000000
00000000
00000000
00000000
00000000
00000000
00000100
00000000
00000000
00000000
00000000
00000000
00000000
00000000
00000000
00000000
00000000
00000000
00000000
00000000
00000000
00000000
00000000
00000000
00000000
00000000
00000000
00000000
00000000
00000000
00100000
00000000
00000000
00000000
00000000
00000000
00000000
00000000
00000000
00000000
00000000
00000000
00000100
00000000
00000000
00000000
00000000
00000000
00000000
00000000
00000000
00000000
00000000
00000000
00100000
00000000
00000000
00000000
00000000
00000000
00000000
00000000
00000000
00000000
00000000
00000000
00000000
00000000
00000000
00000000
00000000
00000000
00000000
00000000
00000000
00000000
00000000
00000000
00000010
00000000
00000000
00000000
00000000
00000000
00000000
00000000
00000000
00000000
00000000
00000000
,  // measure 51
10000011
00010100
00101000
00000100
11000010
00100100
00001000
01000100
10100010
00000100
01001000
00100100
10000010
01000100
00101000
00000100
,  // measure 52
11000010
00010100
00101000
00000100
11000010
00100100
00001000
01000100
10100010
00000100
01001000
00010100
10000010
00000100
01001000
00100100
,  // measure 53
00000100
00101000
01010000
00001000
10000100
01001000
00010000
10001000
01000100
00001000
10010000
01001000
00000100
10001000
01010000
00001000
,  // measure 54
00000110
00000000
01001000
00000000
10010000
00000000
00001000
00000000
00000110
00000000
10001000
00000000
00010000
00000000
00001000
00000000
01000110
00000000
00001000
00000000
00010000
00000010
01001000
00000000
00000110
00000000
01001000
00000000
10010000
00000000
01001000
00000000
,  // measure 55
00101001
01000010
10000100
01000000
00101000
01000100
10000000
01000000
00101100
01000000
10000000
01000100
00101000
01000000
10000100
01000000
,  // measure 56
00101000
01000010
10000100
01000000
00101100
01000000
10000000
01000100
00101000
01000000
10000100
01000000
00101000
01000100
10000000
01000010
,  // measure 57
10010000
00100010
01000100
00100000
10010000
00100100
01000000
00100000
10010100
00100000
01000000
00100100
10010000
00100000
01000100
00100000
,  // measure 58
10010000
00000000
00000000
00000000
00000000
00000000
00000000
00000000
00000000
00000000
00000000
00000000
00100010
00000000
00000000
00000000
00000000
00000000
00000000
00000000
00000000
00000000
00000000
00000000
01000100
00000000
00000000
00000000
00000000
00000000
00000000
00000000
00000000
00000000
00000000
00000000
00100000
00000000
00000000
00000000
00000000
00000000
00000000
00000000
00000000
00000000
00000000
00000000
10010100
00000000
00000000
00000000
00000000
00000000
00000000
00000000
00000000
00000000
00000000
00000000
00100000
00000000
00000000
00000000
00000000
00000000
00000000
00000000
00000000
00000000
00000000
00000000
01000000
00000000
00000000
00000000
00000000
00000000
00000001
00000000
00000000
00000000
00000000
00000000
00000100
00000000
00000000
00000000
00000000
00000000
00000000
00000000
00000000
00000000
00000000
00000000
10001000
00000000
00000000
00000000
00000000
00000000
00000000
00000000
00000000
00000000
00000000
00000000
00000010
00000000
00000000
00000000
00000000
00000000
00000000
00000000
00000000
00000000
00000000
00000000
00010000
00000000
00000000
00000000
00000000
00000000
00000001
00000000
00000000
00000000
00000000
00000000
00001000
00000000
00000000
00000000
00000000
00000000
00000000
00000000
00000000
00000000
00000000
00000000
10000010
00000000
00000000
00000000
00000000
00000000
00000000
00000000
00000000
00000000
00000000
00000000
00001000
00000000
00000000
00000000
10000000
00000000
00000000
00000000
00000000
00000000
00000000
00000000
00000100
00000000
00000000
00000000
00000000
00000000
00000001
00000000
00000000
00000000
00000000
00000000
00000010
00000000
00000000
00000000
00000000
00000000
00000000
00000000
00000000
00000000
00000000
00000000
,  // measure 59
10100011
00001000
00000100
01000000
10100010
00001000
00100000
00010000
10000110
00010000
00001000
00000010
10101000
00000100
00000010
01000000
,  // measure 60
10100000
00000000
00000010
00000000
00000100
00000000
01000000
00000000
10100010
00000000
00001000
00000000
00100000
00000000
00010000
00000000
10000110
00000000
00010000
00000000
00001000
00000000
00000010
00000000
11010000
00000000
00001000
00000000
00000100
10000000
00000010
00000000
,  // measure 61
10100000
00000010
00001000
01000000
10100000
00001000
00100000
00010000
10000110
00010000
00001000
00000010
10101000
00000100
00000010
00010000
,  // measure 62
10100000
00000000
00000010
00000000
00000100
00000000
01000000
00000000
10100010
00000000
00001000
00000000
00100000
00000000
00010000
00000000
10000110
00000000
00010000
00000000
00001000
10000000
00000010
00000000
10101000
00000000
00000010
00000000
10000100
00000000
00000010
00000000
,  // measure 63
10100001
00000100
00001000
01000000
10100010
00001000
00100000
00010000
10000110
00010000
00001000
00000010
10101000
00000100
00000010
01000000
,  // measure 64
10100000
00000000
00000010
00000000
00010000
00000000
00100000
00000000
10010010
00000000
01000000
00000000
00100000
00000000
00001000
00000000
10100010
00000000
00010000
00000000
00000100
00000000
00010000
00000000
10101000
00000000
00000100
00000000
00001000
10000000
00000010
00000000
,  // measure 65
10100001
00000010
00000100
00100000
10001000
00000100
00100000
00001000
10000100
00100000
00001000
00000100
10100000
00001000
00000100
00010000
,  // measure 66
10101011
00000000
00000000
00000001
,  // measure 67
10010011
00000000
00101000
10000011
00000000
00001001
10000010
00000000
00101001
10000011
00000000
00100000
,  // measure 68
10000011
00000000
00101000
10000011
00000000
00001001
10000010
00000000
00101001
10000011
00000000
10100000
,  // measure 69
10000011
00000000
00101000
10000011
00000000
00001001
10000010
00000000
00101001
10000011
00000000
00100000
,  // measure 70
10000011
00000000
00101000
10000011
00000000
00010001
10000010
00000000
10101001
00010011
00000000
00000000
,  // measure 71
10010011
00000000
00101000
10000011
00000000
00001001
10000010
00000000
00101001
10000011
00000000
01000000
,  // measure 72
10000011
00000000
00101000
10000011
00000000
00001001
10000010
00000000
00101001
10000011
00000000
10100000
,  // measure 73
10000011
00000000
00101000
10000011
00000000
00001001
10000010
00000000
00101001
10000011
00000000
00100000
,  // measure 74
10010011
00000000
10011011
00000001
10010010
00000001
10010011
00000000
10011011
00000001
10010011
00000001
,  // measure 75
10010011
00000000
00111000
10000011
00000000
00100001
10000010
00000000
00101001
10000011
00000000
00001000
,  // measure 76
10000011
00000000
00101000
10000011
00000000
00100001
10000010
00000000
00101001
10000011
00000000
00011000
,  // measure 77
10000011
00000000
00101000
10000011
00000000
00100001
10000010
00000000
00101001
10000011
00000000
00001000
,  // measure 78
10000011
00000000
00100000
10000011
00000000
00000001
10010011
00000000
10010011
00000000
10010011
00000000
,  // measure 79
10010011
00000000
00111000
10000011
00000000
00100001
10000010
00000000
00101001
10000011
00000000
00001000
,  // measure 80
10000011
00000000
00101000
10000011
00000000
00100001
10000010
00000000
00101001
10000011
00000000
00011000
,  // measure 81
10000011
00000000
00101000
10000011
00000000
00100001
10000010
00000000
00101001
10000011
00000000
00101001
,  // measure 82
10000101
00000000
00000000
00000000
;
