#TITLE:Juggernaut;
#SUBTITLE:;
#ARTIST:Quattro;
#TITLETRANSLIT:;
#SUBTITLETRANSLIT:;
#ARTISTTRANSLIT:;
#CREDIT:;
#BANNER:juggernaut.bn.JPG;
#BACKGROUND:Juggernaut.bg.jpg;
#LYRICSPATH:;
#CDTITLE:!IzzyTitle.JPG;
#MUSIC:juggernaut.mp3;
#OFFSET:-1.000;
#SAMPLESTART:16.600;
#SAMPLELENGTH:13.580;
#SELECTABLE:YES;
#BPMS:0.000=240.000,584.500=480.000,592.500=240.000,596.500=480.000,604.500=240.000,608.500=480.000,616.500=119.999;
#STOPS:160.500=0.250
,161.000=0.250
,350.500=0.250
,351.000=0.250
;
#BGCHANGES:;
// cache tags:
#FIRSTBEAT:0.000;
#LASTBEAT:566.500;
#SONGFILENAME:Songs/Izzy/Juggernaut/Juggernaut.sm;
#HASMUSIC:1;
#HASBANNER:1;
#MUSICLENGTH:146.418;
// end cache tags

//---------------dance-single - ----------------
#NOTES:
     dance-single:
     :
     Hard:
     14:
     1.000,1.000,0.212,0.260,1.000,1422.000,31.000,38.000,0.000,0.000:
1000
0100
0010
0100
1000
0100
0010
0001
0010
0100
0010
0001
0010
0100
1000
0100
,
0010
0001
0010
0000
1001
0000
0000
0000
1001
0000
0000
0000
0001
0000
0000
0000
,
2000
0000
0000
0000
,
3002
0003
2002
3003
2002
3003
0002
0003
,
2002
0000
0000
0000
0000
3003
0000
0000
,
2002
3003
2002
3003
2002
3003
2002
3003
,
2002
0000
3003
0000
,
2000
0000
3200
0000
0320
0000
0032
0003
,
2002
0000
0000
0000
0000
0000
0000
0000
3003
1000
0100
0010
0001
0010
0100
0010
,
0001
0010
0100
1000
0100
0010
0001
0010
0100
1000
0100
0010
0100
1000
0100
0010
,
0001
0010
0100
1000
0100
0010
0100
1000
0100
0010
0001
0010
0100
1000
0100
0010
,
0001
0010
0100
1000
0100
0010
0001
0010
0100
0010
0001
0010
0100
1000
0100
0010
,
0001
0010
0100
1000
0100
0010
0001
0010
0100
1000
0100
0020
0000
0000
0000
0030
,
2002
0000
0000
3003
0000
0100
1000
0100
0010
0001
0010
0100
1000
0100
0010
0100
,
1000
0100
0010
0001
0010
0100
1000
0100
0010
0100
1000
0001
0010
0100
0010
0001
,
0010
0100
1000
0100
0010
0001
0010
0100
1000
0100
0010
0001
0010
0100
1000
0100
,
0010
0100
1000
0001
0010
0100
0010
0001
0010
0100
0010
0000
0000
0000
0010
0001
,
0010
0000
0000
0000
0000
0000
1000
0010
1000
0010
1000
0000
0000
0000
0010
0100
,
0010
0000
0000
0000
0000
0000
1000
0001
1000
0001
1000
0000
0000
0000
0010
1000
,
0010
0000
0000
0000
0000
0000
1000
0010
1000
0010
1000
0000
0000
0000
0010
0001
,
0010
0000
0000
0000
0000
0000
0100
0010
0100
0010
0100
0000
0000
0000
1000
0001
,
1000
0000
0000
0000
0000
0000
1000
0010
0100
0010
1000
0000
0000
0000
0010
1000
,
0010
0000
0000
0000
0000
0000
1000
0100
0010
0100
1000
0000
0000
0000
0010
0100
,
0010
0000
0000
0001
0100
0001
0100
0001
,
1000
0100
0010
0000
0010
0001
0010
0100
1000
0100
0010
0001
0100
0000
0010
0000
,
0110
0000
1000
0100
0010
0001
0010
0100
1000
0000
0000
0000
1000
0100
0010
0001
,
1000
0100
0010
0001
1000
0100
0010
0001
0010
0000
0000
0000
0100
0000
1000
0000
,
0010
0000
0010
0100
1000
0100
0010
0001
0000
0000
0000
0000
1000
0100
0010
0001
,
0010
0100
1000
0100
0010
0001
0010
0100
1000
0100
0010
0001
0010
0100
1000
0000
,
1001
0000
0100
0000
0100
0010
0001
0010
0100
0010
0000
0000
1000
0100
0010
0001
,
0010
0100
1000
0100
0010
0100
1000
0200
0000
0300
0000
0000
0000
0000
0000
0000
,
1001
0000
1000
0000
1000
0100
0010
0001
0010
0100
0010
0000
0000
0000
1000
0100
,
0010
0001
0010
0100
1000
0100
0010
0100
1000
0100
0010
0001
0010
0100
1000
0000
,
1001
0000
1000
0000
1000
0100
0010
0001
0010
0100
0010
0000
0000
0000
1000
0100
,
0010
0001
0010
0100
1000
0100
0010
0100
1000
0001
0010
0100
0010
0001
0000
0000
,
1001
0000
1000
0100
0010
0001
0010
0100
0010
0000
0000
0000
0010
0100
1000
0100
,
0010
0001
0010
0100
1000
0100
0010
0001
0010
0100
1000
0100
0010
0000
0000
0000
,
1001
0000
1000
0100
0010
0001
0010
0100
0010
0000
0000
0000
1000
0100
0010
0001
,
1000
0100
0010
0001
1000
0100
0010
0001
0010
0000
0000
0000
0000
0000
0000
0000
,
1001
0000
1000
0100
0010
0001
0010
0100
0010
0000
0000
0000
1000
0100
0010
0001
,
0000
0000
1001
0000
1001
0000
1001
0000
0000
1000
0100
1000
0000
0000
0000
0001
,
0010
0001
0000
0000
0000
0001
0010
0001
0000
0000
0000
0001
0010
0100
0000
0000
,
0000
0001
1000
0001
1000
0001
0000
0000
0000
1000
0100
0010
0000
0000
0000
0001
,
0010
0100
0000
0000
0000
0001
0010
0001
0000
0000
0000
1000
0100
0010
0000
0000
,
0000
0001
1000
0001
1000
0001
0000
0000
0000
0001
0010
0100
0000
0000
0000
1000
,
0100
0010
0000
0000
0000
0100
0010
0100
0000
0000
0000
1000
0001
1000
0000
0000
,
0000
0100
0010
0100
0010
0100
0000
0000
0000
0010
1000
0010
0000
0000
0000
0100
,
0001
0100
0000
0000
0000
0010
1000
0010
0000
0000
0000
0100
0001
0100
0000
0000
,
0000
0001
1000
0001
1000
0001
0000
0000
0000
0100
1000
0100
0000
0000
0000
0010
,
0001
0010
0000
0000
0000
0100
1000
0100
0000
0000
0000
0100
1000
0100
0000
0000
,
0000
0100
1000
0100
1000
0100
0000
0000
0000
0100
1000
0100
0000
0000
0000
0010
,
0001
0010
0000
0000
0000
0100
0010
0100
0000
0000
0000
0100
1000
0100
0000
0000
,
0000
0010
0100
0010
0100
0010
0000
0000
0000
0100
1000
0100
0000
0000
0000
0010
,
0001
0010
0000
0000
0000
0100
0010
0100
0000
0000
0000
0100
1000
0100
0000
0000
,
0000
0001
1000
0001
1000
0001
0000
0000
1000
0000
0100
0000
0010
0000
0001
0000
,
0010
0000
0100
0000
1000
0100
0010
0001
0010
0100
1000
0100
0010
0100
1000
0100
,
0010
0001
0010
0100
1000
0100
0010
0001
0010
0100
1000
0000
0010
0100
0010
0000
,
0000
0000
0010
0100
0010
0000
0000
0000
0100
0010
0100
0000
0000
0000
0010
0100
,
0010
0000
0000
0000
0010
0100
0010
0000
0000
0000
0100
0010
0100
0010
0100
0000
,
0000
0000
0001
0010
0001
0000
0000
0000
0100
1000
0100
0000
0000
0000
0100
0010
,
0100
0000
0000
0000
0010
0001
0010
0001
0010
0000
0000
0000
1000
0100
0010
0000
,
0000
0000
1000
0100
0010
0000
0000
0000
0010
0100
1000
0000
0000
0000
1000
0100
,
0010
0000
0000
0000
0001
0010
0100
0000
0000
0000
1000
0100
1000
0000
0000
0000
,
1000
0100
0010
0000
0000
0000
0010
0100
1000
0000
0000
0000
0100
0010
0100
0000
,
0000
0000
0010
0100
1000
0000
0000
0000
1000
0000
0000
0000
0000
0000
0001
0000
,
0000
0000
1000
0100
1000
0000
0000
0000
0010
0100
0010
0000
0000
0000
0100
0010
,
0100
0000
0000
0000
0010
0001
0010
0000
0000
0000
0010
0100
0010
0000
0000
0000
,
1000
0010
1000
0000
0000
0000
0010
0100
0010
0000
0000
0000
0010
0100
1000
0000
,
0000
0000
1000
0001
1000
0001
1000
0000
0000
0000
0100
0010
0001
0000
0000
0000
,
0010
0100
0010
0000
0000
0000
0010
0100
0010
0000
0000
0000
1000
0100
0010
0000
,
0000
0000
0001
0010
0100
0000
0000
0000
1000
0100
0010
0000
0100
0000
1000
0000
,
0100
0000
0000
0010
0000
0000
0001
0000
0000
0010
0000
0000
0100
0000
0000
1000
0000
0000
0100
0000
0000
0010
0000
0000
0001
0000
0000
0000
0000
0000
0001
0000
0000
0000
0000
0000
0100
0000
0000
0000
0000
0000
0000
0000
1000
0000
0000
0000
,
0000
0000
0000
0000
0100
0000
0000
0000
1000
0000
0000
0000
0100
0000
0000
0010
0000
0000
0001
0000
0000
0000
0000
0000
0000
0000
0000
0000
0000
0000
0011
0000
0000
0000
0000
0000
0000
0000
0000
0000
0000
0000
0100
0000
0000
0000
0000
0000
,
0100
0000
0010
0000
0001
0010
0100
0000
1000
0000
0100
0000
0000
0000
0010
0000
,
0010
0000
0001
0000
0010
0100
1000
0000
0100
0000
0100
0000
0000
0000
0100
0000
,
0100
0000
0010
0000
0001
0010
0100
0000
1000
0000
0100
0000
0000
0000
0100
0000
,
0100
0000
1000
0000
1000
0001
0010
0000
1000
0000
0001
0000
0000
0000
0001
0000
,
0010
0000
0001
0000
0010
0100
1000
0000
0100
0000
1000
0000
0000
0000
1000
0000
,
0001
0000
1000
0000
0001
0010
0001
0000
0010
0000
0100
0000
0000
0000
0001
0000
,
1000
0000
0001
0000
1000
0100
1000
0000
0100
0000
0010
0000
0000
0000
0010
0000
,
0001
0000
0010
0000
0001
0010
0001
0000
1000
0000
0001
0000
0000
0000
1000
0000
,
0100
0000
0010
0000
1000
0100
0010
0000
1000
0000
0001
0000
0000
0000
0001
0000
,
0010
0000
0100
0000
0001
0010
0100
0000
0001
0000
0010
0000
0000
0000
0100
0000
,
0010
0000
0001
0000
0100
0010
0001
0000
0100
0000
0200
0000
0310
0000
0020
0000
,
0030
0000
0100
0000
0010
1000
0100
0000
0010
0000
0100
0000
0000
0000
1000
0000
,
0001
0000
0100
0000
0010
1000
0001
0000
0010
0000
0001
0000
0000
0000
0001
0000
,
0100
0000
0001
0000
1000
0010
1000
0000
0100
0000
0010
0000
0000
0000
1000
0000
,
0100
0000
1000
0100
0010
0001
0010
0100
1000
0000
1001
0000
1001
0000
0110
0000
,
0000
0000
1000
0000
0000
0000
0100
0010
0100
0000
0000
0000
0001
0010
0001
0000
,
0000
0000
1000
0001
1000
0000
0000
0000
0100
0010
0001
0000
0100
0010
0100
0000
,
0000
0000
1000
0100
0010
0001
0010
0100
1000
0100
0010
0100
1000
0100
0010
0001
,
0010
0100
0010
0001
0000
0000
0001
0000
0010
0100
1000
0000
0100
0010
0100
0000
,
0000
0000
0100
0000
0000
0000
0001
0010
0001
0000
0000
0000
0100
0010
0001
0000
,
0000
0000
1000
0100
0010
0000
0000
0000
0010
0100
1000
0000
0010
0100
0010
0000
,
0000
0000
1000
0100
0010
0001
0010
0100
1000
0100
0010
0100
1000
0100
0010
0001
,
0010
0100
1000
0100
1000
0000
1000
0000
0100
0010
0001
0000
0010
0100
0010
0000
,
0000
0000
0010
0000
0000
0000
0100
0010
0100
0000
0000
0000
0001
1000
0001
0000
,
0000
0000
1000
0001
1000
0000
0000
0000
0100
0010
0001
0000
0100
0010
0100
0000
,
0000
0000
1000
0100
0010
0000
0000
0000
1000
0100
0010
0001
0010
0100
1000
0100
,
0010
0001
0010
0100
1000
0100
0010
0000
0010
0100
1000
0000
0100
0010
0100
0000
,
0000
0000
0100
0000
0000
0000
1000
0001
1000
0000
0000
0000
0010
0100
0010
0000
,
0000
0000
0001
1000
0001
0000
0000
0000
0100
0010
0001
0000
0010
0100
0010
0000
,
0000
0000
1000
0100
0010
0100
1000
0100
0010
0001
0010
0100
1000
0100
0010
0100
,
1000
0100
0010
0100
1000
0100
0010
0000
0010
0100
1000
0000
0100
0010
0100
0000
,
0000
0000
0010
0000
0000
0000
1000
0001
1000
0000
0001
0000
0000
0000
1000
0100
,
0010
0001
0010
0100
1000
0100
0010
0100
1000
0100
0010
0001
1000
0100
0010
0001
,
0010
0100
0010
0001
1000
0100
0010
0100
1000
0100
0010
0001
0010
0100
1000
0100
,
0010
0100
1000
0100
0010
0001
0010
0100
0010
0001
1000
0100
0010
0100
1000
0100
,
0010
0001
0010
0100
0010
0001
1000
0100
0010
0100
1000
0100
0010
0100
1000
0100
,
0010
0001
0010
0100
1000
0100
0010
0100
1000
0001
0010
0100
0010
0001
1000
0100
,
0010
0001
0010
0100
1000
0001
0010
0100
1000
0100
0010
0100
1000
0001
0010
0100
,
0010
0001
1000
0100
0010
0100
1000
0001
0010
0100
0010
0001
0010
0100
1000
0010
,
0100
0001
0010
0100
1000
0100
0000
0000
0000
0000
1000
0100
0010
0001
0010
0100
,
1000
0100
0010
0100
1000
0001
0010
0100
0010
0001
1000
0100
0010
0001
0100
0010
,
1000
0100
0010
0001
0010
0100
1000
0100
0010
0100
1000
0001
0010
0100
0010
0001
,
0010
0100
1000
0100
0010
0100
1000
0100
0010
0100
1000
0001
0010
0100
0010
0001
,
1000
0100
0010
0001
0100
0010
1000
0100
0010
0001
0010
0100
1000
0100
0010
0100
,
1000
0001
0010
0100
0010
0001
0010
0100
1000
0100
0010
0001
0010
0100
1000
0100
,
0010
0100
1000
0100
0010
0100
1000
0100
0010
0001
0010
0100
1000
0100
0010
0100
,
1000
0100
0010
0100
1000
0100
0010
0001
0010
0100
1000
0100
0010
0100
1000
0100
,
0010
0000
0000
0000
0000
0000
0000
0000
0000
0000
0000
0000
0000
0000
0000
0000
0000
0000
0000
0000
0000
0000
0000
0000
1002
2000
0000
0000
0000
0000
0000
0000
0000
0000
0000
0000
0000
0000
0000
0000
0000
0000
0000
0000
0000
0000
0000
0000
0000
0000
0000
0000
0000
0000
0000
0000
0000
0000
0000
0000
0000
0000
0000
0000
0000
0000
0000
0000
0000
0000
0000
0000
0000
0000
0000
0000
0000
0000
0000
0000
0000
0000
0000
0000
0000
0000
0000
0000
0000
0000
0000
0000
0000
0000
0000
0000
3003
0000
0000
0000
0000
0000
0000
0000
0000
0000
0000
0000
0000
0000
0000
0000
0000
0000
0000
0000
0000
0000
0000
0000
1000
0000
0000
0000
0000
0000
0000
0000
0000
0000
0000
0000
0100
0000
0000
0000
0000
0000
0000
0000
0000
0000
0000
0000
0010
0000
0000
0000
0000
0000
0000
0000
0000
0000
0000
0000
0000
0000
0000
0000
0000
0000
0000
0000
0000
0000
0000
0000
0000
0000
0000
0000
0000
0000
0000
0000
0000
0000
0000
0000
0000
0000
0000
0000
0000
0000
0000
0000
0000
0000
0000
0000
,
0001
0010
0100
0000
0000
0000
1000
0100
0010
0000
0000
0000
0001
0010
0100
0000
,
0000
0000
1000
0100
0010
0000
0000
0000
0001
0010
0100
0000
0000
0000
1000
0100
,
0010
0000
0000
0000
0001
0010
0100
0000
0000
0000
1000
0100
0010
0000
0000
1001
,
0000
0000
0000
0100
0010
0001
0000
0000
1000
0000
0000
0100
0010
0001
0000
0000
,
0000
0100
0010
0001
0000
0000
0000
0010
0100
1000
0000
0000
0000
0100
0010
0001
,
0000
0000
0000
0010
0100
1000
0000
0000
0000
0100
0010
0001
0000
0000
0000
0010
,
0100
1000
0000
0000
0000
0100
0010
0001
0000
0000
0000
0010
0100
1000
0000
0000
,
1000
0100
0010
0000
0000
0000
1001
0000
1000
0100
0010
0000
0000
0000
0001
0010
,
0100
0000
0000
0000
1000
0100
0010
0000
0000
0000
0001
0010
0100
0000
0000
0000
,
1000
0100
0010
0000
0000
0000
0001
0010
0100
0000
0000
0000
1000
0100
0010
0000
,
0000
0000
0001
0010
0100
0000
0000
0000
1000
0100
0010
0000
0000
0000
0001
0010
,
0100
0000
0000
0000
1000
0100
0010
0000
0000
0000
1001
0000
0000
0100
0010
0001
,
0000
0000
0000
0010
0100
1000
0000
0000
0000
0100
0010
0001
0000
0000
0000
0010
,
0100
1000
0000
0000
0000
0100
0010
0001
0000
0000
0000
0010
0100
1000
0000
0000
,
1000
0100
0010
0100
1000
0001
0010
0100
0010
0001
0010
0100
2000
0000
0000
0000
,
0000
0000
0000
3000
0100
0010
0001
0010
0100
0010
0100
0010
0001
0010
0100
1000
,
0100
0010
0001
0010
0100
0010
0001
0010
0100
1000
0100
0010
0002
0000
0000
0000
,
0003
0010
0100
0010
0001
0010
0100
0010
0001
0010
0100
1000
0100
0010
0100
1000
,
0100
0010
0001
0010
0100
0010
0001
0010
0200
0000
0000
0000
0000
0000
0310
0001
,
0010
0100
1000
0100
0010
0001
0010
0100
1000
0100
0000
0010
0000
0001
0010
0000
,
0100
1000
2002
0000
0000
3003
0000
0000
;

//---------------dance-single - ----------------
#NOTES:
     dance-single:
     :
     Challenge:
     14:
     1.000,1.000,0.212,0.656,1.000,1522.000,31.000,96.000,0.000,0.000:
1000
0100
0010
0100
1000
0100
0010
0001
0010
0100
0010
0001
0010
0100
1000
0100
,
0010
0001
0010
0000
1001
0000
0000
0000
1001
0000
0000
0000
0001
0000
0000
0000
,
2000
0000
0000
0000
,
3002
0003
2002
3003
2002
3003
0002
0003
,
2002
0000
0000
0000
0000
3003
0000
0000
,
2002
3003
2002
3003
2002
3003
2002
3003
,
2002
0000
3003
0000
,
2000
0000
3200
0000
0320
0000
0032
0003
,
2002
0000
0000
0000
0000
0000
0000
0000
3003
1000
0100
0010
0001
0010
0100
0010
,
0001
0010
0100
1000
0100
0010
0001
0010
0100
1000
0100
0010
0100
1000
0100
0010
,
0001
0010
0100
1000
0100
0010
0100
1000
0100
0010
0001
0010
0100
1000
0100
0010
,
0001
0010
0100
1000
0100
0010
0001
0010
0100
0010
0001
0010
0100
1000
0100
0010
,
0001
0010
0100
1000
0100
0010
0001
0010
0100
1000
0100
0020
0000
0000
0000
0030
,
2002
0000
0000
3003
0000
0100
1000
0100
0010
0001
0010
0100
1000
0100
0010
0100
,
1000
0100
0010
0001
0010
0100
1000
0100
0010
0100
1000
0001
0010
0100
0010
0001
,
0010
0100
1000
0100
0010
0001
0010
0100
1000
0100
0010
0001
0010
0100
1000
0100
,
0010
0100
1000
0001
0010
0100
0010
0001
0010
0100
0010
0000
0000
0000
0010
0001
,
0010
0000
0000
0000
0000
0000
1000
0010
1000
0010
1000
0000
0000
0000
0010
0100
,
0010
0000
0000
0000
0000
0000
1000
0001
1000
0001
1000
0000
0000
0000
0010
1000
,
0010
0000
0000
0000
0000
0000
1000
0010
1000
0010
1000
0000
0000
0000
0010
0001
,
0010
0000
0000
0000
0000
0000
0100
0010
0100
0010
0100
0000
0000
0000
1000
0001
,
1000
0000
0000
0000
0000
0000
1000
0010
0100
0010
1000
0000
0000
0000
0010
1000
,
0010
0000
0000
0000
0000
0000
1000
0100
0010
0100
1000
0000
0000
0000
0010
0100
,
0010
0000
0000
0001
0100
0001
0100
0001
,
1000
0100
0010
0000
0010
0001
0010
0100
1000
0100
0010
0001
0100
0000
0010
0000
,
0110
0000
1000
0100
0010
0001
0010
0100
1000
0000
0000
0000
1000
0100
0010
0001
,
1000
0100
0010
0001
1000
0100
0010
0001
0010
0000
0000
0000
0100
0000
1000
0000
,
0010
0000
0010
0100
1000
0100
0010
0001
0000
0000
0000
0000
1000
0100
0010
0001
,
0010
0100
1000
0100
0010
0001
0010
0100
1000
0100
0010
0001
0010
0100
1000
0000
,
1001
0000
0100
0000
0100
0010
0001
0010
0100
0010
0000
0000
1000
0100
0010
0001
,
0010
0100
1000
0100
0010
0100
1000
0200
0000
0300
0000
0000
0000
0000
0000
0000
,
1001
0000
1000
0000
1000
0100
0010
0001
0010
0100
0010
0000
0000
0000
1000
0100
,
0010
0001
0010
0100
1000
0100
0010
0100
1000
0100
0010
0001
0010
0100
1000
0000
,
1001
0000
1000
0000
1000
0100
0010
0001
0010
0100
0010
0000
0000
0000
1000
0100
,
0010
0001
0010
0100
1000
0100
0010
0100
1000
0001
0010
0100
0010
0001
0000
0000
,
1001
0000
1000
0100
0010
0001
0010
0100
0010
0000
0000
0000
0010
0100
1000
0100
,
0010
0001
0010
0100
1000
0100
0010
0001
0010
0100
1000
0100
0010
0000
0000
0000
,
1001
0000
1000
0100
0010
0001
0010
0100
0010
0000
0000
0000
1000
0100
0010
0001
,
1000
0100
0010
0001
1000
0100
0010
0001
0010
0000
0000
0000
0000
0000
0000
0000
,
1001
0000
1000
0100
0010
0001
0010
0100
0010
0000
0000
0000
1000
0100
0010
0001
,
0000
0000
1001
0000
1001
0000
1001
0000
0000
1000
0100
1000
0000
0000
0000
0001
,
0010
0001
0000
0000
0000
0001
0010
0001
0000
0000
0000
0001
0010
0100
0000
0000
,
0000
0001
1000
0001
1000
0001
0000
0000
0000
1000
0100
0010
0000
0000
0000
0001
,
0010
0100
0000
0000
0000
0001
0010
0001
0000
0000
0000
1000
0100
0010
0000
0000
,
0000
0001
1000
0001
1000
0001
0000
0000
0000
0001
0010
0100
0000
0000
0000
1000
,
0100
0010
0000
0000
0000
0100
0010
0100
0000
0000
0000
1000
0001
1000
0000
0000
,
0000
0100
0010
0100
0010
0100
0000
0000
0000
0010
1000
0010
0000
0000
0000
0100
,
0001
0100
0000
0000
0000
0010
1000
0010
0000
0000
0000
0100
0001
0100
0000
0000
,
0000
0001
1000
0001
1000
0001
0000
0000
0000
0100
1000
0100
0000
0000
0000
0010
,
0001
0010
0000
0000
0000
0100
1000
0100
0000
0000
0000
0100
1000
0100
0000
0000
,
0000
0100
1000
0100
1000
0100
0000
0000
0000
0100
1000
0100
0000
0000
0000
0010
,
0001
0010
0000
0000
0000
0100
0010
0100
0000
0000
0000
0100
1000
0100
0000
0000
,
0000
0010
0100
0010
0100
0010
0000
0000
0000
0100
1000
0100
0000
0000
0000
0010
,
0001
0010
0000
0000
0000
0100
0010
0100
0000
0000
0000
0100
1000
0100
0000
0000
,
0000
0001
1000
0001
1000
0001
0000
0000
1000
0000
0100
0000
0010
0000
0001
0000
,
0010
0000
0100
0000
1000
0100
0010
0001
0010
0100
1000
0100
0010
0100
1000
0100
,
0010
0001
0010
0100
1000
0100
0010
0001
0010
0100
1000
0000
0010
0100
0010
0000
,
0000
0000
0010
0100
0010
0000
0000
0000
0100
0010
0100
0000
0000
0000
0010
0100
,
0010
0000
0000
0000
0010
0100
0010
0000
0000
0000
0100
0010
0100
0010
0100
0000
,
0000
0000
0001
0010
0001
0000
0000
0000
0100
1000
0100
0000
0000
0000
0100
0010
,
0100
0000
0000
0000
0010
0001
0010
0001
0010
0000
0000
0000
1000
0100
0010
0000
,
0000
0000
1000
0100
0010
0000
0000
0000
0010
0100
1000
0000
0000
0000
1000
0100
,
0010
0000
0000
0000
0001
0010
0100
0000
0000
0000
1000
0100
1000
0000
0000
0000
,
1000
0100
0010
0000
0000
0000
0010
0100
1000
0000
0000
0000
0100
0010
0100
0000
,
0000
0000
0010
0100
1000
0000
0000
0000
1000
0000
0000
0000
0000
0000
0001
0000
,
0000
0000
1000
0100
1000
0000
0000
0000
0010
0100
0010
0000
0000
0000
0100
0010
,
0100
0000
0000
0000
0010
0001
0010
0000
0000
0000
0010
0100
0010
0000
0000
0000
,
1000
0010
1000
0000
0000
0000
0010
0100
0010
0000
0000
0000
0010
0100
1000
0000
,
0000
0000
1000
0001
1000
0001
1000
0000
0000
0000
0100
0010
0001
0000
0000
0000
,
0010
0100
0010
0000
0000
0000
0010
0100
0010
0000
0000
0000
1000
0100
0010
0000
,
0000
0000
0001
0010
0100
0000
0000
0000
1000
0100
0010
0000
0100
0000
1000
0000
,
0100
0000
0000
0010
0000
0000
0001
0000
0000
0010
0000
0000
0100
0000
0000
1000
0000
0000
0100
0000
0000
0010
0000
0000
0001
0000
0000
0000
0000
0000
0001
0000
0000
0000
0000
0000
0100
0000
0000
0000
0000
0000
0000
0000
1000
0000
0000
0000
,
0000
0000
0000
0000
0100
0000
0000
0000
1000
0000
0000
0000
0100
0000
0000
0010
0000
0000
0001
0000
0000
0000
0000
0000
0000
0000
0000
0000
0000
0000
0011
0000
0000
0000
0000
0000
0000
0000
0000
0000
0000
0000
0100
0000
0000
0000
0000
0000
,
0100
0000
0010
0000
0001
0010
0100
0000
1000
0000
0100
0000
0000
0000
0010
0000
,
0010
0000
0001
0000
0010
0100
1000
0000
0100
0000
0100
0000
0000
0000
0100
0000
,
0100
0000
0010
0000
0001
0010
0100
0000
1000
0000
0100
0000
0000
0000
0100
0000
,
0100
0000
1000
0000
1000
0001
0010
0000
1000
0000
0001
0000
0000
0000
0001
0000
,
0010
0000
0001
0000
0010
0100
1000
0000
0100
0000
1000
0000
0000
0000
1000
0000
,
0001
0000
1000
0000
0001
0010
0001
0000
0010
0000
0100
0000
0000
0000
0001
0000
,
1000
0000
0001
0000
1000
0100
1000
0000
0100
0000
0010
0000
0000
0000
0010
0000
,
0001
0000
0010
0000
0001
0010
0001
0000
1000
0000
0001
0000
0000
0000
1000
0000
,
0100
0000
0010
0000
1000
0100
0010
0000
1000
0000
0001
0000
0000
0000
0001
0000
,
0010
0000
0100
0000
0001
0010
0100
0000
0001
0000
0010
0000
0000
0000
0100
0000
,
0010
0000
0001
0000
0100
0010
0001
0000
0100
0000
0200
0000
0310
0000
0020
0000
,
0030
0000
0100
0000
0010
1000
0100
0000
0010
0000
0100
0000
0000
0000
1000
0000
,
0001
0000
0100
0000
0010
1000
0001
0000
0010
0000
0001
0000
0000
0000
0001
0000
,
0100
0000
0001
0000
1000
0010
1000
0000
0100
0000
0010
0000
0000
0000
1000
0000
,
0100
0000
1000
0100
0010
0001
0010
0100
1000
0000
0110
0000
0011
0000
1100
0000
,
1000
0100
0010
0001
0010
0100
1000
0100
0010
0100
1000
0100
0010
0001
0010
0100
,
0010
0001
1000
0100
0010
0100
1000
0001
0010
0100
0010
0001
0010
0100
1000
0100
,
0010
0100
1000
0100
0010
0001
0010
0100
1000
0100
0010
0100
1000
0100
0010
0001
,
0010
0100
0010
0001
0010
0100
0010
0001
0010
0100
1000
0100
0010
0001
1000
0100
,
0010
0001
0010
0100
1000
0100
0010
0001
0010
0100
1000
0100
0010
0100
1000
0100
,
0010
0100
1000
0100
0010
0001
0010
0100
0010
0001
0010
0100
1000
0100
0010
0100
,
1000
0100
0010
0001
0010
0100
0010
0001
0010
0100
1000
0100
0010
0100
1000
0100
,
0010
0001
0010
0100
1000
0100
0010
0100
1000
0001
0010
0100
0010
0001
1000
0100
,
0010
0100
1000
0100
0010
0001
0100
0010
1000
0100
0010
0001
0010
0100
1000
0100
,
0010
0100
1000
0100
0010
0001
0010
0100
1000
0100
0010
0001
0010
0100
1000
0100
,
0010
0100
1000
0100
0010
0001
0010
0100
1000
0100
0010
0100
1000
0100
0010
0001
,
0010
0100
0010
0001
0010
0100
1000
0100
0010
0100
1000
0100
0010
0001
0010
0100
,
1000
0100
0010
0100
1000
0100
0010
0001
0010
0100
0010
0001
1000
0100
0010
0100
,
1000
0001
0010
0100
0010
0001
0010
0100
1000
0100
0010
0100
1000
0100
0010
0001
,
0010
0100
1000
0100
0010
0100
1000
0100
0010
0001
0010
0100
0010
0001
1000
0100
,
0010
0100
1000
0100
0010
0100
1000
0100
0010
0001
0010
0100
1000
0100
0010
0001
,
0010
0100
1000
0100
0010
0001
0010
0100
1000
0100
0010
0100
2000
3200
0320
0230
,
2300
3002
0023
0230
0320
0032
0023
0230
2300
3200
0320
0230
2300
3002
0023
0230
,
0320
0032
0023
0230
2300
3200
0320
0032
0023
0230
2300
3200
0320
0230
0310
1000
,
0100
0010
0001
0010
0100
1000
0100
0010
0100
1000
0100
0010
0001
0010
0100
1000
,
0100
0010
0100
1000
0100
0010
0001
0010
0100
1000
0100
0010
0100
1000
0100
0010
,
0001
0010
0100
1000
0100
0010
0100
1000
0100
0010
0001
0010
0100
1000
0100
0010
,
0100
1000
0100
0010
0001
0010
0100
1000
0100
0010
0001
0010
0100
1000
0100
0010
,
0100
1000
0100
0010
0001
0010
0100
1000
0100
0010
0100
1000
0100
0010
0001
0010
,
0100
1000
0100
0010
0001
0010
0100
1000
0001
0010
0100
0010
0001
0010
0200
2300
,
3200
0320
0032
0023
0230
2300
3200
0320
0032
0023
0230
2300
3200
0320
0032
0023
,
0230
2300
3200
0320
0230
2300
3100
0010
0001
0010
0100
1000
0100
0010
0100
1000
,
0100
0010
0001
0010
0100
1000
0100
0010
0100
1000
0100
0010
0001
0010
0100
1000
,
0100
0010
0001
0010
0100
1000
0100
0010
0100
1000
0100
0010
0001
0010
0100
1000
,
0100
0010
0100
1000
0100
0010
0001
0010
0100
1000
0100
0010
0100
1000
0001
0010
,
0100
0010
0001
1000
0100
0010
0100
1000
0100
0010
0001
0010
0100
1000
0100
0010
,
0100
1000
0100
0010
0100
1000
0100
0010
0001
0010
0100
0010
0001
0010
0100
0000
,
2002
0000
0000
0000
0000
0000
0000
0000
3003
0000
1000
0100
0010
0000
0000
0000
,
0001
0010
0100
0000
0000
0000
1000
0100
0010
0000
0000
0000
0001
0010
0100
0000
,
0000
0000
1000
0100
0010
0000
0000
0000
0001
0010
0100
0000
0000
0000
1000
0100
,
0010
0000
0000
0000
0001
0010
0100
0000
0000
0000
1000
0100
0010
0000
0000
1001
,
0000
0000
0000
0100
0010
0001
0000
0000
1000
0000
0000
0100
0010
0001
0000
0000
,
0000
0100
0010
0001
0000
0000
0000
0010
0100
1000
0000
0000
0000
0100
0010
0001
,
0000
0000
0000
0010
0100
1000
0000
0000
0000
0100
0010
0001
0000
0000
0000
0010
,
0100
1000
0000
0000
0000
0100
0010
0001
0000
0000
0000
0010
0100
1000
0000
0000
,
1000
0100
0010
0000
0000
0000
1001
0000
1000
0100
0010
0000
0000
0000
0001
0010
,
0100
0000
0000
0000
1000
0100
0010
0000
0000
0000
0001
0010
0100
0000
0000
0000
,
1000
0100
0010
0000
0000
0000
0001
0010
0100
0000
0000
0000
1000
0100
0010
0000
,
0000
0000
0001
0010
0100
0000
0000
0000
1000
0100
0010
0000
0000
0000
0001
0010
,
0100
0000
0000
0000
1000
0100
0010
0000
0000
0000
1001
0000
0000
0100
0010
0001
,
0000
0000
0000
0010
0100
1000
0000
0000
0000
0100
0010
0001
0000
0000
0000
0010
,
0100
1000
0000
0000
0000
0100
0010
0001
0000
0000
0000
0010
0100
1000
0000
0000
,
1000
0100
0010
0100
1000
0001
0010
0100
0010
0001
0010
0100
2000
0000
0000
0000
,
0000
0000
0000
3000
0100
0010
0001
0010
0100
0010
0100
0010
0001
0010
0100
1000
,
0100
0010
0001
0010
0100
0010
0001
0010
0100
1000
0100
0010
0002
0000
0000
0000
,
0003
0010
0100
0010
0001
0010
0100
0010
0001
0010
0100
1000
0100
0010
0100
1000
,
0100
0010
0001
0010
0100
0010
0001
0010
0200
0000
0000
0000
0000
0000
0310
0001
,
0010
0100
1000
0100
0010
0001
0010
0100
1000
0100
0000
0010
0000
0001
0010
0000
,
0100
1000
2002
0000
0000
3003
0000
0000
;
