#TITLE:Flying Battery Zone (Act 1);
#SUBTITLE:Sonic & Knuckles;
#ARTIST:Sega Sound Team;
#TITLETRANSLIT:;
#SUBTITLETRANSLIT:;
#ARTISTTRANSLIT:;
#CREDIT:;
#BANNER:Flying Battery Zone Act 1-bn.PNG;
#BACKGROUND:Flying Battery Zone Act 1-bg.PNG;
#LYRICSPATH:;
#CDTITLE:!gloveTitle.png;
#MUSIC:Flying Battery Zone Act 1.mp3;
#OFFSET:0.600;
#SAMPLESTART:39.392;
#SAMPLELENGTH:12.000;
#SELECTABLE:YES;
#BPMS:0.000=150.030;
#STOPS:;
#BGCHANGES:;
// cache tags:
#FIRSTBEAT:4.000;
#LASTBEAT:239.500;
#SONGFILENAME:Songs/VGMP 2/Flying Battery Zone Act 1 (GLoVE)/Flying Battery Zone Act 1.sm;
#HASMUSIC:1;
#HASBANNER:1;
#MUSICLENGTH:95.869;
// end cache tags

//---------------dance-single - Copied from----------------
#NOTES:
     dance-single:
     Copied from:
     Challenge:
     11:
     1.000,1.000,1.000,0.000,1.000,761.000,203.000,0.000,0.000,2.000:


0000
0000
0000
0000
,
0100
0001
0010
0010
0101
0000
0100
0010
0101
0000
0100
0100
1010
0000
0100
1010
,
0001
0000
0110
0100
1000
0001
0100
0010
0101
0000
0110
0100
1010
0000
0100
0001
,
0010
0000
0100
0100
1000
0000
1100
0010
0001
0010
0100
0100
1000
0000
0101
0100
,
0011
1000
0000
1000
1000
0100
1010
0010
0001
1000
0000
1000
1000
0100
0011
0010
,
0001
0100
0001
0000
1001
0000
0100
0010
0101
0000
0100
0100
1010
0000
0100
1010
,
0001
0000
0110
0100
1000
0001
1000
0010
0101
0000
0110
0100
1010
0000
0100
1000
,
0001
0000
0100
0100
1000
0000
1010
0100
0001
0010
0100
0100
1000
0000
0110
0010
,
0001
0100
0000
1000
1000
0100
0011
0010
0001
1000
0000
1000
1000
0100
1010
0010
,
0001
1000
0001
0000
1001
0000
0100
0010
0101
0000
0100
0100
0011
0000
0100
1010
,
0001
0000
0110
0100
1000
0001
0100
0010
0101
0000
0110
0100
1010
0000
0100
0001
,
0010
0000
0100
0100
1000
0000
1100
0010
0001
0010
0100
0100
1000
0000
0101
0100
,
0010
0100
0000
1000
1000
0100
0011
0010
0001
0100
0000
1000
1000
0100
1010
0010
,
0001
0100
0001
0000
0101
0000
0100
0010
1001
0000
0100
0100
0011
0000
0100
1010
,
0001
0000
0110
0100
1000
0010
1000
0010
0101
0000
0110
0100
1010
0000
0100
1000
,
0001
0000
0100
0100
1000
0000
1001
0100
0001
0010
0100
0100
1000
0000
0110
0100
,
0001
0010
0000
1000
1000
0100
0011
0010
0001
0100
0000
1000
1000
0100
1011
0010
,
1001
0100
1010
0000
1100
0010
0001
0110
1000
0100
0011
0100
1000
0000
0001
0000
,
0010
0000
0110
1000
0101
0010
0001
0110
1000
0100
0011
0100
1000
0100
0010
0000
,
0101
0000
0110
0000
1001
0100
0001
0110
1000
0100
0011
0100
1000
0000
0011
0000
,
0101
0000
0110
0000
1001
0010
0001
0100
1010
0100
0001
0010
1001
0100
0001
0010
,
1100
0000
0010
0000
0101
1000
0100
0011
1000
0100
1001
0010
1000
0000
0010
0000
,
1000
0000
0110
1000
0110
1000
0001
0110
1000
0010
0101
0010
1000
0000
0001
0000
,
0101
0000
0110
0000
1001
0100
0001
0110
1000
0010
0101
0010
1000
0000
0011
0000
,
1010
0000
0110
0000
1001
0110
1001
0100
0010
0100
0001
0010
0100
0010
0001
0000
,
0010
0000
1000
0000
0010
0000
0010
0000
0010
0000
0010
0010
0010
0100
1000
0010
,
0100
1000
0100
0100
0010
0000
0010
0100
1010
0000
0010
0010
0101
0000
0010
0101
,
1000
0000
0110
0100
0001
1000
0010
0100
1010
0000
1100
0100
0011
0000
0100
1000
,
0010
0000
0100
0100
0001
0000
0011
0100
1000
0100
0010
0010
0001
0000
1010
0010
,
1100
0001
0000
0001
0001
0010
0101
0100
1000
0001
0000
0001
0001
0010
1100
0100
,
1000
0010
1000
0000
1001
0000
0010
0100
1010
0000
0100
0100
1001
0000
0010
0101
,
1000
0000
0110
0100
0001
1000
0010
0100
1001
0000
0110
0100
1001
0000
0010
0001
,
1000
0000
0100
0100
0010
0000
0101
0010
1000
0100
0010
0010
0001
0000
0110
0100
,
1000
0010
0000
0001
0001
0010
1100
0100
1000
0001
0000
0001
0001
0010
0101
0100
,
1000
0001
1000
0000
1001
0000
0010
0100
1010
0000
0010
0010
1100
0000
0010
0101
,
1000
0000
0110
0010
0001
1000
0010
0100
1010
0000
0110
0010
0101
0000
0010
1000
,
0100
0000
0010
0010
0001
0000
0011
0100
1000
0100
0010
0010
0001
0000
1010
0010
,
0100
0010
0000
0001
0001
0010
1100
0100
1000
0010
0000
0001
0001
0010
0101
0100
,
1000
0010
1000
0000
1010
0000
0010
0100
1001
0000
0010
0010
1001
0000
0010
0101
,
1000
0000
0110
0010
0001
0100
0001
0010
0101
0000
1010
1000
0101
0000
0010
0001
,
1000
0000
0010
0010
0001
0000
1001
0010
1000
0100
0010
0010
0001
0000
0110
0010
,
1000
0100
0000
0001
0001
0010
1100
0100
1000
0010
0000
1000
1000
0100
1011
0010
,
1001
0100
1010
0000
1100
0010
0001
0110
1000
0100
0011
0100
1000
0000
0001
0000
,
0010
0000
0110
1000
0101
0010
0001
0110
1000
0100
0011
0100
1000
0100
0010
0000
,
0101
0000
0110
0000
1001
0100
0001
0110
1000
0100
0011
0100
1000
0000
0011
0000
,
0101
0000
0110
0000
1001
0010
0001
0100
1010
0100
0001
0010
1001
0100
0001
0010
,
1100
0000
0010
0000
0101
1000
0100
0011
1000
0100
1001
0010
1000
0000
0010
0000
,
1000
0000
0110
1000
0110
1000
0001
0110
1000
0010
0101
0010
1000
0000
0001
0000
,
0101
0000
0110
0000
1001
0100
0001
0110
1000
0010
0101
0010
1000
0000
0011
0000
,
1010
0000
0110
0000
1001
0110
1001
0100
0010
0100
0001
0010
0100
0010
0001
0000
,
0010
0000
1000
0000
0010
0000
0010
0000
0010
0000
0010
0010
0010
0100
1000
0010
,
0100
1000
0100
0100
0011
0000
0100
0010
0101
0000
0100
0100
1010
0000
0100
1010
,
0001
0000
0110
0100
1000
0001
0100
0010
0101
0000
0110
0100
1010
0000
0100
0001
,
0010
0000
0100
0100
1000
0000
1100
0010
0001
0010
0100
0100
1000
0000
0101
0100
,
0011
1000
0000
1000
1000
0100
1010
0010
0001
1000
0000
1000
1000
0100
0011
0010
,
0001
0100
0001
0000
1001
0000
0100
0010
0101
0000
0100
0100
1010
0000
0100
1010
,
0001
0000
0110
0100
1000
0001
1000
0010
0101
0000
0110
0100
1010
0000
0100
1000
,
0001
0000
0100
0100
1000
0000
1010
0100
0001
0010
0100
0100
1000
0000
0110
0010
,
0001
0100
0000
1000
1000
0100
0011
0010
0001
1000
0000
1000
1000
0100
1010
0010
,
0001
1000
0001
0000
1001
0000
0100
0010
0101
0000
0100
0100
0011
0000
0000
0000
;

//---------------dance-single - Copied from Copied f----------------
#NOTES:
     dance-single:
     Copied from Copied f:
     Hard:
     12:
     1.000,1.000,1.000,0.782,1.000,749.000,150.000,75.000,0.000,3.000:

0000
0000
0000
0000
,
0100
0001
0010
0010
0100
0000
0102
1000
0010
0000
0100
0100
1000
0000
1000
0100
,
0010
0000
0100
0100
1000
0000
1000
0100
0010
0000
0100
0103
1000
0000
0100
0000
,
0010
0000
0100
0100
1001
0000
0201
1000
0001
1000
0010
0010
1000
0300
0120
0100
,
0001
1000
0000
1000
1000
0130
0012
0010
0100
1000
0000
1000
1000
0103
2010
0010
,
0001
0100
0001
0000
0010
3000
1002
0100
0010
0000
0100
0100
1000
0000
1000
0100
,
0010
0000
0100
0100
1000
0000
1000
0100
0010
0000
0100
0103
1000
0000
0100
0000
,
0001
0000
0100
0100
1000
0000
1200
0010
0001
1000
0010
0010
1000
0300
0120
0100
,
0001
1000
0000
1000
1000
0130
0012
0010
0100
1000
0000
1000
1000
0103
2010
0010
,
0001
0100
0001
0000
0210
3000
1000
0010
0001
0000
0010
0010
1000
0000
1300
0010
,
2001
3000
0200
0300
0001
0000
0021
0000
1000
0000
0000
0000
1000
0000
0100
0000
0001
0000
0000
0000
0100
0000
0100
0000
1000
0000
0030
0000
0102
0000
0003
0000
,
0201
0300
2000
3000
0102
0003
0120
0030
1002
0000
0000
0000
0103
0000
2010
3000
0001
0000
0010
0000
0100
0000
0100
0000
1000
0000
0000
0000
0100
0000
0100
0000
,
0010
0100
0000
1000
1000
0100
0010
0010
0001
0100
0000
1000
1000
0100
0010
0010
,
0001
0100
0001
0000
0120
0000
1000
0100
0001
0000
0100
0100
1000
0000
1000
0130
,
2010
3000
0002
0003
0010
0000
0210
0000
1000
0000
0000
0000
1000
0000
0010
0000
0001
0000
0000
0000
0010
0000
0010
0000
1000
0000
0300
0000
0120
0030
0000
0000
,
0201
0300
2000
3000
0102
0003
0120
0030
1002
0000
0000
0000
1003
0000
0120
0030
0001
0000
0010
0000
0100
0000
0100
0000
1000
0000
0000
0000
0100
0000
0100
0000
,
0001
0010
0000
1000
1000
0100
0010
0010
0001
0100
0000
1000
1000
0100
0011
0010
,
1001
0100
1010
0000
1100
0010
0001
0110
1000
0100
0011
0100
1000
0000
0001
0000
,
0010
0000
0110
1000
0101
0010
0001
0110
1000
0100
0011
0100
1000
0100
0010
0000
,
0101
0000
0110
0000
1001
0100
0001
0110
1000
0100
0011
0100
1000
0000
0011
0000
,
0101
0000
0110
0000
1001
0010
0001
0100
1010
0100
0001
0010
1001
0100
0001
0010
,
1100
0000
0010
0000
0101
1000
0100
0011
1000
0100
1001
0010
1000
0000
0010
0000
,
1000
0000
0110
1000
0110
1000
0001
0110
1000
0010
0101
0010
1000
0000
0001
0000
,
0101
0000
0110
0000
1001
0100
0001
0110
1000
0010
0101
0010
1000
0000
0011
0000
,
1010
0000
0110
0000
1001
0110
1001
0100
0010
0100
0001
0010
0100
0010
0001
0000
,
0010
0000
1000
0000
0010
0000
0010
0000
0010
0000
0010
0010
0010
0100
1000
0010
,
0100
1000
0100
0100
0010
0000
0102
1000
0010
0000
0100
0100
1000
0000
1000
0100
,
0010
0000
0100
0100
1000
0000
1000
0100
0010
0000
0100
0103
1000
0000
0100
0000
,
0010
0000
0100
0100
1001
0000
0201
1000
0001
1000
0010
0010
1000
0300
0120
0100
,
0001
1000
0000
1000
1000
0130
0012
0010
0100
1000
0000
1000
1000
0103
2010
0010
,
0001
0100
0001
0000
0010
3000
1002
0100
0010
0000
0100
0100
1000
0000
1000
0100
,
0010
0000
0100
0100
1000
0000
1000
0100
0010
0000
0100
0103
1000
0000
0100
0000
,
0001
0000
0100
0100
1000
0000
1200
0010
0001
1000
0010
0010
1000
0300
0120
0100
,
0001
1000
0000
1000
1000
0130
0012
0010
0100
1000
0000
1000
1000
0103
2010
0010
,
0001
0100
0001
0000
0210
3000
1000
0010
0001
0000
0010
0010
1000
0000
1300
0010
,
2001
3000
0200
0300
0001
0000
0021
0000
1000
0000
0000
0000
1000
0000
0100
0000
0001
0000
0000
0000
0100
0000
0100
0000
1000
0000
0030
0000
0102
0000
0003
0000
,
0201
0300
2000
3000
0102
0003
0120
0030
1002
0000
0000
0000
0103
0000
2010
3000
0001
0000
0010
0000
0100
0000
0100
0000
1000
0000
0000
0000
0100
0000
0100
0000
,
0010
0100
0000
1000
1000
0100
0010
0010
0001
0100
0000
1000
1000
0100
0010
0010
,
0001
0100
0001
0000
0120
0000
1000
0100
0001
0000
0100
0100
1000
0000
1000
0130
,
2010
3000
0002
0003
0010
0000
0210
0000
1000
0000
0000
0000
1000
0000
0010
0000
0001
0000
0000
0000
0010
0000
0010
0000
1000
0000
0300
0000
0120
0030
0000
0000
,
0201
0300
2000
3000
0102
0003
0120
0030
1002
0000
0000
0000
1003
0000
0120
0030
0001
0000
0010
0000
0100
0000
0100
0000
1000
0000
0000
0000
0100
0000
0100
0000
,
0001
0010
0000
1000
1000
0100
0010
0010
0001
0100
0000
1000
1000
0100
0011
0010
,
1001
0100
1010
0000
1100
0010
0001
0110
1000
0100
0011
0100
1000
0000
0001
0000
,
0010
0000
0110
1000
0101
0010
0001
0110
1000
0100
0011
0100
1000
0100
0010
0000
,
0101
0000
0110
0000
1001
0100
0001
0110
1000
0100
0011
0100
1000
0000
0011
0000
,
0101
0000
0110
0000
1001
0010
0001
0100
1010
0100
0001
0010
1001
0100
0001
0010
,
1100
0000
0010
0000
0101
1000
0100
0011
1000
0100
1001
0010
1000
0000
0010
0000
,
1000
0000
0110
1000
0110
1000
0001
0110
1000
0010
0101
0010
1000
0000
0001
0000
,
0101
0000
0110
0000
1001
0100
0001
0110
1000
0010
0101
0010
1000
0000
0011
0000
,
1010
0000
0110
0000
1001
0110
1001
0100
0010
0100
0001
0010
0100
0010
0001
0000
,
0010
0000
1000
0000
0010
0000
0010
0000
0010
0000
0010
0010
0010
0100
1000
0010
,
0100
1000
0100
0100
0010
0000
0102
1000
0010
0000
0100
0100
1000
0000
1000
0100
,
0010
0000
0100
0100
1000
0000
1000
0100
0010
0000
0100
0103
1000
0000
0100
0000
,
0010
0000
0100
0100
1001
0000
0201
1000
0001
1000
0010
0010
1000
0300
0120
0100
,
0001
1000
0000
1000
1000
0130
0012
0010
0100
1000
0000
1000
1000
0103
2010
0010
,
0001
0100
0001
0000
0010
3000
1002
0100
0010
0000
0100
0100
1000
0000
1000
0100
,
0010
0000
0100
0100
1000
0000
1000
0100
0010
0000
0100
0103
1000
0000
0100
0000
,
0001
0000
0100
0100
1000
0000
1200
0010
0001
1000
0010
0010
1000
0300
0120
0100
,
0001
1000
0000
1000
1000
0130
0012
0010
0100
1000
0000
1000
1000
0103
2010
0010
,
0001
0100
0001
0000
0210
3000
1000
0010
0001
0000
0010
0010
1000
0000
0300
0000
;

//---------------dance-single - Copied from----------------
#NOTES:
     dance-single:
     Copied from:
     Edit:
     15:
     1.000,1.000,1.000,0.000,1.000,796.000,383.000,0.000,0.000,63.000:


0000
0000
0000
0000
,
0100
0001
0010
0010
0101
0000
1100
0010
0101
0000
0100
0100
1010
0000
0100
1010
,
0001
0000
0110
0100
1000
0001
0100
0010
0101
0000
0110
0100
1010
0001
0110
0101
,
1010
0010
1100
0110
1001
0000
1101
0010
0001
0010
0100
0100
1000
0000
0101
0100
,
0011
1000
0000
1000
1000
0100
1010
0010
0001
1000
0000
1000
1010
0110
0111
1010
,
0011
0101
1001
0010
1011
0000
0100
0010
0101
0000
0100
0100
1010
0000
0100
1010
,
0001
0000
0110
0100
1000
0001
1000
0010
0101
0000
0110
0100
1010
0001
0110
1100
,
1001
0010
0110
1100
1010
0000
1011
0100
0001
0010
0100
0100
1000
0000
0110
0010
,
0001
0100
0000
1000
1100
0110
0111
0011
0101
1010
0001
1001
1010
0110
1011
0110
,
0011
1001
0011
0100
1111
0000
0100
0010
0101
0000
0100
0100
0011
0000
0100
1010
,
0011
0001
0110
0101
1000
0001
0100
0010
0101
0000
0110
0100
1010
0000
0101
0001
,
0110
1000
0100
0110
1100
0000
1100
0011
0001
0010
0100
0100
1000
0000
0101
0100
,
0010
0100
0000
1000
1000
0100
0011
0010
0001
0100
0000
1000
1000
0100
1010
0010
,
0001
0100
0001
0000
0111
0000
0100
0010
1001
0000
0100
0100
0011
0000
0100
1010
,
0011
0001
0110
0101
1000
0010
1000
0010
0101
0000
0110
0100
1010
0000
0101
1000
,
0011
1000
0100
0110
1100
0000
1001
0110
0001
0010
0100
0100
1000
0000
0110
0100
,
0001
0010
0000
1000
1000
0100
0011
0010
0001
0100
0000
1000
1000
0100
1011
0010
,
1001
0100
1010
0000
1100
0010
1001
0110
1000
0100
0011
0100
1000
0000
1001
0000
,
0011
1000
0111
1000
0111
1000
0101
0110
1000
0100
0011
0100
1000
0100
0011
0000
,
0111
1000
0111
0000
1001
0100
1001
0110
1000
0100
0011
0100
1000
0000
1011
0000
,
1101
0010
1101
0000
1001
0010
1001
0100
1011
0110
0001
0110
1011
0110
0001
0110
,
1101
0000
0011
0000
0111
1100
0101
0000
1000
0100
1001
0010
1000
0000
0011
0000
,
0110
1000
0111
1000
0111
1010
1001
0110
1001
0100
1001
0010
1000
0000
0011
0000
,
0111
1000
0111
0000
1001
0100
1001
0110
1000
0010
0101
0010
1000
0000
0111
0000
,
0111
1000
0111
0000
1001
0110
1011
0100
1010
0101
0001
1010
0100
1010
0001
1000
,
1010
0000
1100
0000
0010
0000
0011
0000
0011
0000
0011
0010
0011
0100
1000
0010
,
0100
1000
0100
0100
0011
0000
0011
0100
1010
0000
0010
0010
0101
0000
0010
0101
,
1000
0000
0110
0010
0001
1000
0010
0100
1010
0000
0110
0010
0101
1000
0110
1010
,
0101
0100
0011
0110
1001
0000
1011
0100
1000
0100
0010
0010
0001
0000
1010
0010
,
1100
0001
0000
0001
0001
0010
0101
0100
1000
0001
0000
0001
0101
0110
1110
0101
,
1100
1010
1001
0100
1101
0000
0010
0100
1010
0000
0010
0010
0101
0000
0010
0101
,
1000
0000
0110
0010
0001
1000
0001
0100
1010
0000
0110
0010
0101
1000
0110
0011
,
1001
0100
0110
0011
0101
0000
1101
0010
1000
0100
0010
0010
0001
0000
0110
0100
,
1000
0010
0000
0001
0011
0110
1110
1100
1010
0101
1000
1001
0101
0110
1101
0110
,
1100
1001
1100
0010
1111
0000
0010
0100
1010
0000
0010
0010
1100
0000
0010
0101
,
1100
1000
0110
1010
0001
1000
0010
0100
1010
0000
0110
0010
0101
0000
1010
1000
,
0110
0001
0010
0110
0011
0000
0011
1100
1000
0100
0010
0010
0001
0000
1010
0010
,
0100
0010
0000
0001
0001
0010
1100
0100
1000
0010
0000
0001
0001
0010
0101
0100
,
1000
0010
1000
0000
1110
0000
0010
0100
1001
0000
0010
0010
1100
0000
0010
0101
,
1100
1000
0110
1010
0001
0100
0001
0100
1010
0000
0110
0010
0101
0000
1010
0001
,
1100
0001
0010
0110
0011
0000
1001
0110
1000
0100
0010
0010
0001
0000
0110
0010
,
1000
0100
0000
0001
0001
0010
1100
0100
1000
0010
0000
1000
1000
0100
1011
0010
,
1001
0100
1010
0000
1100
0010
1001
0110
1000
0100
0011
0100
1000
0000
1001
0000
,
0011
1000
0111
1000
0111
1000
0101
0110
1000
0100
0011
0100
1000
0100
0011
0000
,
0111
1000
0111
0000
1001
0100
1001
0110
1000
0100
0011
0100
1000
0000
1011
0000
,
1101
0010
1101
0000
1001
0010
1001
0100
1011
0110
0001
0110
1011
0110
0001
0110
,
1101
0000
0011
0000
0111
1100
0101
0000
1000
0100
1001
0010
1000
0000
0011
0000
,
0110
1000
0111
1000
0111
1010
1001
0110
1001
0100
1001
0010
1000
0000
0011
0000
,
0111
1000
0111
0000
1001
0100
1001
0110
1000
0010
0101
0010
1000
0000
0111
0000
,
0111
1000
0111
0000
1001
0110
1011
0100
1010
0101
0001
1010
0100
1010
0001
1000
,
1010
0000
1100
0000
0010
0000
0011
0000
0011
0000
0011
0010
0011
0100
1000
0010
,
0100
1000
0100
0100
0011
0000
1100
0010
0101
0000
0100
0100
1010
0000
0100
1010
,
0001
0000
0110
0100
1000
0001
0100
0010
0101
0000
0110
0100
1010
0001
0110
0101
,
1010
0010
1100
0110
1001
0000
1101
0010
0001
0010
0100
0100
1000
0000
0101
0100
,
0011
1000
0000
1000
1000
0100
1010
0010
0001
1000
0000
1000
1010
0110
0111
1010
,
0011
0101
1001
0010
1011
0000
0100
0010
0101
0000
0100
0100
1010
0000
0100
1010
,
0001
0000
0110
0100
1000
0001
1000
0010
0101
0000
0110
0100
1010
0001
0110
1100
,
1001
0010
0110
1100
1010
0000
1011
0100
0001
0010
0100
0100
1000
0000
0110
0010
,
0001
0100
0000
1000
1100
0110
0111
0011
0101
1010
0001
1001
1010
0110
1011
0110
,
0011
1001
0011
0100
1111
0000
0000
0000
0000
0000
0000
0000
0000
0000
0000
0000
;
