#TITLE:Stay In Your Room With K.;
#SUBTITLE:;
#ARTIST:DJ Sharpnel;
#TITLETRANSLIT:;
#SUBTITLETRANSLIT:;
#ARTISTTRANSLIT:;
#CREDIT:Fraxtil;
#BANNER:bn.png;
#BACKGROUND:bg.png;
#LYRICSPATH:;
#CDTITLE:;
#MUSIC:Stay In Your Room With K.ogg;
#OFFSET:0.009;
#SAMPLESTART:73.143;
#SAMPLELENGTH:18.285;
#SELECTABLE:YES;
#BPMS:0.000=210.000;
#STOPS:;
#BGCHANGES:;
// cache tags:
#FIRSTBEAT:31.000;
#LASTBEAT:912.500;
#SONGFILENAME:Songs/SHARPNELSTREAMZ v2/Stay In Your Room With K/Stay In Your Room With K.sm;
#HASMUSIC:1;
#HASBANNER:1;
#MUSICLENGTH:264.000;
// end cache tags

//---------------dance-single - 18- (Fraoreo)----------------
#NOTES:
     dance-single:
     18- (Fraoreo):
     Challenge:
     18:
     1.000,1.000,0.045,0.019,1.000,2897.000,12.000,5.000,19.000,0.000:
0000
0000
0000
0000
,
0000
0000
0000
0000
,
0000
0000
0000
0000
,
0000
0000
0000
0000
,
0000
0000
0000
0000
,
0000
0000
0000
0000
,
0000
0000
0000
0000
,
0000
0000
0000
0000
0000
0000
0000
0000
0000
0000
0000
0000
0000
0000
0000
0000
0000
0000
00M0
0M00
00M0
0M00
00M0
0M00
,
1001
0000
0001
0010
0100
1000
0001
0000
,
0100
0000
0010
0000
1000
0000
0001
0000
0010
0000
0100
0000
0010
0000
0001
1000
,
0010
0000
0000
0000
0100
0000
0001
0000
1000
0000
0100
0010
0001
0000
0000
0000
,
1000
0000
0010
0000
0100
0000
0001
0000
0000
0000
1000
0100
0010
0000
0100
1000
,
0001
0100
0010
1000
0001
0010
0100
0010
0001
1000
0100
1000
0001
0100
0001
1000
,
0010
0100
0001
1000
0100
0010
0001
1000
0001
0010
0100
1000
0001
0100
0010
1000
,
0001
0100
0001
1000
0100
0010
0001
1000
0100
0010
0100
1000
0001
0100
0001
1000
,
0001
0000
0000
0000
0000
0000
0000
0000
0000
0000
0000
0000
0000
0000
0000
0000
0000
0000
00M0
0M00
00M0
0M00
00M0
0M00
,
1001
1000
0100
0010
0100
1000
0001
0010
,
0001
0100
0010
1000
0010
0100
0001
0010
,
0001
1000
0100
0010
0100
1000
0001
0100
,
0010
1000
0100
1000
0001
1000
0010
1000
,
1001
0001
0010
0100
0010
0001
1000
0100
,
1000
0010
0100
0001
0100
0010
1000
0100
,
1000
0001
0010
0100
0010
0001
1000
0010
,
0100
0000
0001
0000
0010
0000
0001
0000
1000
0000
0001
1000
0001
0000
0000
0000
,
1001
0001
0100
0010
0100
0001
1000
0010
,
1000
0100
0010
0001
0010
0100
1000
0010
,
1000
0001
0100
0010
0100
0001
1000
0100
,
0010
0001
0100
0001
1000
0001
0010
0001
,
1000
0001
0010
0100
1000
0001
0100
0010
0100
0001
1000
0100
0010
0001
1000
0010
,
1000
0001
0010
0001
1000
0001
0100
0010
1000
0001
0010
0100
1000
0001
1000
0010
,
1000
0001
0010
0100
1000
0001
0100
0010
0100
0001
1000
0100
0010
0001
1000
0010
,
0100
0001
1000
0001
0010
0100
1000
0001
1000
0010
0100
0001
4000
0000
0000
0000
,
3001
0000
0010
0000
0100
0000
1000
0001
0100
0001
1000
0000
0100
0000
0010
0001
,
1000
0000
0010
0000
0100
0000
0001
1000
0010
1000
0001
0000
0010
0000
0100
1000
,
0001
0000
0100
0000
0010
0000
1000
0001
0010
0001
1000
0000
0100
0000
0010
0001
,
1000
0000
0010
0000
0100
0000
0001
1000
0100
1000
0001
0000
0100
0000
0010
1000
,
0001
0000
0100
0000
0010
0000
1000
0001
0010
0001
1000
0000
0010
0000
0100
0001
,
1000
0000
0100
0000
0010
0000
0001
1000
0100
1000
0001
0000
0100
0000
0010
1000
,
0001
0000
0010
0000
0100
0000
1000
0001
0100
0001
1000
0000
0010
0000
0100
0001
,
1000
0000
0100
0000
0010
0000
0001
1000
0010
0000
0100
0001
1000
0000
0000
0000
,
1001
0000
0001
0000
0010
0000
0100
0010
0100
0010
0100
0000
1000
0000
0001
0100
,
0001
0000
1000
0000
0100
0000
0010
0001
0010
0001
0010
0000
0100
0000
1000
0001
,
1000
0000
0010
0000
0100
0000
0001
0100
0001
0100
0001
0000
1000
0000
0100
0010
,
0100
0000
1000
0000
0001
0000
1000
0010
1000
0010
1000
0000
0001
0000
0010
0100
,
0010
0000
0001
0000
1000
0000
0001
0100
0001
0100
0001
0000
1000
0000
0100
0010
,
0100
0000
1000
0000
0001
0000
1000
0010
1000
0010
1000
0000
0001
0000
0010
0001
,
0010
0000
0100
0000
1000
0000
0001
0100
0001
0100
0001
0000
1000
0000
0100
0010
,
0100
0000
0010
0000
0001
0000
1000
0001
1000
0000
0010
0100
0001
0000
0000
0000
,
1000
0100
0010
0100
1000
0001
1000
0010
0100
0001
1000
0001
0010
0100
1000
0001
,
1000
0010
0100
0001
0100
0010
1000
0001
1000
0100
0010
0001
1000
0001
0100
0001
,
1000
0010
0100
0010
1000
0001
1000
0001
0010
0100
1000
0001
0100
0010
0100
0001
,
1000
0100
1000
0001
0100
0010
0100
0001
1000
0001
0100
0010
0100
0001
1000
0100
,
0010
0100
1000
0001
1000
0100
0010
0001
1000
0001
0100
0001
1000
0010
1000
0001
,
1000
0010
0100
0001
1000
0001
1000
0100
1000
0001
0100
0010
1000
0001
0010
0100
,
1000
0001
1000
0100
1000
0001
0100
0010
0100
0001
1000
0010
0100
0010
1000
0001
,
1000
0100
0010
0001
1000
0001
0100
0001
1000
0010
0100
0010
1000
0001
0010
0100
,
1000
0001
1000
0100
1000
0001
0100
0010
0100
0001
1000
0010
0100
0010
1000
0001
,
1000
0100
0010
0001
1000
0100
1000
0001
0100
0010
0100
0001
1000
0100
1000
0001
,
0100
0010
1000
0010
1000
0001
0100
0001
1000
0001
0010
0100
1000
0001
0100
0001
,
1000
0010
0100
0001
1000
0001
0010
0100
1000
0001
0100
0010
0100
0001
1000
0010
,
1000
0100
0010
0001
1000
0010
0100
0001
0010
0001
1000
0010
1000
0001
0010
0001
,
1000
0010
0100
0001
1000
0100
0010
0001
0100
0001
1000
0100
1000
0001
0100
0001
,
2000
0000
0001
0000
0001
0000
3001
1000
,
0001
0000
0001
0000
0001
1000
0001
0000
,
1000
0100
0010
0100
1000
0001
0100
0010
0100
0010
1000
0001
0010
0100
0010
0001
,
1000
0100
1000
0001
0100
0010
1000
0001
1000
0001
0010
0100
1000
0001
0100
0001
,
1000
0100
0010
0001
1000
0001
0100
0010
0100
0010
1000
0001
1000
0100
0010
0001
,
1000
0010
0100
0010
1000
0001
0010
0100
0010
0100
1000
0001
0100
0001
0100
0010
,
1000
0001
0010
0100
1000
0100
0010
0001
0010
0001
1000
0010
0100
0010
1000
0001
,
0010
0100
1000
0100
0010
0001
1000
0010
1000
0010
0100
0001
1000
0100
0010
0100
,
1000
0001
0100
0010
0100
0001
1000
0100
1000
0100
0010
0001
1000
0010
0100
0010
,
1000
0001
0010
0100
1000
0001
0100
0001
0100
0010
1000
0001
0010
0100
0010
0100
,
1000
0010
0100
0010
1000
0001
0010
0100
0010
0100
1000
0001
0100
0010
0100
0001
,
1000
0010
1000
0001
0010
0100
1000
0001
1000
0001
0100
0010
1000
0001
0010
0001
,
1000
0010
0100
0001
1000
0001
0010
0100
0010
0100
1000
0001
1000
0010
0100
0001
,
1000
0100
0010
0100
1000
0001
0100
0010
0100
0010
1000
0001
0010
0001
0010
0100
,
1000
0001
0100
0010
1000
0010
0100
0001
0100
0001
1000
0100
0010
0100
1000
0001
,
0100
0010
1000
0010
0100
0001
1000
0100
1000
0100
0010
0001
1000
0010
0100
0010
,
1000
0001
0010
0100
0010
0001
1000
0010
1000
0010
0100
0001
1000
0100
0010
0100
,
1000
0001
0100
0010
1000
0001
0010
0001
0010
0100
1000
0010
0100
0001
0010
0100
,
1000
0001
0100
0001
1000
0100
0010
0001
1000
0001
0010
0001
1000
0010
0100
0001
,
1000
0100
0010
0100
1000
0001
0100
0010
0100
0001
0100
0010
1000
0001
0010
0100
,
1000
0100
0010
0001
1000
0010
0100
0001
0100
0010
0100
0001
1000
0100
0010
0100
,
1000
0001
0100
0010
1000
0001
0010
0100
1000
0100
0010
0100
1000
0001
0100
0001
,
1000
0100
0010
0100
1000
0001
0100
0001
1000
0001
0010
0100
1000
0001
0100
0001
,
1000
0100
0010
0001
0010
0100
1000
0001
1000
0010
1000
0001
0010
0100
1000
0001
,
0100
0010
0100
0001
1000
0100
0010
0001
1000
0001
0010
0001
1000
0010
0100
0001
,
1000
0100
1000
0001
0100
0010
1000
0001
0010
0100
1000
0010
0100
0001
0010
0100
,
1000
0100
0010
0001
1000
0010
0100
0001
0100
0010
0100
0001
1000
0100
1000
0001
,
0100
0010
1000
0001
0010
0001
1000
0100
0010
0100
1000
0100
0010
0001
1000
0001
,
0100
0010
1000
0010
0100
0001
1000
0001
0010
0001
1000
0010
0100
0010
1000
0001
,
0010
0100
1000
0001
0100
0001
1000
0100
0010
0100
1000
0100
0010
0001
1000
0001
,
0100
0010
1000
0001
0100
0001
1000
0100
1000
0001
1000
0010
0100
0010
1000
0001
,
0010
0100
1000
0001
0100
0001
1000
0100
0010
0100
1000
0100
0010
0001
1000
0010
,
0100
0001
1000
0100
0010
0001
1000
0010
0100
0010
1000
0010
0100
0001
1000
0100
,
0010
0110
0110
0110
,
0001
1000
0010
0100
,
0010
1000
0001
0010
,
0100
1000
0001
0100
,
0001
0000
1000
0000
0100
0000
0010
0001
,
1001
1000
0010
0100
,
0001
1000
0100
0010
,
0100
1000
0001
0100
,
0010
0000
0000
0000
1000
0000
0000
0000
0001
0000
1000
0001
1000
0000
0000
0000
,
0100
0010
0100
1000
0001
0100
0010
0100
,
0001
1000
0100
0010
0001
1000
0010
1000
,
0001
0010
0100
1000
0001
0100
0010
0100
,
0001
1000
0100
0010
0001
1000
0010
0100
,
0110
0010
1000
0001
0010
0100
1000
0001
,
0100
0001
1000
0100
0010
0001
1000
0010
,
0100
0001
1000
0100
1000
0001
0100
0010
,
2000
3000
0000
0000
0100
0000
0000
0000
0020
0000
0030
0000
0001
0000
0000
0000
2000
0000
0000
3000
0100
0000
0010
0000
0002
0000
0000
0000
0003
0000
0000
0000
,
1000
0000
0010
0100
0001
0000
1000
0000
0001
0000
0010
0000
0001
0000
1000
0000
,
0100
0000
0010
0100
1000
0000
0010
0000
1000
0000
0100
0000
1000
0000
0001
0000
,
0100
0000
0010
0100
0001
0000
0010
0000
0001
0000
1000
0000
0001
0000
0100
0000
,
0010
0000
1000
0100
1000
0000
0010
0000
1000
0000
0001
0000
1000
0000
1000
0000
,
0001
0000
0100
0010
1000
0000
0100
0000
1000
0000
0010
0000
1000
0000
0001
0000
,
0010
0000
0100
0010
0001
0000
0100
0000
0001
0000
0010
0000
0001
0000
1000
0000
,
0010
0000
0100
0010
1000
0000
0100
0000
1000
0000
0001
0000
1000
0000
0010
0000
,
0100
0000
0001
0010
0001
0000
0100
0000
0001
0000
1000
0001
1000
0000
0000
0000
,
1001
0000
0001
0010
0100
0000
1000
0000
0001
0000
0010
0000
0001
0000
1000
0000
,
0010
0000
0100
0001
1000
0000
0100
0000
1000
0000
0010
0000
1000
0000
0001
0000
,
0010
0000
0100
1000
0001
0000
0100
0000
0001
0000
1000
0000
0001
0000
0010
0000
,
0100
0000
0010
0001
1000
0000
0100
0000
1000
0000
0001
0000
1000
0000
1000
0000
,
0001
0000
1000
0100
0010
0000
0001
0000
1000
0000
0100
0000
1000
0000
0001
0000
,
0100
0000
0010
1000
0001
0000
0010
0000
0001
0000
0100
0000
0001
0000
1000
0000
,
0100
0010
0001
1000
0010
1000
0100
0010
0100
1000
0010
0100
0010
1000
0100
0010
,
0001
1000
0001
0100
0010
1000
0001
0010
0100
0010
0001
1000
0010
0100
0001
1000
,
0100
0010
0001
1000
0001
0100
0001
1000
0010
0100
0010
1000
0001
0010
0100
1000
,
0001
0010
0001
1000
0100
1000
0001
0100
0010
0100
0001
1000
0100
0010
0001
1000
,
0010
1000
0001
0100
0010
0100
0001
1000
0100
1000
0001
0100
0010
0100
0001
1000
,
0100
0010
0001
1000
0001
0100
0010
0100
0001
1000
0001
0010
0100
0010
0001
1000
,
0100
1000
0001
0100
0010
0100
0001
1000
0010
0100
0010
1000
0001
0100
0001
1000
,
0100
1000
0100
0010
0001
1000
0001
0100
0010
1000
0001
0100
0001
1000
0100
0010
,
0100
1000
0001
0010
0001
1000
0100
1000
0001
0100
0001
0100
0010
1000
0001
0100
,
0001
1000
0010
0100
0010
1000
0001
0100
0001
1000
0100
0010
0100
1000
0001
0100
,
0010
0100
0001
1000
0001
0100
0010
1000
0001
0010
0100
1000
0001
0100
0001
1000
,
0010
0100
0010
1000
0001
0010
0100
1000
0001
0100
0001
1000
0010
0100
0010
1000
,
0001
1000
0001
0100
0010
0100
0001
1000
0100
1000
0001
0010
0100
1000
0001
1000
,
0010
0100
0010
1000
0001
0100
0001
1000
0100
0010
0001
1000
0100
1000
0001
0100
,
0001
1000
0100
0010
0001
1000
0100
1000
0001
0010
0100
1000
0001
0100
0001
1000
,
0010
1000
0010
0100
0001
1000
0010
0100
0010
1000
0001
1000
0100
0010
0001
1000
,
0001
0100
0001
0100
0010
1000
0001
0100
0001
0100
0010
1000
0001
0010
0100
0010
,
0001
1000
0100
0010
0100
1000
0001
0010
0001
1000
0010
0100
0001
1000
0001
0100
,
0001
1000
0010
0100
0001
1000
0100
0010
0001
1000
0001
0100
0010
1000
0001
0010
,
0001
1000
0100
0010
0100
1000
0001
0010
0001
1000
0010
0100
0010
1000
0001
0100
,
0001
1000
0100
0010
0100
1000
0001
0100
0001
1000
0100
0010
0001
1000
0001
0100
,
0010
0100
0001
1000
0100
1000
0001
0100
0010
1000
0001
0100
0001
1000
0100
0010
,
0100
1000
0010
0100
0001
1000
0001
0010
0100
1000
0001
0100
0001
1000
0100
0010
,
0100
1000
0001
0100
0001
1000
0100
0010
0001
1000
0100
1000
0001
0100
0001
1000
,
0010
1000
0001
0100
0010
0100
0001
1000
0001
0100
0010
0100
0001
1000
0100
1000
,
0100
0010
0001
1000
0001
0100
0001
1000
0010
0100
0001
1000
0100
1000
0001
0100
,
0001
0100
0010
1000
0001
1000
0010
0100
0010
1000
0001
0100
0001
1000
0100
0010
,
0001
1000
0100
0010
0100
1000
0001
0100
0001
0100
0010
1000
0001
0100
0010
0100
,
0001
1000
0001
0100
0010
0100
0001
1000
0100
0010
0100
1000
0001
0100
0001
1000
,
0100
0010
0001
1000
0100
1000
0001
0100
0010
1000
0001
0100
0010
1000
0010
0100
,
0001
0001
0010
0100
1000
1000
0010
0100
,
0001
0001
0010
0100
1000
1000
0010
0100
,
0001
0100
0001
1000
0100
1000
0010
1000
0001
0010
0001
0100
0001
1000
0100
1000
,
0010
1000
0001
0010
0001
0100
0001
1000
0010
1000
0100
1000
0001
0100
0001
0010
,
0100
0000
0000
0000
,
0000
0000
0000
0000
,
1000
0000
1000
0000
1000
0001
1000
0000
,
0001
0010
0100
0010
0001
1000
0010
0100
0010
0100
0001
1000
0100
0010
0100
1000
,
0001
0010
0001
1000
0010
0100
0001
1000
0001
1000
0100
0010
0001
1000
0010
1000
,
0001
0010
0100
1000
0001
1000
0010
0100
0010
0100
0001
1000
0001
0010
0100
1000
,
0001
0100
0010
0100
0001
1000
0100
0010
0100
0010
0001
1000
0010
1000
0010
0100
,
0001
1000
0100
0010
0001
0010
0100
1000
0100
1000
0001
0100
0010
0100
0001
1000
,
0100
0010
0001
0010
0100
1000
0001
0100
0001
0100
0010
1000
0001
0010
0100
0010
,
0001
1000
0010
0100
0010
1000
0001
0010
0001
0010
0100
1000
0001
0100
0010
0100
,
0001
1000
0100
0010
0001
1000
0010
1000
0010
0100
0001
1000
0100
0010
0100
0010
,
0001
0100
0010
0100
0001
1000
0100
0010
0100
0010
0001
1000
0010
0100
0010
1000
,
0001
0100
0001
1000
0100
0010
0001
1000
0001
1000
0010
0100
0001
1000
0100
1000
,
0001
0100
0010
1000
0001
1000
0100
0010
0100
0010
0001
1000
0001
0100
0010
1000
,
0001
0010
0100
0010
0001
1000
0010
0100
0010
0100
0001
1000
0100
1000
0100
0010
,
0001
1000
0010
0100
0001
0100
0010
1000
0010
1000
0001
0010
0100
0010
0001
1000
,
0010
0100
0001
0100
0010
1000
0001
0010
0001
0010
0100
1000
0001
0100
0010
0100
,
0001
1000
0100
0010
0100
1000
0001
0100
0001
0100
0010
1000
0001
0010
0100
0010
,
0001
1000
0010
0100
0001
1000
0100
1000
0100
0010
0001
0100
0010
1000
0100
0010
,
0001
1000
0010
1000
0001
0010
0100
1000
0001
1000
0100
1000
0001
0100
0010
1000
,
0001
0010
0100
0010
0001
1000
0010
0100
0010
1000
0010
0100
0001
1000
0100
0010
,
0001
0010
0100
1000
0001
0100
0010
1000
0010
0100
0010
1000
0001
0010
0100
0010
,
0001
1000
0010
0100
0001
1000
0100
0010
0001
0010
0100
0010
0001
1000
0010
1000
,
0001
0010
0100
0010
0001
1000
0010
1000
0001
1000
0100
0010
0001
1000
0010
1000
,
0001
0010
0100
1000
0100
0010
0001
1000
0001
0100
0001
1000
0100
0010
0001
1000
,
0010
0100
0010
1000
0001
0010
0100
1000
0001
1000
0100
1000
0001
0100
0010
1000
,
0001
0010
0001
1000
0010
0100
0001
1000
0100
0010
0001
0100
0010
1000
0100
0010
,
0001
0010
0100
1000
0001
0100
0010
1000
0010
0100
0010
1000
0001
0010
0001
1000
,
0010
0100
0001
1000
0100
1000
0001
0010
0100
0010
0001
0010
0100
1000
0001
1000
,
0010
0100
0001
0100
0010
1000
0001
1000
0100
1000
0001
0100
0010
0100
0001
1000
,
0100
0010
0001
1000
0010
1000
0001
0010
0100
0010
0001
0010
0100
1000
0001
1000
,
0010
0100
0001
1000
0010
1000
0001
0010
0001
1000
0001
0100
0010
0100
0001
1000
,
0100
0010
0001
1000
0010
1000
0001
0010
0100
0010
0001
0010
0100
1000
0001
0100
,
0010
1000
0001
0010
0100
1000
0001
0100
0010
0100
0001
0100
0010
1000
0001
0010
,
0100
1000
0001
0100
0000
0010
1000
0001
,
1000
0001
0100
0001
1000
0100
0010
0001
1000
0001
0010
0001
1000
0010
0100
0001
,
1000
0100
0010
0100
1000
0001
0100
0010
0100
0001
0100
0010
1000
0001
0010
0100
,
1000
0100
0010
0001
1000
0010
0100
0001
0100
0010
0100
0001
1000
0100
0010
0100
,
1000
0001
0100
0010
1000
0001
0010
0100
1000
0100
0010
0100
1000
0001
0100
0001
,
1000
0100
0010
0100
1000
0001
0100
0001
1000
0001
0010
0100
1000
0001
0100
0001
,
1000
0100
0010
0001
0010
0100
1000
0001
1000
0010
1000
0001
0010
0100
1000
0001
,
0100
0010
0100
0001
1000
0100
0010
0001
1000
0001
0010
0001
1000
0010
0100
0001
,
1000
0100
1000
0001
0100
0010
1000
0001
0010
0100
1000
0010
0100
0001
0010
0100
,
1000
0100
0010
0001
1000
0010
0100
0001
0100
0010
0100
0001
1000
0100
1000
0001
,
0100
0010
1000
0001
0010
0001
1000
0100
0010
0100
1000
0100
0010
0001
1000
0001
,
0100
0010
1000
0010
0100
0001
1000
0001
0010
0001
1000
0010
0100
0010
1000
0001
,
0010
0100
1000
0001
0100
0001
1000
0100
0010
0100
1000
0100
0010
0001
1000
0001
,
0100
0010
1000
0001
0100
0001
1000
0100
1000
0001
1000
0010
0100
0010
1000
0001
,
0010
0100
1000
0001
0100
0001
1000
0100
0010
0100
1000
0100
0010
0001
1000
0010
,
0100
0001
1000
0100
0010
0001
1000
0010
0100
0010
1000
0010
0100
0001
1000
0100
,
0010
0000
0000
0000
0001
0000
0000
0000
1000
0000
0001
1000
0001
0000
0000
0000
,
1000
0001
0010
0001
1000
0010
0100
0001
1000
0001
0100
0001
1000
0100
0010
0001
,
1000
0010
0100
0010
1000
0001
0010
0100
0010
0001
0010
0100
1000
0001
0100
0010
,
1000
0010
0100
0001
1000
0100
0010
0001
0010
0100
0010
0001
1000
0010
0100
0010
,
1000
0001
0010
0100
1000
0001
0100
0010
1000
0010
0100
0010
1000
0001
0010
0001
,
1000
0010
0100
0010
1000
0001
0010
0001
1000
0001
0100
0010
1000
0001
0010
0001
,
1000
0010
0100
0001
0100
0010
1000
0001
1000
0100
1000
0001
0100
0010
1000
0001
,
0010
0100
0010
0001
1000
0010
0100
0001
1000
0001
0100
0001
1000
0100
0010
0001
,
1000
0010
1000
0001
0010
0100
1000
0001
0100
0010
1000
0100
0010
0001
0100
0010
,
1000
0010
0100
0001
1000
0100
0010
0001
0010
0100
0010
0001
1000
0010
1000
0001
,
0010
0100
1000
0001
0100
0001
1000
0010
0100
0010
1000
0010
0100
0001
1000
0001
,
0010
0100
1000
0100
0010
0001
1000
0001
0100
0001
1000
0100
0010
0100
1000
0001
,
0100
0010
1000
0001
0010
0001
1000
0010
0100
0010
1000
0010
0100
0001
1000
0001
,
0010
0100
1000
0001
0010
0001
1000
0010
1000
0001
1000
0100
0010
0100
1000
0001
,
0100
0010
1000
0001
0010
0001
1000
0010
0100
0010
1000
0010
0100
0001
1000
0100
,
0010
0001
1000
0010
0100
0001
1000
0100
0010
0100
1000
0100
0010
0001
1000
0010
,
0100
0001
1000
0100
0000
0010
0001
1000
,
0M00
00M0
000M
0M00
0000
0M00
0000
0M00
,
0000
0M00
0000
0000
0000
0000
0000
0000
;

//---------------dance-single - 17 (Fraxtil)----------------
#NOTES:
     dance-single:
     17 (Fraxtil):
     Hard:
     17:
     1.000,1.000,0.045,0.019,1.000,2713.000,12.000,5.000,19.000,0.000:
0000
0000
0000
0000
,
0000
0000
0000
0000
,
0000
0000
0000
0000
,
0000
0000
0000
0000
,
0000
0000
0000
0000
,
0000
0000
0000
0000
,
0000
0000
0000
0000
,
0000
0000
0000
0000
0000
0000
0000
0000
0000
0000
0000
0000
0000
0000
0000
0000
0000
0000
00M0
0M00
00M0
0M00
00M0
0M00
,
1001
0000
0001
0010
0100
1000
0001
0000
,
0100
0000
0010
0000
1000
0000
0001
0000
0010
0000
0100
0000
0010
0000
0001
1000
,
0010
0000
0000
0000
0100
0000
0001
0000
1000
0000
0100
0010
0001
0000
0000
0000
,
1000
0000
0010
0000
0100
0000
0001
0000
0000
0000
1000
0100
0010
0000
0100
1000
,
0001
0100
0010
1000
0001
0010
0100
0010
0001
1000
0100
1000
0001
0100
0001
1000
,
0010
0100
0001
1000
0100
0010
0001
1000
0001
0010
0100
1000
0001
0100
0010
1000
,
0001
0100
0001
1000
0100
0010
0001
1000
0100
0010
0100
1000
0001
0100
0001
1000
,
0001
0000
0000
0000
0000
0000
0000
0000
0000
0000
0000
0000
0000
0000
0000
0000
0000
0000
00M0
0M00
00M0
0M00
00M0
0M00
,
1001
1000
0100
0010
0100
1000
0001
0010
,
0001
0100
0010
1000
0010
0100
0001
0010
,
0001
1000
0100
0010
0100
1000
0001
0100
,
0010
1000
0100
1000
0001
1000
0010
1000
,
1001
0001
0010
0100
0010
0001
1000
0100
,
1000
0010
0100
0001
0100
0010
1000
0100
,
1000
0001
0010
0100
0010
0001
1000
0010
,
0100
0000
0001
0000
0010
0000
0001
0000
1000
0000
0001
1000
0001
0000
0000
0000
,
1001
0001
0100
0010
0100
0001
1000
0010
,
1000
0100
0010
0001
0010
0100
1000
0010
,
1000
0001
0100
0010
0100
0001
1000
0100
,
0010
0001
0100
0001
1000
0001
0010
0001
,
1000
0001
0010
0100
1000
0001
0100
0010
0100
0001
1000
0100
0010
0001
1000
0010
,
1000
0001
0010
0001
1000
0001
0100
0010
1000
0001
0010
0100
1000
0001
1000
0010
,
1000
0001
0010
0100
1000
0001
0100
0010
0100
0001
1000
0100
0010
0001
1000
0010
,
0100
0001
1000
0001
0010
0100
1000
0001
1000
0010
0100
0001
4000
0000
0000
0000
,
3001
0000
0010
0000
0100
0000
1000
0001
0100
0001
1000
0000
0100
0000
0010
0001
,
1000
0000
0010
0000
0100
0000
0001
1000
0010
1000
0001
0000
0010
0000
0100
1000
,
0001
0000
0100
0000
0010
0000
1000
0001
0010
0001
1000
0000
0100
0000
0010
0001
,
1000
0000
0010
0000
0100
0000
0001
1000
0100
1000
0001
0000
0100
0000
0010
1000
,
0001
0000
0100
0000
0010
0000
1000
0001
0010
0001
1000
0000
0010
0000
0100
0001
,
1000
0000
0100
0000
0010
0000
0001
1000
0100
1000
0001
0000
0100
0000
0010
1000
,
0001
0000
0010
0000
0100
0000
1000
0001
0100
0001
1000
0000
0010
0000
0100
0001
,
1000
0000
0100
0000
0010
0000
0001
1000
0010
0000
0100
0001
1000
0000
0000
0000
,
1001
0000
0001
0000
0010
0000
0100
0010
0100
0010
0100
0000
1000
0000
0001
0100
,
0001
0000
1000
0000
0100
0000
0010
0001
0010
0001
0010
0000
0100
0000
1000
0001
,
1000
0000
0010
0000
0100
0000
0001
0100
0001
0100
0001
0000
1000
0000
0100
0010
,
0100
0000
1000
0000
0001
0000
1000
0010
1000
0010
1000
0000
0001
0000
0010
0100
,
0010
0000
0001
0000
1000
0000
0001
0100
0001
0100
0001
0000
1000
0000
0100
0010
,
0100
0000
1000
0000
0001
0000
1000
0010
1000
0010
1000
0000
0001
0000
0010
0001
,
0010
0000
0100
0000
1000
0000
0001
0100
0001
0100
0001
0000
1000
0000
0100
0010
,
0100
0000
0010
0000
0001
0000
1000
0001
1000
0000
0010
0100
0001
0000
0000
0000
,
1000
0000
0001
0100
0001
0000
1000
0000
0100
0000
1000
0010
0000
0100
0001
1000
,
0001
0000
0010
0001
0010
0000
0100
0000
1000
0000
0010
0100
0000
0001
0100
0001
,
1000
0000
0001
0010
0001
0000
1000
0000
0010
0000
1000
0100
0000
0010
0100
1000
,
0001
0000
0100
0001
0100
0000
0010
0000
1000
0000
0100
0010
0000
0001
1000
0000
,
0001
0000
1000
0010
1000
0000
0001
0000
0010
0000
0001
0100
0000
0010
1000
0001
,
1000
0000
0100
1000
0100
0000
0010
0000
0001
0000
0100
0010
0000
1000
0010
1000
,
0001
0000
1000
0100
1000
0000
0001
0000
0100
0000
0001
0010
0000
0100
0010
0001
,
1000
0000
0010
1000
0010
0000
0100
0000
0001
0000
0010
0100
1000
0000
0000
0000
,
0001
0000
1000
0100
1000
0000
0001
0000
0100
0000
0001
0010
0000
0100
1000
0001
,
1000
0000
0010
1000
0010
0000
0100
0000
0001
0000
0010
0100
0000
1000
0100
1000
,
0001
0000
1000
0010
1000
0000
0001
0000
0010
0000
0001
0100
0000
0010
0100
0001
,
1000
0000
0100
1000
0100
0000
0010
0000
0001
0000
0100
0010
0000
1000
0001
0000
,
1000
0100
0010
0001
1000
0010
0100
0001
0010
0001
1000
0010
1000
0001
0010
0001
,
1000
0010
0100
0001
1000
0100
0010
0001
0100
0001
1000
0100
1000
0001
0100
0001
,
2000
0000
0001
0000
0001
0000
3001
1000
,
0001
0000
0001
0000
0001
1000
0001
0000
,
1000
0100
0010
0100
1000
0001
0100
0010
0100
0010
1000
0001
0010
0100
0010
0001
,
1000
0100
1000
0001
0100
0010
1000
0001
1000
0001
0010
0100
1000
0001
0100
0001
,
1000
0100
0010
0001
1000
0001
0100
0010
0100
0010
1000
0001
1000
0100
0010
0001
,
1000
0010
0100
0010
1000
0001
0010
0100
0010
0100
1000
0001
0100
0001
0100
0010
,
1000
0001
0010
0100
1000
0100
0010
0001
0010
0001
1000
0010
0100
0010
1000
0001
,
0010
0100
1000
0100
0010
0001
1000
0010
1000
0010
0100
0001
1000
0100
0010
0100
,
1000
0001
0100
0010
0100
0001
1000
0100
1000
0100
0010
0001
1000
0010
0100
0010
,
1000
0001
0010
0100
1000
0001
0100
0001
0100
0010
1000
0001
0010
0100
0010
0100
,
1000
0010
0100
0010
1000
0001
0010
0100
0010
0100
1000
0001
0100
0010
0100
0001
,
1000
0010
1000
0001
0010
0100
1000
0001
1000
0001
0100
0010
1000
0001
0010
0001
,
1000
0010
0100
0001
1000
0001
0010
0100
0010
0100
1000
0001
1000
0010
0100
0001
,
1000
0100
0010
0100
1000
0001
0100
0010
0100
0010
1000
0001
0010
0001
0010
0100
,
1000
0001
0100
0010
1000
0010
0100
0001
0100
0001
1000
0100
0010
0100
1000
0001
,
0100
0010
1000
0010
0100
0001
1000
0100
1000
0100
0010
0001
1000
0010
0100
0010
,
1000
0001
0010
0100
0010
0001
1000
0010
1000
0010
0100
0001
1000
0100
0010
0100
,
1000
0001
0100
0010
1000
0001
0010
0001
0010
0100
1000
0010
0100
0001
0010
0100
,
1000
0001
0100
0001
1000
0100
0010
0001
1000
0001
0010
0001
1000
0010
0100
0001
,
1000
0100
0010
0100
1000
0001
0100
0010
0100
0001
0100
0010
1000
0001
0010
0100
,
1000
0100
0010
0001
1000
0010
0100
0001
0100
0010
0100
0001
1000
0100
0010
0100
,
1000
0001
0100
0010
1000
0001
0010
0100
1000
0100
0010
0100
1000
0001
0100
0001
,
1000
0100
0010
0100
1000
0001
0100
0001
1000
0001
0010
0100
1000
0001
0100
0001
,
1000
0100
0010
0001
0010
0100
1000
0001
1000
0010
1000
0001
0010
0100
1000
0001
,
0100
0010
0100
0001
1000
0100
0010
0001
1000
0001
0010
0001
1000
0010
0100
0001
,
1000
0100
1000
0001
0100
0010
1000
0001
0010
0100
1000
0010
0100
0001
0010
0100
,
1000
0100
0010
0001
1000
0010
0100
0001
0100
0010
0100
0001
1000
0100
1000
0001
,
0100
0010
1000
0001
0010
0001
1000
0100
0010
0100
1000
0100
0010
0001
1000
0001
,
0100
0010
1000
0010
0100
0001
1000
0001
0010
0001
1000
0010
0100
0010
1000
0001
,
0010
0100
1000
0001
0100
0001
1000
0100
0010
0100
1000
0100
0010
0001
1000
0001
,
0100
0010
1000
0001
0100
0001
1000
0100
1000
0001
1000
0010
0100
0010
1000
0001
,
0010
0100
1000
0001
0100
0001
1000
0100
0010
0100
1000
0100
0010
0001
1000
0010
,
0100
0001
1000
0100
0010
0001
1000
0010
0100
0010
1000
0010
0100
0001
1000
0100
,
0010
0110
0110
0110
,
0001
1000
0010
0100
,
0010
1000
0001
0010
,
0100
1000
0001
0100
,
0001
0000
1000
0000
0100
0000
0010
0001
,
1001
1000
0010
0100
,
0001
1000
0100
0010
,
0100
1000
0001
0100
,
0010
0000
0000
0000
1000
0000
0000
0000
0001
0000
1000
0001
1000
0000
0000
0000
,
0100
0010
0100
1000
0001
0100
0010
0100
,
0001
1000
0100
0010
0001
1000
0010
1000
,
0001
0010
0100
1000
0001
0100
0010
0100
,
0001
1000
0100
0010
0001
1000
0010
0100
,
0110
0010
1000
0001
0010
0100
1000
0001
,
0100
0001
1000
0100
0010
0001
1000
0010
,
0100
0001
1000
0100
1000
0001
0100
0010
,
2000
3000
0000
0000
0100
0000
0000
0000
0020
0000
0030
0000
0001
0000
0000
0000
2000
0000
0000
3000
0100
0000
0010
0000
0002
0000
0000
0000
0003
0000
0000
0000
,
1000
0000
0010
0100
0001
0000
0010
0000
0001
0000
0100
0000
0001
0000
1000
0000
,
0100
0000
0010
0100
1000
0000
0010
0000
1000
0000
0100
0000
1000
0000
0001
0000
,
0100
0000
0010
0100
0001
0000
0010
0000
0001
0000
1000
0000
0001
0000
0100
0000
,
0010
0000
1000
0100
1000
0000
0010
0000
1000
0000
0001
0000
1000
0000
1000
0000
,
0001
0000
0100
0010
1000
0000
0100
0000
1000
0000
0010
0000
1000
0000
0001
0000
,
0010
0000
0100
0010
0001
0000
0100
0000
0001
0000
0010
0000
0001
0000
1000
0000
,
0010
0000
0100
0010
1000
0000
0100
0000
1000
0000
0001
0000
1000
0000
0010
0000
,
0100
0000
0001
0010
0001
0000
0100
0000
0001
0000
1000
0001
1000
0000
0000
0000
,
1001
0000
0001
0010
0100
0000
1000
0000
0001
0000
0010
0000
0001
0000
1000
0000
,
0010
0000
0100
0001
1000
0000
0100
0000
1000
0000
0010
0000
1000
0000
0001
0000
,
0010
0000
0100
1000
0001
0000
0100
0000
0001
0000
1000
0000
0001
0000
0010
0000
,
0100
0000
0010
0001
1000
0000
0100
0000
1000
0000
0001
0000
1000
0000
1000
0000
,
0001
0000
1000
0100
0010
0000
0001
0000
1000
0000
0100
0000
1000
0000
0001
0000
,
0100
0000
0010
1000
0001
0000
0010
0000
0001
0000
0100
0000
0001
0000
1000
0000
,
0100
0010
0001
1000
0010
1000
0100
0010
0100
1000
0010
0100
0010
1000
0100
0010
,
0001
1000
0001
0100
0010
1000
0001
0010
0100
0010
0001
1000
0010
0100
0001
1000
,
0100
0010
0100
0000
1000
0001
1000
0000
0001
0100
0001
0000
1000
0010
1000
0000
,
0001
0010
0001
0000
1000
0100
1000
0000
0001
0100
0001
0000
0100
0010
0100
0000
,
0001
1000
0001
0000
0010
0001
0010
0000
0100
1000
0100
0000
1000
0001
1000
0000
,
0001
0100
0001
0000
1000
0010
1000
0000
0001
0010
0001
0000
1000
0001
1000
0000
,
0010
1000
0010
0000
0100
0001
0100
0000
0010
0100
0010
0000
1000
0001
1000
0000
,
0100
1000
0100
0000
0010
0001
0010
0000
0001
1000
0001
0000
1000
0010
1000
0000
,
0001
0100
0001
0000
1000
0100
1000
0000
0001
0010
0001
0000
1000
0010
1000
0000
,
0001
0100
0001
0000
0100
0010
0100
0000
0001
0000
1000
0001
1000
0000
0000
0000
,
0010
0100
0010
0000
1000
0001
1000
0000
0001
0010
0001
0000
1000
0100
1000
0000
,
0001
0100
0001
0000
1000
0010
1000
0000
0001
0010
0001
0000
0010
0100
0010
0000
,
0001
1000
0001
0000
0100
0001
0100
0000
0010
1000
0010
0000
1000
0001
1000
0000
,
0001
0010
0001
0000
1000
0100
1000
0000
0001
0100
0001
0000
1000
0001
1000
0000
,
0100
1000
0100
0000
0010
0001
0010
0000
0100
0010
0100
0000
1000
0001
1000
0000
,
0010
1000
0010
0000
0100
0001
0100
0000
0001
1000
0001
0000
1000
0100
1000
0000
,
0001
0010
0001
0000
1000
0010
1000
0000
0001
0100
0001
0000
1000
0100
1000
0000
,
0001
0010
0001
0000
0010
0100
0010
0000
0001
0000
1000
0001
1000
0000
0000
0000
,
0001
0100
0010
0000
1000
0001
0010
0000
0100
0010
0001
0000
1000
0010
0100
0000
,
0001
1000
0100
0000
0010
0100
1000
0000
0001
0100
0010
0000
1000
0001
0010
0000
,
0100
1000
0001
0000
0100
0010
1000
0000
0001
0010
0100
0000
0010
0001
1000
0000
,
0010
0100
0001
0000
1000
0100
0010
0000
0100
1000
0001
0000
1000
0000
1000
0000
,
0001
0010
0100
0000
1000
0001
0100
0000
0010
0100
0001
0000
1000
0100
0010
0000
,
0001
1000
0010
0000
0100
0010
1000
0000
0001
0010
0100
0000
1000
0001
0100
0000
,
0010
1000
0001
0000
0010
0100
1000
0000
0001
0100
0010
0000
0100
0001
1000
0000
,
0100
0010
0001
0000
1000
0010
0100
0000
0010
0000
1000
0001
1000
0000
0000
0000
,
0001
0100
0010
0000
1000
0001
0010
0000
0100
0010
0001
0000
1000
0010
0100
0000
,
0001
1000
0100
0000
0010
0100
1000
0000
0001
0100
0010
0000
1000
0001
0010
0000
,
0100
1000
0001
0000
0100
0010
1000
0000
0001
0010
0100
0000
0010
0001
1000
0000
,
0010
0100
0001
0000
1000
0100
0010
0000
0100
1000
0001
0000
1000
0000
1000
0000
,
0001
0001
0010
0100
1000
1000
0010
0100
,
0001
0001
0010
0100
1000
1000
0010
0100
,
0001
0100
0001
1000
0100
1000
0010
1000
0001
0010
0001
0100
0001
1000
0100
1000
,
0010
1000
0001
0010
0001
0100
0001
1000
0010
1000
0100
1000
0001
0100
0001
0010
,
0100
0000
0000
0000
,
0000
0000
0000
0000
,
1000
0000
1000
0000
1000
0001
1000
0000
,
0001
0010
0100
0010
0001
1000
0010
0100
0010
0100
0001
1000
0100
0010
0100
1000
,
0001
0010
0001
1000
0010
0100
0001
1000
0001
1000
0100
0010
0001
1000
0010
1000
,
0001
0010
0100
1000
0001
1000
0010
0100
0010
0100
0001
1000
0001
0010
0100
1000
,
0001
0100
0010
0100
0001
1000
0100
0010
0100
0010
0001
1000
0010
1000
0010
0100
,
0001
1000
0100
0010
0001
0010
0100
1000
0100
1000
0001
0100
0010
0100
0001
1000
,
0100
0010
0001
0010
0100
1000
0001
0100
0001
0100
0010
1000
0001
0010
0100
0010
,
0001
1000
0010
0100
0010
1000
0001
0010
0001
0010
0100
1000
0001
0100
0010
0100
,
0001
1000
0100
0010
0001
1000
0010
1000
0010
0100
0001
1000
0100
0010
0100
0010
,
0001
0100
0010
0100
0001
1000
0100
0010
0100
0010
0001
1000
0010
0100
0010
1000
,
0001
0100
0001
1000
0100
0010
0001
1000
0001
1000
0010
0100
0001
1000
0100
1000
,
0001
0100
0010
1000
0001
1000
0100
0010
0100
0010
0001
1000
0001
0100
0010
1000
,
0001
0010
0100
0010
0001
1000
0010
0100
0010
0100
0001
1000
0100
1000
0100
0010
,
0001
1000
0010
0100
0001
0100
0010
1000
0010
1000
0001
0010
0100
0010
0001
1000
,
0010
0100
0001
0100
0010
1000
0001
0010
0001
0010
0100
1000
0001
0100
0010
0100
,
0001
1000
0100
0010
0100
1000
0001
0100
0001
0100
0010
1000
0001
0010
0100
0010
,
0001
1000
0010
0100
0001
1000
0100
1000
0100
0010
0001
0100
0010
1000
0100
0010
,
0001
1000
0010
1000
0001
0010
0100
1000
0001
1000
0100
1000
0001
0100
0010
1000
,
0001
0010
0100
0010
0001
1000
0010
0100
0010
1000
0010
0100
0001
1000
0100
0010
,
0001
0010
0100
1000
0001
0100
0010
1000
0010
0100
0010
1000
0001
0010
0100
0010
,
0001
1000
0010
0100
0001
1000
0100
0010
0001
0010
0100
0010
0001
1000
0010
1000
,
0001
0010
0100
0010
0001
1000
0010
1000
0001
1000
0100
0010
0001
1000
0010
1000
,
0001
0010
0100
1000
0100
0010
0001
1000
0001
0100
0001
1000
0100
0010
0001
1000
,
0010
0100
0010
1000
0001
0010
0100
1000
0001
1000
0100
1000
0001
0100
0010
1000
,
0001
0010
0001
1000
0010
0100
0001
1000
0100
0010
0001
0100
0010
1000
0100
0010
,
0001
0010
0100
1000
0001
0100
0010
1000
0010
0100
0010
1000
0001
0010
0001
1000
,
0010
0100
0001
1000
0100
1000
0001
0010
0100
0010
0001
0010
0100
1000
0001
1000
,
0010
0100
0001
0100
0010
1000
0001
1000
0100
1000
0001
0100
0010
0100
0001
1000
,
0100
0010
0001
1000
0010
1000
0001
0010
0100
0010
0001
0010
0100
1000
0001
1000
,
0010
0100
0001
1000
0010
1000
0001
0010
0001
1000
0001
0100
0010
0100
0001
1000
,
0100
0010
0001
1000
0010
1000
0001
0010
0100
0010
0001
0010
0100
1000
0001
0100
,
0010
1000
0001
0010
0100
1000
0001
0100
0010
0100
0001
0100
0010
1000
0001
0010
,
0100
1000
0001
0100
0000
0010
1000
0001
,
1000
0001
0100
0001
1000
0100
0010
0001
1000
0001
0010
0001
1000
0010
0100
0001
,
1000
0100
0010
0100
1000
0001
0100
0010
0100
0001
0100
0010
1000
0001
0010
0100
,
1000
0100
0010
0001
1000
0010
0100
0001
0100
0010
0100
0001
1000
0100
0010
0100
,
1000
0001
0100
0010
1000
0001
0010
0100
1000
0100
0010
0100
1000
0001
0100
0001
,
1000
0100
0010
0100
1000
0001
0100
0001
1000
0001
0010
0100
1000
0001
0100
0001
,
1000
0100
0010
0001
0010
0100
1000
0001
1000
0010
1000
0001
0010
0100
1000
0001
,
0100
0010
0100
0001
1000
0100
0010
0001
1000
0001
0010
0001
1000
0010
0100
0001
,
1000
0100
1000
0001
0100
0010
1000
0001
0010
0100
1000
0010
0100
0001
0010
0100
,
1000
0100
0010
0001
1000
0010
0100
0001
0100
0010
0100
0001
1000
0100
1000
0001
,
0100
0010
1000
0001
0010
0001
1000
0100
0010
0100
1000
0100
0010
0001
1000
0001
,
0100
0010
1000
0010
0100
0001
1000
0001
0010
0001
1000
0010
0100
0010
1000
0001
,
0010
0100
1000
0001
0100
0001
1000
0100
0010
0100
1000
0100
0010
0001
1000
0001
,
0100
0010
1000
0001
0100
0001
1000
0100
1000
0001
1000
0010
0100
0010
1000
0001
,
0010
0100
1000
0001
0100
0001
1000
0100
0010
0100
1000
0100
0010
0001
1000
0010
,
0100
0001
1000
0100
0010
0001
1000
0010
0100
0010
1000
0010
0100
0001
1000
0100
,
0010
0000
0000
0000
0001
0000
0000
0000
1000
0000
0001
1000
0001
0000
0000
0000
,
1000
0001
0010
0001
1000
0010
0100
0001
1000
0001
0100
0001
1000
0100
0010
0001
,
1000
0010
0100
0010
1000
0001
0010
0100
0010
0001
0010
0100
1000
0001
0100
0010
,
1000
0010
0100
0001
1000
0100
0010
0001
0010
0100
0010
0001
1000
0010
0100
0010
,
1000
0001
0010
0100
1000
0001
0100
0010
1000
0010
0100
0010
1000
0001
0010
0001
,
1000
0010
0100
0010
1000
0001
0010
0001
1000
0001
0100
0010
1000
0001
0010
0001
,
1000
0010
0100
0001
0100
0010
1000
0001
1000
0100
1000
0001
0100
0010
1000
0001
,
0010
0100
0010
0001
1000
0010
0100
0001
1000
0001
0100
0001
1000
0100
0010
0001
,
1000
0010
1000
0001
0010
0100
1000
0001
0100
0010
1000
0100
0010
0001
0100
0010
,
1000
0010
0100
0001
1000
0100
0010
0001
0010
0100
0010
0001
1000
0010
1000
0001
,
0010
0100
1000
0001
0100
0001
1000
0010
0100
0010
1000
0010
0100
0001
1000
0001
,
0010
0100
1000
0100
0010
0001
1000
0001
0100
0001
1000
0100
0010
0100
1000
0001
,
0100
0010
1000
0001
0010
0001
1000
0010
0100
0010
1000
0010
0100
0001
1000
0001
,
0010
0100
1000
0001
0010
0001
1000
0010
1000
0001
1000
0100
0010
0100
1000
0001
,
0100
0010
1000
0001
0010
0001
1000
0010
0100
0010
1000
0010
0100
0001
1000
0100
,
0010
0001
1000
0010
0100
0001
1000
0100
0010
0100
1000
0100
0010
0001
1000
0010
,
0100
0001
1000
0100
0000
0010
0001
1000
,
0M00
00M0
000M
0M00
0000
0M00
0000
0M00
,
0000
0M00
0000
0000
0000
0000
0000
0000
;
