#TITLE:Club;
#SUBTITLE:;
#ARTIST:Patt .22;
#TITLETRANSLIT:;
#SUBTITLETRANSLIT:;
#ARTISTTRANSLIT:;
#CREDIT:;
#BANNER:;
#BACKGROUND:;
#LYRICSPATH:;
#CDTITLE:;
#MUSIC:club.mp3;
#OFFSET:0.000;
#SAMPLESTART:100.000;
#SAMPLELENGTH:12.000;
#SELECTABLE:YES;
#BPMS:0.000=120.000;
#STOPS:;
#BGCHANGES:;
// cache tags:
#FIRSTBEAT:0.000;
#LASTBEAT:518.500;
#SONGFILENAME:Songs/IzzySM Keyboard Mega Pack/club/club.sm;
#HASMUSIC:1;
#HASBANNER:0;
#MUSICLENGTH:261.545;
// end cache tags

//---------------dance-single - BEGINNER----------------
#NOTES:
     dance-single:
     BEGINNER:
     Beginner:
     10:
     0.001,0.000,0.004,0.000,0.000,1.000,1.000,0.000,0.000,0.000:



0000
0000
0000
0000
0000
0000
0000
1100
,;

//---------------dance-single - MANIAC----------------
#NOTES:
     dance-single:
     MANIAC:
     Hard:
     10:
     1.000,1.000,1.000,0.000,1.000,1602.000,993.000,0.000,0.000,0.000:

1000
0100
0010
0001
,
0010
0100
1000
0001
,
1000
0010
1000
0100
,
1000
0010
1000
0001
,
1001
0000
0000
0000
1001
0000
0000
0000
1001
0000
0000
0000
1001
0000
0010
0100
,
1001
0000
0000
0000
1001
0000
0000
0000
1001
0000
0000
0000
1001
0000
0010
0100
,
1001
0000
0000
0000
1001
0000
0000
0000
1001
0000
0000
0000
1001
0000
0100
1000
,
0011
0000
0000
0000
0011
0000
0000
0000
0011
0000
0000
0000
0011
0000
0010
0001
,
1100
0000
0000
0000
1100
0000
0000
0000
1100
0000
0000
0000
1100
0000
1000
0001
,
0110
0000
0000
0000
0110
0000
0000
0000
0110
0000
0000
0000
0110
0000
0001
1000
,
0110
0000
0000
0000
0110
0000
0000
0000
0110
0000
0000
0000
0110
0000
1000
0010
,
1010
1010
1010
1010
,
1000
0000
1000
0000
1000
0000
1000
0000
1001
0000
0000
1001
0000
0000
1000
0001
,
0000
0000
0000
0000
0000
0000
0000
0000
1001
0000
0000
1001
0000
0000
1000
0001
,
0000
0000
0000
0000
0000
0000
0000
0000
1001
0000
0000
1001
0000
0000
0001
1000
,
0000
0000
0000
0000
0000
0000
0000
0000
1001
0000
0000
1001
0000
0000
1001
1001
,
0000
0110
0000
0000
0000
0000
0000
0000
1001
0000
0000
1001
0000
0000
0110
0110
,
0000
0000
0000
0000
0000
0000
0000
0000
0110
0000
0000
0110
0000
0000
1001
1001
,
0000
0000
0000
0000
0000
0000
0000
0000
1001
0000
0000
1001
0000
0000
0001
0100
,
0000
0000
0000
0000
0000
0000
0000
0000
0101
0000
0000
0101
0000
0000
0100
0010
,
0000
0000
0000
0000
,
0000
0000
0000
0000
,
1100
1100
1100
1100
1100
1100
1010
1010
1010
1010
1000
1001
1001
1001
0101
0101
,
0101
0011
0011
0011
0011
0101
1010
1100
0011
0110
1001
1100
0101
1010
0101
0110
,
1010
0101
0110
0101
0011
1100
0110
1100
0011
0110
1100
0110
0001
1000
0010
0001
,
0100
1000
0100
0010
0001
0010
0100
1000
0100
0010
0001
0010
0100
1000
1100
0011
,
0110
1100
0110
0110
0011
1001
1001
1010
1100
1001
0101
0011
1001
1010
1001
0101
,
1001
1100
0011
0001
0001
1100
0001
0010
0100
1100
0001
0010
0110
0000
0110
1000
,
0100
0001
0010
0100
0000
0001
1100
0001
0010
0110
1000
0100
1000
0011
0000
0100
,
1010
0001
0000
1100
0000
0001
0010
0100
1000
0010
0100
1000
1000
0100
0010
0001
,
0010
0100
1000
0100
0010
0001
1000
0100
0010
0001
1000
0100
0001
0010
1000
0001
,
0100
0010
1000
0001
0010
0100
0001
1000
0010
0100
0100
1010
1100
1001
0110
0101
,
1010
0110
1100
0010
0001
0110
1000
1100
0110
0011
0110
1100
0110
0011
0110
1100
,
0110
0011
0110
1100
0110
0011
0110
1100
0110
1001
0110
1001
1010
1001
0101
1010
,
1001
0110
1010
1001
1010
0101
0011
1010
1100
0000
1100
0101
0010
0100
1100
0110
,
0011
1010
1100
1100
1010
1001
1000
0001
0010
0100
1000
0100
0010
0001
0010
0100
,
0001
0010
0100
0010
0100
1000
0100
1000
0001
0010
0100
1000
1010
0101
0011
1100
,
0110
1010
0110
0011
0110
1100
0110
0011
0101
0110
1010
0110
0101
0110
1010
0110
,
0101
1001
1001
1001
,
1001
1001
1001
1001
,
1001
1001
1001
1001
1001
1001
1001
1001
1001
1001
1001
1001
1001
1001
1001
1001
,
1010
1010
1010
1010
1010
1010
1010
1010
1010
1010
1010
1010
1010
1010
1010
1010
,
1001
1001
1001
1001
1001
1001
1001
1001
1001
1001
1001
1001
1001
1001
1001
1001
,
1100
1100
1100
1100
1100
1100
1100
1100
1100
1100
1100
1100
1100
1100
1100
1100
,
0110
0110
0110
0110
0110
0110
0110
0110
0110
0110
0110
0110
0110
0110
0110
0110
,
0011
0011
0011
0011
0011
0011
0011
0011
0011
0011
0011
0011
0011
0011
0011
0011
,
1100
1100
1100
1100
1100
1100
1100
1100
1100
1100
1100
1100
1100
1100
1100
1100
,
1010
1010
1010
1010
1010
1010
1010
1010
1010
1010
1010
1010
1010
1010
1010
1010
,
1100
1010
1100
1001
1100
1010
1100
1001
1100
1010
1100
1001
1100
1010
1100
1001
,
0011
0101
0011
1001
0011
0101
0011
1001
0011
0101
0011
1001
0011
0101
0011
1001
,
0110
0101
0110
1100
0110
0101
0110
1100
0110
0101
0110
1100
0110
0101
0110
1100
,
0110
0011
0110
1010
0110
0011
0110
1010
0110
0011
0110
1010
0110
0011
0110
1010
,
0110
1010
0110
0101
0110
1010
0110
0101
0110
1010
0110
0101
0110
1010
0110
0101
,
1001
0101
1001
0011
1001
0101
1001
0011
1001
0101
1001
0011
1001
0101
1001
0011
,
1001
1100
1001
1010
1001
1100
1001
1010
1001
1100
1001
1010
1001
1100
1001
1010
,
1100
1100
1010
1010
1100
1010
1001
1100
0110
0101
1010
0110
1001
0110
0101
1010
,
1001
1010
1001
0101
1001
1010
1001
0101
1001
1010
1001
0101
1001
1010
1001
0101
,
1000
0001
1000
0001
1000
0001
1000
0001
1000
0001
1000
0001
1000
0001
1000
0001
,
1000
0010
1000
0010
1000
0010
1000
0010
1000
0010
1000
0010
1000
0010
1000
0010
,
1000
0001
1000
0001
1000
0001
1000
0001
1000
0001
1000
0001
1000
0001
1000
0001
,
0001
0100
0001
0100
0001
0100
0001
0100
0001
0100
0001
0100
0001
0100
0001
0100
,
0001
1000
0001
1000
0001
1000
0001
1000
0001
1000
0001
1000
0001
1000
0001
1000
,
0001
0010
0001
0010
0001
0010
0001
0010
0001
0010
0001
0010
0001
0010
0001
0010
,
0100
0010
0100
0010
0100
0010
0100
0010
0100
0010
0100
0010
0100
0010
0100
0010
,
1001
1010
1100
1010
1001
0101
0011
0110
1001
0110
1010
0101
1010
0101
0010
0110
,
1000
1000
0100
0010
0001
0010
0100
1000
0100
0010
0001
1100
1010
0001
0010
0100
,
0100
0100
0100
0110
0010
0010
0010
0010
1001
1001
1001
1001
1010
1010
0100
0010
,
0001
0100
1000
0010
0001
1000
0100
0001
0010
1000
0100
0010
0001
1000
0100
0011
,
1100
0011
1100
0010
1100
0001
0100
0110
1100
0010
1010
0101
1010
0101
0110
0110
,
1100
1010
1001
1010
0110
0101
0110
1010
1100
1010
1010
1001
0101
0011
1001
0101
,
1010
0110
1001
0110
0011
1001
0110
1001
0110
1001
0110
1001
0110
1001
0110
1001
,
0110
1001
0011
1001
1100
1001
0110
1001
0110
1001
0110
1001
1010
1100
1010
1001
,
1001
0000
0000
0000
1001
0000
0000
0000
1001
0000
0000
0000
1001
0000
0010
0100
,
0110
0000
0000
0000
0110
0000
0000
0000
0110
0000
0000
0000
0110
0000
0010
1000
,
1010
0000
0000
0000
1010
0000
0000
0000
1010
0000
0000
0000
1010
0000
0010
0001
,
0011
0000
0000
0000
0011
0000
0000
0000
0011
0000
0000
0000
0011
0000
0001
0100
,
0110
0000
0000
0000
1001
0000
0000
0000
1001
0000
0000
0000
1001
0000
0001
0100
,
0010
0000
0000
0000
0100
0000
0000
0000
1000
0000
0000
0000
0001
0000
0010
0100
,
1001
0000
0000
0000
0001
0000
0000
0000
0001
0000
0000
0000
0001
0000
0010
0100
,
1001
0000
0000
0000
0000
0000
0000
0000
0000
0000
0000
0000
0000
0000
0000
1000
,
1000
1000
0100
0010
0000
1000
1000
1000
1000
1000
0100
0010
0100
0000
0000
1000
,
1000
1000
0100
0010
0000
1000
1000
1000
1000
1000
0100
0010
0100
0000
0000
0001
,
0001
0001
0001
0100
0000
0001
0001
0001
0001
0001
0001
0100
0010
0000
0000
1000
,
1000
1000
0100
0010
0000
1000
1000
1000
1000
1000
0100
0010
0100
0000
0000
1001
,
1001
1001
1010
1100
0000
1001
1001
1001
1001
1001
1100
1010
0101
0000
0000
1001
,
1001
1001
0101
0011
0000
1001
1001
1001
1001
1001
1010
0101
0110
0000
0000
0101
,
0101
0101
0101
0011
0000
0101
0101
0101
0101
0101
1001
0011
0000
0000
0000
1001
,
1001
1001
1010
1100
0000
1001
1001
1001
1010
1100
1010
0000
0000
0000
0000
1001
,
1010
1100
1000
0100
0000
1001
1001
1001
1001
1001
0101
0011
0110
0000
0000
1001
,
0110
1001
1010
1100
0101
0110
0100
1100
0010
0001
0110
1100
0011
0110
1001
0110
,
1010
0101
0001
0010
0100
1000
0100
0001
1000
0110
1000
0011
1000
0110
1000
1000
,
0100
0010
0001
0010
0000
1000
0100
0010
0001
0010
0100
1000
0100
0101
0010
1010
,
1000
1001
0110
0101
0110
1010
0010
0101
0000
1000
0100
0010
0001
1000
0100
1000
,
0100
0001
0010
0001
0010
1000
0100
1000
0100
0001
0010
0001
0010
1000
0100
0001
,
0010
1000
0001
0100
0010
1000
0001
0100
0010
1000
0001
0100
0010
1000
0001
0100
,
0010
0101
1010
0101
0110
1010
0101
1010
0110
1010
0110
0001
1001
0110
1100
1000
,
0100
0010
1000
0100
0010
1000
0100
0010
0010
0010
0010
0000
0000
0000
0000
1000
,
0100
0010
0100
1000
0010
0001
0000
1000
0100
0010
0100
1000
0000
0000
0000
1000
,
0100
0010
0001
1000
0100
0010
0001
1000
1000
1000
1000
0000
0000
0000
0000
0001
,
0010
1000
0100
0010
0001
0110
0000
0001
1000
0110
1000
0001
0000
0000
0000
1001
,
1010
1100
1010
1001
0110
0110
1001
1010
0110
0110
1001
0101
0110
1001
1010
1100
,
1100
0101
0110
0110
1100
0110
0011
0110
0011
1100
1100
0110
1100
0011
1000
0100
,
0010
0001
0010
0100
1000
0000
0000
1000
0100
0010
0001
0010
0100
1000
0100
0010
,
0001
0000
1001
0110
0101
1100
0010
1010
0110
0100
0100
1000
0000
0000
0000
1001
,
1001
1001
1001
0110
0000
1001
1001
1001
1001
1001
1001
0011
1100
0000
0000
0001
,
0010
0100
1000
0100
0000
0001
0010
0100
1000
0100
0010
0001
0010
0000
0000
1100
,
1010
1100
1010
1100
1010
1100
1010
1100
1010
1100
1010
1100
1010
1100
1010
1100
,
0011
0101
0011
0101
0011
0101
0011
0101
0011
0101
0011
0101
0011
0101
0011
0101
,
0110
0100
0110
0010
0110
0100
0110
0010
0110
0100
0110
0010
0110
0100
0110
0010
,
1001
1000
1001
0001
1001
1000
1001
0001
1001
1000
1001
0001
1001
1000
1001
0001
,
1001
1000
1001
0001
1001
1000
1001
0001
1001
1000
1001
0001
1001
1000
1001
0001
,
0000
0000
0000
0110
0001
1000
0110
1001
1000
1001
0110
0101
1000
0100
0001
0100
,
1000
0011
1000
0100
0010
1000
0001
0100
0010
1000
0001
1100
0100
0010
1000
0011
,
0100
0110
1000
1001
0100
0110
1001
0100
0010
0100
1001
0100
0110
1001
0101
1001
,
1001
1001
1001
1001
1001
1001
1001
1001
1001
1001
1001
1001
1001
1001
1001
1001
,
0110
0110
0110
0110
0110
0110
0110
0110
0110
0110
0110
0110
0110
0110
0110
0110
,
1010
1010
1010
1010
1010
1010
1010
1010
1010
1010
1010
1010
1010
1010
1010
1010
,
0101
0101
0101
0101
0101
0101
0101
0101
0101
0101
0101
0101
0101
0101
0101
0101
,
0011
0011
0011
0011
0011
0011
0011
0011
0011
0011
0011
0011
0011
0011
0011
0011
,
1100
1100
1100
1100
1100
1100
1100
1100
1100
1100
1100
1100
1100
1100
1100
1100
,
1100
1010
1001
1010
1100
1010
1001
1010
1100
1010
1001
1010
1100
1010
1001
1010
,
0011
0101
1001
0101
0011
0101
1001
0101
0011
0101
1000
0101
0011
0101
1001
0101
,
1001
0110
0011
1100
0101
1010
0110
1001
1010
0101
0110
1001
0110
1001
0110
1100
,
0011
0000
0000
0000
,
1100
0011
1100
0011
1100
0011
1100
0011
1100
0011
1100
0011
1100
0011
1100
0011
,
1010
0101
1010
0101
1010
0101
1010
0101
1010
0101
1010
0101
1010
0101
1010
0101
,
0000
0000
0000
0000
0000
0000
0000
0000
0000
0000
0000
0000
0000
0000
0000
1000
,
0100
0010
0001
0010
0000
1000
0100
0010
0001
0010
0100
1000
0100
0000
0000
0000
,
1000
1000
1000
1000
1000
1000
1000
1000
1000
1000
1000
1000
1000
1000
1000
1000
,
1010
0000
0000
0000
0000
1010
0000
0000
,;

//---------------dance-single - ----------------
#NOTES:
     dance-single:
     :
     Challenge:
     1:
     0.225,0.543,0.440,0.031,0.262,285.000,115.000,8.000,0.000,2.000:
1000
1000
1000
1000
,
0100
0100
0100
0100
,
0010
0010
0010
0010
,
0001
0001
0001
0001
,
1001
0000
0000
0000
1001
0000
0000
0000
1001
0000
0000
0000
1001
0000
0100
0010
,
0110
0000
0000
0000
0110
0000
0000
0000
0110
0000
0000
0000
0110
0000
1000
0001
,
0011
0000
0000
0000
0011
0000
0000
0000
0011
0000
0000
0000
0011
0000
0010
0001
,
1100
0000
0000
0000
1100
0000
0000
0000
1100
0000
0000
0000
1100
0000
0010
0100
,
1000
1000
1000
1000
0100
0010
0100
1000
,
1000
0100
0010
0001
0010
0001
0100
1000
,
0100
0010
1000
0010
0100
0010
0100
0010
,
0100
1000
0100
0010
0100
1000
0010
0100
,
0010
0000
0100
0000
0010
0000
1000
0000
0011
0000
0000
0110
0000
0000
0011
0011
,
0000
0000
0000
0000
0000
0000
0000
0000
0110
0000
0000
0110
0000
0000
1000
0001
,
0000
0000
0000
0000
0000
0000
0000
0000
1001
0000
0000
1001
0000
0000
0100
0010
,
0000
0000
0000
0000
0000
0000
0000
0000
0011
0000
0000
1100
0000
0000
0011
1100
,
0000
2222
0000
0000
0000
3333
0000
0000
0110
0000
0000
1100
0000
0000
0110
0011
,
0000
0000
0000
0000
0000
0000
0000
0000
1100
0000
0000
0011
0000
0000
0110
0011
,
0000
0000
0000
0000
0000
0000
0000
0000
1010
0000
0000
1010
0000
0000
1010
0110
,
0000
0000
0000
0000
0000
0000
0000
0000
0001
0000
0000
1000
0000
0000
0001
2222
,
0000
0000
0000
0000
,
3333
0000
0000
0000
0000
0000
0000
0000
0000
0000
0000
0000
0000
0000
0000
0000
0000
0000
1000
0000
0000
1000
0000
0000
1000
0000
0000
1000
0000
0000
1000
0000
0000
1000
0000
0000
1000
0000
0000
1000
0000
0000
1000
0000
1000
0000
1001
0000
,
1001
1100
1100
1100
1100
1100
1100
1100
1100
1100
1100
1100
1100
1100
1100
1100
1100
1100
1100
1100
1100
1100
1100
1100
,
1100
0011
0011
0110
0011
0110
1100
0110
1100
0110
0011
0011
0110
0101
1001
1001
1001
0110
0101
0101
1001
1001
1001
0101
,
0101
0001
0001
0001
0001
0001
0001
0001
0001
0001
1000
1000
1000
1000
1000
1000
0100
0100
0100
0100
0100
0100
1001
1001
,
1001
0110
0110
1010
1010
0000
0110
1010
1010
1010
1010
0101
0110
0110
0110
1100
1100
1100
0100
0100
0100
0100
0100
0010
,
0010
0010
0010
0010
0100
1000
1000
1000
0010
0010
0010
0010
0010
0100
0100
0100
0100
0010
0000
0010
0100
0010
1000
0010
,
0100
0010
1000
0100
0010
1000
0001
0001
0001
0001
0001
0001
0001
0010
0000
0000
1000
0100
0010
0001
0010
0100
1000
0100
,
0010
0001
0010
0100
1000
0100
0010
0001
0010
0100
0010
0100
0010
0100
0010
1000
0001
0010
0100
0010
0100
0110
0110
0110
,
0110
0000
0000
0000
;

//---------------dance-single - Copied from MANIAC----------------
#NOTES:
     dance-single:
     Copied from MANIAC:
     Medium:
     10:
     1.000,1.000,1.000,0.023,1.000,1696.000,1063.000,6.000,0.000,9.000:
1000
1000
1000
1000
,
0100
0100
0100
0100
,
0010
0010
0010
0010
,
0001
0001
0001
0001
,
0011
0000
0000
0000
0011
0000
0000
0000
0011
0000
0000
0000
0011
0000
0110
1100
,
1001
0000
0000
0000
1001
0000
0000
0000
1001
0000
0000
0000
1001
0000
0010
0100
,
1001
0000
0000
0000
0110
0000
0000
0000
1001
0000
0000
0000
0110
0000
1001
1001
,
0010
0000
0000
0000
0001
0000
0000
0000
0010
0000
0000
0000
0001
0000
1110
0111
,
1111
0000
0000
0000
0110
0000
0000
0000
1100
0000
0000
0000
0011
0000
0010
0100
,
1101
0000
0000
0000
0111
0000
0000
0000
1001
0000
0000
0000
0110
0000
1001
1010
,
0110
0000
0000
0000
0110
0000
0000
0000
0010
0000
0000
0000
0100
0000
1000
0010
,
1010
0101
1010
0011
,
1000
0000
0100
0000
0010
0000
0001
0000
0011
0000
0000
0110
0000
0000
1100
0011
,
0000
0000
0000
0000
0000
0000
0000
0000
0011
0000
0000
0110
0000
0000
1100
0011
,
0000
0000
0000
0000
0000
0000
0000
0000
0011
0000
0000
0110
0000
0000
0011
1100
,
0000
0000
0000
0000
0000
0000
0000
0000
0011
0000
0000
0110
0000
0000
1001
1001
,
0000
0220
0000
0000
0000
0000
0330
0000
0110
0000
0000
0110
0000
0000
1001
0110
,
0000
0000
0000
0000
0000
0000
0000
0000
1110
0000
0000
0111
0000
0000
0110
1111
,
0000
0000
0000
0000
0000
0000
0000
0000
1100
0000
0000
0011
0000
0000
0101
0110
,
0000
0000
0000
0000
0000
0000
0000
0000
1001
0000
0000
0101
0000
0000
0101
0101
,
2222
0000
0000
0000
,
3333
0000
0000
0000
0000
0000
0000
0000
0000
0000
0000
0000
0000
0000
0000
0000
0000
0000
0000
0000
0000
0000
0000
0000
1001
0000
0000
1001
0000
0000
1001
0000
0000
1001
0000
0000
1001
0000
0000
1001
1001
0000
1001
0000
1001
0000
0000
0000
,
1100
1100
1100
1100
1100
1100
1100
1100
1100
0101
0101
0101
0110
0110
1001
1001
1000
0001
1000
0001
1100
1100
0011
0011
,
0101
0101
1001
1001
1001
1001
0011
0110
1100
1001
0110
0101
1001
0110
1001
1001
0110
0110
0101
1100
1100
0101
0110
1100
,
1010
0110
0110
0110
0110
0011
0011
0110
1100
0110
1100
0110
0011
0110
1100
1100
0110
0110
0001
0100
0010
0001
0010
0100
,
1000
0100
1000
0100
0010
0100
1000
0001
1000
0001
1000
0010
0100
0010
0100
0001
0010
0001
0010
0001
1000
1100
0110
0110
,
0110
1100
1100
0110
0110
0011
0011
1001
1001
1001
1100
1010
1100
1001
0011
0101
0101
1010
1001
0110
1001
1001
0110
1001
,
1001
0000
0110
0000
0110
0000
0011
0000
0001
0000
1000
0000
0100
0000
1000
0100
0010
0001
0010
0100
1000
0100
0010
0001
0010
0100
1000
0000
1100
0000
0001
0010
0100
1000
0000
0110
0000
1000
0100
0010
0001
0000
0110
0000
0001
0010
0100
1000
,
0000
0110
0000
0001
0010
0100
1000
0000
0110
0000
0110
0000
1010
0000
1010
0000
0011
0000
1100
0000
0100
0010
0100
0010
0100
0010
0100
0000
1010
0000
1010
0000
0110
0000
1010
0000
1010
0000
0110
0000
0011
0000
0011
0000
0101
0000
1010
0000
,
1010
0000
0101
0000
1000
0001
1000
0001
1000
0001
1000
0001
1000
0000
0110
0000
0101
0000
1010
0000
0110
0000
1010
0000
0110
0000
0000
0010
0000
0000
0100
0000
0000
1000
0000
0000
1000
0000
0000
0100
0000
0000
0010
0000
0000
0001
0000
0000
,
0010
0100
1000
0100
0010
0001
1000
0100
0010
0001
1000
0100
0001
0010
1000
0001
,
0100
0010
1000
0001
0010
0100
0001
1000
0010
0100
0100
1010
1100
1001
0110
0101
,
1010
0110
1100
0010
0001
0110
1000
1100
0110
0011
0110
1100
0110
0011
0110
1100
,
0110
0011
0110
1100
0110
0011
0110
1100
0110
1001
0110
1001
1010
1001
0101
1010
,
1001
0110
1010
1001
1010
0101
0011
1010
1100
0000
1100
0101
0010
0100
1100
0110
,
0011
1010
1100
1100
1010
1001
1000
0001
0010
0100
1000
0100
0010
0001
0010
0100
,
0001
0010
0100
0010
0100
1000
0100
1000
0001
0010
0100
1000
1010
0101
0011
1100
,
0110
1010
0110
0011
0110
1100
0110
0011
0101
0110
1010
0110
0101
0110
1010
0110
,
0101
1001
1001
1001
,
1001
1001
1001
1001
,
1001
1001
1001
1001
1001
1001
1001
1001
1001
1001
1001
1001
1001
1001
1001
1001
,
1010
1010
1010
1010
1010
1010
1010
1010
1010
1010
1010
1010
1010
1010
1010
1010
,
1001
1001
1001
1001
1001
1001
1001
1001
1001
1001
1001
1001
1001
1001
1001
1001
,
1100
1100
1100
1100
1100
1100
1100
1100
1100
1100
1100
1100
1100
1100
1100
1100
,
0110
0110
0110
0110
0110
0110
0110
0110
0110
0110
0110
0110
0110
0110
0110
0110
,
0011
0011
0011
0011
0011
0011
0011
0011
0011
0011
0011
0011
0011
0011
0011
0011
,
1100
1100
1100
1100
1100
1100
1100
1100
1100
1100
1100
1100
1100
1100
1100
1100
,
1010
1010
1010
1010
1010
1010
1010
1010
1010
1010
1010
1010
1010
1010
1010
1010
,
1100
1010
1100
1001
1100
1010
1100
1001
1100
1010
1100
1001
1100
1010
1100
1001
,
0011
0101
0011
1001
0011
0101
0011
1001
0011
0101
0011
1001
0011
0101
0011
1001
,
0110
0101
0110
1100
0110
0101
0110
1100
0110
0101
0110
1100
0110
0101
0110
1100
,
0110
0011
0110
1010
0110
0011
0110
1010
0110
0011
0110
1010
0110
0011
0110
1010
,
0110
1010
0110
0101
0110
1010
0110
0101
0110
1010
0110
0101
0110
1010
0110
0101
,
1001
0101
1001
0011
1001
0101
1001
0011
1001
0101
1001
0011
1001
0101
1001
0011
,
1001
1100
1001
1010
1001
1100
1001
1010
1001
1100
1001
1010
1001
1100
1001
1010
,
1100
1100
1010
1010
1100
1010
1001
1100
0110
0101
1010
0110
1001
0110
0101
1010
,
1001
1010
1001
0101
1001
1010
1001
0101
1001
1010
1001
0101
1001
1010
1001
0101
,
1000
0001
1000
0001
1000
0001
1000
0001
1000
0001
1000
0001
1000
0001
1000
0001
,
1000
0010
1000
0010
1000
0010
1000
0010
1000
0010
1000
0010
1000
0010
1000
0010
,
1000
0001
1000
0001
1000
0001
1000
0001
1000
0001
1000
0001
1000
0001
1000
0001
,
0001
0100
0001
0100
0001
0100
0001
0100
0001
0100
0001
0100
0001
0100
0001
0100
,
0001
1000
0001
1000
0001
1000
0001
1000
0001
1000
0001
1000
0001
1000
0001
1000
,
0001
0010
0001
0010
0001
0010
0001
0010
0001
0010
0001
0010
0001
0010
0001
0010
,
0100
0010
0100
0010
0100
0010
0100
0010
0100
0010
0100
0010
0100
0010
0100
0010
,
1001
1010
1100
1010
1001
0101
0011
0110
1001
0110
1010
0101
1010
0101
0010
0110
,
1000
1000
0100
0010
0001
0010
0100
1000
0100
0010
0001
1100
1010
0001
0010
0100
,
0100
0100
0100
0110
0010
0010
0010
0010
1001
1001
1001
1001
1010
1010
0100
0010
,
0001
0100
1000
0010
0001
1000
0100
0001
0010
1000
0100
0010
0001
1000
0100
0011
,
1100
0011
1100
0010
1100
0001
0100
0110
1100
0010
1010
0101
1010
0101
0110
0110
,
1100
1010
1001
1010
0110
0101
0110
1010
1100
1010
1010
1001
0101
0011
1001
0101
,
1010
0110
1001
0110
0011
1001
0110
1001
0110
1001
0110
1001
0110
1001
0110
1001
,
0110
1001
0011
1001
1100
1001
0110
1001
0110
1001
0110
1001
1010
1100
1010
1001
,
1001
0000
0000
0000
1001
0000
0000
0000
1001
0000
0000
0000
1001
0000
0010
0100
,
0110
0000
0000
0000
0110
0000
0000
0000
0110
0000
0000
0000
0110
0000
0010
1000
,
1010
0000
0000
0000
1010
0000
0000
0000
1010
0000
0000
0000
1010
0000
0010
0001
,
0011
0000
0000
0000
0011
0000
0000
0000
0011
0000
0000
0000
0011
0000
0001
0100
,
0110
0000
0000
0000
1001
0000
0000
0000
1001
0000
0000
0000
1001
0000
0001
0100
,
0010
0000
0000
0000
0100
0000
0000
0000
1000
0000
0000
0000
0001
0000
0010
0100
,
1001
0000
0000
0000
0001
0000
0000
0000
0001
0000
0000
0000
0001
0000
0010
0100
,
1001
0000
0000
0000
0000
0000
0000
0000
0000
0000
0000
0000
0000
0000
0000
1000
,
1000
1000
0100
0010
0000
1000
1000
1000
1000
1000
0100
0010
0100
0000
0000
1000
,
1000
1000
0100
0010
0000
1000
1000
1000
1000
1000
0100
0010
0100
0000
0000
0001
,
0001
0001
0001
0100
0000
0001
0001
0001
0001
0001
0001
0100
0010
0000
0000
1000
,
1000
1000
0100
0010
0000
1000
1000
1000
1000
1000
0100
0010
0100
0000
0000
1001
,
1001
1001
1010
1100
0000
1001
1001
1001
1001
1001
1100
1010
0101
0000
0000
1001
,
1001
1001
0101
0011
0000
1001
1001
1001
1001
1001
1010
0101
0110
0000
0000
0101
,
0101
0101
0101
0011
0000
0101
0101
0101
0101
0101
1001
0011
0000
0000
0000
1001
,
1001
1001
1010
1100
0000
1001
1001
1001
1010
1100
1010
0000
0000
0000
0000
1001
,
1010
1100
1000
0100
0000
1001
1001
1001
1001
1001
0101
0011
0110
0000
0000
1001
,
0110
1001
1010
1100
0101
0110
0100
1100
0010
0001
0110
1100
0011
0110
1001
0110
,
1010
0101
0001
0010
0100
1000
0100
0001
1000
0110
1000
0011
1000
0110
1000
1000
,
0100
0010
0001
0010
0000
1000
0100
0010
0001
0010
0100
1000
0100
0101
0010
1010
,
1000
1001
0110
0101
0110
1010
0010
0101
0000
1000
0100
0010
0001
1000
0100
1000
,
0100
0001
0010
0001
0010
1000
0100
1000
0100
0001
0010
0001
0010
1000
0100
0001
,
0010
1000
0001
0100
0010
1000
0001
0100
0010
1000
0001
0100
0010
1000
0001
0100
,
0010
0101
1010
0101
0110
1010
0101
1010
0110
1010
0110
0001
1001
0110
1100
1000
,
0100
0010
1000
0100
0010
1000
0100
0010
0010
0010
0010
0000
0000
0000
0000
1000
,
0100
0010
0100
1000
0010
0001
0000
1000
0100
0010
0100
1000
0000
0000
0000
1000
,
0100
0010
0001
1000
0100
0010
0001
1000
1000
1000
1000
0000
0000
0000
0000
0001
,
0010
1000
0100
0010
0001
0110
0000
0001
1000
0110
1000
0001
0000
0000
0000
1001
,
1010
1100
1010
1001
0110
0110
1001
1010
0110
0110
1001
0101
0110
1001
1010
1100
,
1100
0101
0110
0110
1100
0110
0011
0110
0011
1100
1100
0110
1100
0011
1000
0100
,
0010
0001
0010
0100
1000
0000
0000
1000
0100
0010
0001
0010
0100
1000
0100
0010
,
0001
0000
1001
0110
0101
1100
0010
1010
0110
0100
0100
1000
0000
0000
0000
1001
,
1001
1001
1001
0110
0000
1001
1001
1001
1001
1001
1001
0011
1100
0000
0000
0001
,
0010
0100
1000
0100
0000
0001
0010
0100
1000
0100
0010
0001
0010
0000
0000
1100
,
1010
1100
1010
1100
1010
1100
1010
1100
1010
1100
1010
1100
1010
1100
1010
1100
,
0011
0101
0011
0101
0011
0101
0011
0101
0011
0101
0011
0101
0011
0101
0011
0101
,
0110
0100
0110
0010
0110
0100
0110
0010
0110
0100
0110
0010
0110
0100
0110
0010
,
1001
1000
1001
0001
1001
1000
1001
0001
1001
1000
1001
0001
1001
1000
1001
0001
,
1001
1000
1001
0001
1001
1000
1001
0001
1001
1000
1001
0001
1001
1000
1001
0001
,
0000
0000
0000
0110
0001
1000
0110
1001
1000
1001
0110
0101
1000
0100
0001
0100
,
1000
0011
1000
0100
0010
1000
0001
0100
0010
1000
0001
1100
0100
0010
1000
0011
,
0100
0110
1000
1001
0100
0110
1001
0100
0010
0100
1001
0100
0110
1001
0101
1001
,
1001
1001
1001
1001
1001
1001
1001
1001
1001
1001
1001
1001
1001
1001
1001
1001
,
0110
0110
0110
0110
0110
0110
0110
0110
0110
0110
0110
0110
0110
0110
0110
0110
,
1010
1010
1010
1010
1010
1010
1010
1010
1010
1010
1010
1010
1010
1010
1010
1010
,
0101
0101
0101
0101
0101
0101
0101
0101
0101
0101
0101
0101
0101
0101
0101
0101
,
0011
0011
0011
0011
0011
0011
0011
0011
0011
0011
0011
0011
0011
0011
0011
0011
,
1100
1100
1100
1100
1100
1100
1100
1100
1100
1100
1100
1100
1100
1100
1100
1100
,
1100
1010
1001
1010
1100
1010
1001
1010
1100
1010
1001
1010
1100
1010
1001
1010
,
0011
0101
1001
0101
0011
0101
1001
0101
0011
0101
1000
0101
0011
0101
1001
0101
,
1001
0110
0011
1100
0101
1010
0110
1001
1010
0101
0110
1001
0110
1001
0110
1100
,
0011
0000
0000
0000
,
1100
0011
1100
0011
1100
0011
1100
0011
1100
0011
1100
0011
1100
0011
1100
0011
,
1010
0101
1010
0101
1010
0101
1010
0101
1010
0101
1010
0101
1010
0101
1010
0101
,
0000
0000
0000
0000
0000
0000
0000
0000
0000
0000
0000
0000
0000
0000
0000
1000
,
0100
0010
0001
0010
0000
1000
0100
0010
0001
0010
0100
1000
0100
0000
0000
0000
,
1000
1000
1000
1000
1000
1000
1000
1000
1000
1000
1000
1000
1000
1000
1000
1000
,
1010
0000
0000
0000
0000
1010
0000
0000
;
