#TITLE:Loituma;
#SUBTITLE:;
#ARTIST:Basshunter;
#TITLETRANSLIT:;
#SUBTITLETRANSLIT:;
#ARTISTTRANSLIT:;
#CREDIT:;
#BANNER:;
#BACKGROUND:loituma.PNG;
#LYRICSPATH:;
#CDTITLE:;
#MUSIC:Loituma_techno_remix_By_BassHunter.ogg;
#OFFSET:-0.440;
#SAMPLESTART:44.663;
#SAMPLELENGTH:12.000;
#SELECTABLE:YES;
#BPMS:0.000=111.020,12.000=125.700,13.000=140.000,22.000=140.000;
#STOPS:;
#BGCHANGES:;
// cache tags:
#FIRSTBEAT:9.000;
#LASTBEAT:486.500;
#SONGFILENAME:Songs/lvsb tourney pack/loituma/loituma.sm;
#HASMUSIC:1;
#HASBANNER:0;
#MUSICLENGTH:105.000;
// end cache tags

//---------------dance-single - Insane Steve----------------
#NOTES:
     dance-single:
     Insane Steve:
     Challenge:
     12:
     1.000,1.000,0.210,0.314,1.000,1347.000,22.000,33.000,16.000,5.000:

0000
0000
0000
0000
,
0000
0000
0000
0000
,
0000
2002
0000
0000
,
0000
0000
0000
0000
,
0000
0000
0000
0000
,
3003
0000
0000
0000
1000
0100
0010
0100
,
1000
0001
0100
0010
0100
0001
1000
0010
,
0100
0010
0100
0001
0010
0100
1000
0001
,
1000
0010
1000
0100
1000
0001
0010
0001
,
0100
0001
0010
0100
0100
1000
1100
0100
,
0010
0001
0101
0100
0010
0100
0110
0010
,
1000
0001
1001
1000
1000
0100
0110
0010
,
0001
1000
1001
0001
0100
0010
1010
1000
,
0100
0000
0010
0000
MMMM
0000
0010
0000
0100
0000
1000
0001
0100
0000
0010
0000
,
0100
0000
0001
0010
0100
0000
1000
0000
0100
0000
0010
0100
1000
0000
0001
0000
,
0100
0000
0010
1000
0001
0000
1000
0000
0100
0000
0010
0100
1000
0000
0001
0000
,
0100
0000
0010
0100
0001
0000
0010
0000
0001
0000
1000
0100
0010
0000
0100
0000
,
1000
0000
0010
0100
0001
0000
1000
0000
1000
0000
0010
0100
0001
0000
1001
0000
,
1000
0000
0010
0100
0001
0000
0011
0000
0010
0000
0100
1000
0001
0000
1001
0000
,
1000
0000
0010
0100
0001
0000
0101
0000
0100
0000
0010
1000
0001
0000
0011
0000
,
0010
0000
0100
1000
0001
0000
0101
0000
0100
0000
0010
1000
0001
0000
0002
0000
,
MMM0
0003
0001
0000
1000
0000
1000
0000
0100
0000
0010
0000
0000
0000
0010
0000
,
0000
0010
0000
0010
0000
0010
0000
0010
,
0000
0000
0010
0000
0000
0000
0010
0001
1000
0000
0010
0000
1000
0000
0000
0001
,
0010
0001
0010
0001
0010
0000
0100
1000
0100
0000
1000
0000
1000
0000
0010
0000
,
0100
0000
0010
0000
1000
0000
0001
1000
0100
0000
0010
0000
0010
0000
0000
0001
,
1000
0000
0001
1000
0000
0001
1000
0100
1000
0001
1000
0001
0010
0000
0100
0000
,
0100
0000
1000
0000
0001
0000
1000
0010
0100
0000
0100
0000
0001
0000
0010
0000
,
0200
0000
1300
0100
0000
1000
0100
1000
0001
0100
0001
1000
0001
0010
0001
1000
,
0001
0000
0100
0001
0000
0000
0000
1000
0010
0000
0010
0000
0100
0000
0001
0000
,
1000
0000
0100
0000
1000
0100
1000
0010
0100
0010
0100
0001
0100
0010
0100
0010
,
0100
0000
0001
0000
1001
0000
0000
0001
1000
0100
1000
0100
0010
0001
0010
0001
,
1000
0010
0100
0001
0100
0010
0100
0010
1000
0001
1000
0100
0010
0100
1000
0001
,
1000
0010
0100
0010
0100
0001
1000
0001
0010
0100
0010
0001
0010
0100
1000
0001
,
1000
0010
0100
0010
0100
0010
1000
0001
1000
0100
1000
0100
1000
0100
0010
0001
,
1000
0001
1000
0010
0100
0010
0100
0001
1000
0001
0010
0100
0010
0001
1000
0010
,
0100
0010
1000
0001
1000
0100
0010
0001
0010
0100
1000
0001
0100
0010
1000
0010
,
0100
0010
1000
0010
0100
0001
1000
0001
1000
0010
0100
0010
0100
0001
1000
0001
,
0010
0100
0010
0001
1000
0010
0100
0010
0100
0001
0100
0001
0100
0010
1000
0001
,
1000
0100
0010
0001
0010
0100
0010
0001
1000
0001
0100
0010
1000
0010
0100
0010
,
0100
0001
1000
0001
0010
0100
0010
0001
1000
0001
1000
0010
0100
0010
1000
0001
,
1000
0100
0010
0100
1000
0001
0100
0001
0100
0010
0100
0001
1000
0001
0010
0100
,
0010
0001
1000
0001
0010
0100
1000
0001
1000
0010
0100
0010
0100
0010
1000
0001
,
0010
0100
1000
0100
0010
0001
1000
0010
1000
0001
0100
0010
1000
0001
0100
0001
,
1000
0100
0010
0001
0010
0100
1000
0001
1000
0010
1000
0010
1000
0001
1000
0100
,
0010
0100
1000
0001
0100
0010
1000
0001
0100
0010
1000
0001
1000
0100
0010
0001
,
1000
0010
0100
0001
1000
0100
0010
0100
1000
0001
1000
0001
1000
0010
0100
0010
,
0100
0001
1000
0100
0010
0001
0010
0100
1000
0001
1000
0001
1000
0000
1000
0000
,
1000
0001
2002
0000
0010
0000
0010
0000
,
0010
0000
3003
0000
M11M
0000
0001
1000
0001
1000
0100
1000
0100
0000
1000
0100
,
0010
0000
0001
0010
0000
0001
1000
0001
1000
0001
0100
0001
0100
0000
0010
0100
,
0010
0000
1000
0010
0000
1000
0001
1000
0001
0010
0001
0010
0001
0000
1000
0001
,
0010
0000
0100
1000
0000
0100
1000
0001
2000
0000
3020
0000
0230
0000
0302
0000
,
1003
0000
0010
0100
0000
0010
0100
0001
1000
0010
1000
0010
1000
0000
0100
0000
,
0010
0000
0001
0010
0000
0001
0010
0100
1000
0001
1000
0001
1000
0000
0010
0000
,
0100
0000
0001
1000
0000
0001
1000
0100
0010
0000
0010
0000
0001
0000
1000
0000
,
0010
0100
0010
0100
0000
0010
1000
0001
1000
0100
1000
0100
1000
0000
0100
0000
,
1000
0000
0001
0100
0000
0010
0100
0001
1000
0100
1000
0100
1000
0000
0001
0010
,
0100
0000
1000
0100
0000
0010
0001
1000
0001
0100
0010
0100
0010
0000
0100
0001
,
1000
0000
0100
1000
0000
0100
1000
0001
0100
0010
0100
0010
0100
0000
0010
1000
,
0001
0000
1000
0001
0000
1000
0010
0100
0002
0000
0203
0000
0320
0000
2030
0000
,
3001
0000
0010
0001
0000
0010
0001
0010
0100
0010
0100
0010
0100
0000
1000
0000
,
0001
0000
1000
0010
0000
0100
0010
0100
0001
1000
0001
1000
0100
0000
0010
0000
,
0001
0000
1000
0010
0000
0100
0010
0100
0001
0000
0001
0000
0010
0000
0100
0000
,
1000
0001
0010
0001
0000
1000
0010
0100
0010
1000
0010
1000
0010
0000
0100
0010
,
0100
0000
0001
1000
0000
0001
0010
0100
1000
0000
0100
0000
0000
0000
0100
0000
,
0000
0000
0100
0000
0000
0000
0100
0000
2000
0000
0001
0000
0100
0000
0001
3000
,
0010
0000
0001
0000
0100
0000
0001
0010
0100
0000
1000
0100
0000
0000
0010
0001
,
0000
0000
1000
0001
0000
0000
0100
0010
0000
00M0
1000
0001
0000
0000
0100
0010
,
0000
0000
1000
0010
0000
0000
0100
0002
0000
0000
0013
0100
0000
0000
1000
0100
,
0000
0000
0010
0001
0000
0000
1000
0001
0000
0000
010M
0010
0000
0000
1000
0010
,
0000
0000
0100
0001
0000
0000
0100
0020
0000
0000
1030
0001
0000
0000
0010
0001
,
0000
0000
1000
0100
0000
0000
0010
0001
0000
000M
0100
0010
0000
0000
1000
0010
,
0000
0000
0100
0001
0000
0000
1000
0002
0000
0000
0013
0100
0000
0000
1000
0100
,
0000
0000
0010
0001
0000
0000
1000
0001
0000
000M
0100
0010
0000
0000
1000
0010
,
0200
0010
0310
1010
0000
0100
0000
0100
,
0000
0100
0000
0100
0000
0100
0000
0100
,
0000
0000
0100
0000
0000
0000
0100
0001
1000
0000
0100
0000
0100
0000
0000
1000
,
0001
0100
0001
0100
0001
0000
1000
0100
0010
0000
0001
0000
0001
0000
0100
0000
,
0010
0000
1000
0000
0010
0000
0100
0001
1000
0000
0100
0000
0010
0000
0000
0010
,
0100
0000
0010
0100
0000
0010
0100
1000
0001
0100
0001
0100
0001
0000
1000
0000
,
0010
0000
0100
0000
0001
0000
1000
0100
0010
0000
0100
0000
1000
0000
0001
0000
,
0200
0000
0310
1000
0000
0010
1000
0001
0010
0001
0010
0001
0010
0100
1000
0001
,
1000
0000
0010
1000
0000
0000
0000
0001
0100
0000
0001
0000
1000
0100
1000
0000
,
0001
0100
0001
0000
1000
0100
0010
0100
1000
0001
1000
0001
1000
0010
0100
0000
,
0010
0000
0100
0000
1001
0000
0000
0001
1000
0010
1000
0010
0100
0001
0100
0001
,
0010
0100
1000
0100
0010
0001
1000
0010
0100
0010
0100
0010
0100
0001
1000
0001
,
0010
0100
1000
0001
1000
0010
0100
0001
1000
0010
0100
0010
0100
0001
0010
0100
,
1000
0001
0100
0010
1000
0100
0010
0001
1000
0010
1000
0010
1000
0001
0010
0100
,
0010
0001
1000
0001
0100
0010
0100
0010
1000
0100
1000
0100
1000
0001
0100
0010
,
1000
0010
0100
0010
0100
0001
0010
0100
1000
0001
1000
0001
1000
0010
1000
0010
,
0100
0001
1000
0100
0010
0001
0010
0100
1000
0001
0100
0010
1000
0010
0100
0010
,
0100
0001
0010
0100
1000
0100
0010
0001
1000
0010
1000
0010
0100
0001
1000
0001
,
0010
0100
0010
0001
0010
0100
1000
0001
1000
0010
0100
0001
1000
0100
0010
0001
,
1000
0010
0100
0001
1000
0100
1000
0001
0100
0010
0100
0001
1000
0001
0010
0100
,
1000
0010
0100
0010
1000
0100
0010
0001
1000
0010
0100
0001
1000
0100
0010
0001
,
0010
0100
1000
0001
1000
0010
0100
0010
0100
0001
0100
0001
1000
0100
0010
0001
,
1000
0010
0100
0010
0100
0001
0010
0100
1000
0001
0010
0001
1000
0010
0100
0010
,
1000
0100
0010
0001
1000
0010
0100
0001
0100
0010
0100
0010
0100
0001
1000
0001
,
0010
0100
1000
0100
0010
0100
1000
0001
1000
0010
0100
0001
0010
0100
1000
0100
,
1000
0001
1000
0010
0100
0010
0100
0001
1000
0001
1000
0001
0010
0001
1000
0010
,
0100
0010
0100
0001
1000
0000
0001
0000
0200
0000
0000
0000
0010
0000
0000
0000
,
0002
0000
1000
0020
,
M030
0000
0303
0000
1M1M
0000
0000
0000
1000
0010
1000
0010
1000
0000
0001
0010
,
0100
0000
1000
0100
0000
1000
0100
0010
0001
1000
0001
1000
0001
0000
0100
0010
,
1000
0000
0010
1000
0000
0010
0100
0001
1000
0001
1000
0001
1000
0000
0100
0010
,
0001
0000
1000
0001
0000
1000
0001
0100
0020
0000
2030
0000
3002
0000
0203
0000
,
0310
0000
0100
0010
0000
0100
0010
0100
0010
1000
0010
1000
0001
0000
0010
0000
,
0100
0000
1000
0001
0000
1000
0001
0010
0100
0010
0100
0010
0100
0000
1000
0000
,
0010
0000
0100
0010
0000
0100
0010
0100
0001
0000
0001
0000
1000
0000
0100
0000
,
0010
0001
0010
0100
0000
0010
0001
0010
0001
1000
0001
1000
0010
1000
0010
1000
,
0001
0010
0001
0010
0100
1000
0100
1000
0001
0100
0010
0100
0010
0000
0100
0001
,
1000
0000
0100
0010
0000
0001
0010
0100
1000
0001
1000
0001
1000
0000
0010
0100
,
0001
0000
1000
0001
0000
1000
0001
0010
0100
0010
0100
0010
0100
0000
0100
1000
,
0001
0000
0100
0001
0000
0100
0010
0100
0020
0000
2030
0000
3002
0000
0203
0000
,
0301
0000
1000
0001
0000
1000
0100
1000
0100
0010
0100
0010
0001
0000
1000
0000
,
0010
0000
0100
0010
0000
0100
0010
0100
0010
1000
0010
1000
0001
0000
1000
0000
,
0001
0000
0010
0100
0000
0010
0100
0010
0100
0000
0100
0000
1000
0000
0001
0000
,
1000
0010
1000
0001
0000
0100
0010
0100
0001
1000
0001
1000
0010
0100
0010
0100
,
0010
0000
1000
0010
0000
0100
0001
1000
0001
0000
0100
0000
0101
0000
0001
0000
,
1000
0100
1100
1000
0002
1000
0000
0000
,
1000
0000
0100
1000
2003
3000
0000
0000
;
