#TITLE:Ridin' Dirty;
#SUBTITLE:;
#ARTIST:Chamillionaire;
#TITLETRANSLIT:;
#SUBTITLETRANSLIT:;
#ARTISTTRANSLIT:;
#CREDIT:;
#BANNER:;
#BACKGROUND:CHAMILLIONAIRE-riding-BG.png;
#LYRICSPATH:;
#CDTITLE:;
#MUSIC:CHAMILLIONAIRE-riding.mp3;
#OFFSET:0.000;
#SAMPLESTART:100.000;
#SAMPLELENGTH:12.000;
#SELECTABLE:YES;
#BPMS:0.000=143.120;
#STOPS:;
#BGCHANGES:;
// cache tags:
#FIRSTBEAT:1.000;
#LASTBEAT:257.021;
#SONGFILENAME:Songs/cedric step/CHAMILLIONAIRE-riding/CHAMILLIONAIRE-riding.sm;
#HASMUSIC:1;
#HASBANNER:0;
#MUSICLENGTH:117.504;
// end cache tags

//---------------dance-single - Ridi'n dirty----------------
#NOTES:
     dance-single:
     Ridi'n dirty:
     Hard:
     10:
     0.756,0.683,0.562,0.000,0.319,556.000,66.000,0.000,0.000,0.000:
0000
0000
1001
0100
1000
0100
0011
1000
,
0001
0010
0100
1000
0100
0010
1001
0100
,
1000
0100
0010
0001
1000
0010
1100
0010
,
0001
0010
1000
0001
0100
1000
0011
1000
,
0001
0100
0010
0001
0100
0010
0101
0001
,
1000
0100
0010
1000
0100
1000
0011
1000
,
0100
0010
1000
0001
0100
1000
0101
0100
,
0001
0000
1000
0000
0010
0000
0001
0000
0000
0000
0010
0100
0010
0100
0010
0100
,
0000
1000
0100
0010
,
0001
0010
0100
1000
,
0100
0010
0001
0010
,
0100
0100
1000
0001
0100
1000
0010
0100
,
0001
0000
0100
0000
0011
0000
0100
1000
0100
1000
0100
1000
0010
0000
0010
0000
,
0100
0000
0100
0000
1010
0000
0010
0001
0010
0001
0010
0001
1000
0000
1000
0000
,
0001
0000
0001
0000
1010
0000
0100
0010
0100
0010
0100
0010
1000
0000
1000
0000
,
0001
0000
0001
0000
0110
0000
1000
0100
1000
0100
1000
0100
0001
0000
0010
0000
,
1000
0100
1001
0010
0100
1000
0011
0100
,
0001
1000
0010
0001
0100
0010
1010
0001
,
0100
1000
0010
0100
0001
1000
0110
0001
,
0100
0010
1000
0001
1000
0100
1010
0001
,
0010
0000
0100
0000
1010
0000
0100
0001
0100
0001
0100
0001
0010
0000
1000
0000
,
0100
0000
0100
0000
1010
0000
0001
0100
0001
0100
0001
0100
0010
0000
0010
0000
,
1000
0000
1000
0000
0011
0000
0100
0010
0100
0010
0100
0010
1000
0000
0100
0000
,
0001
1000
0100
0010
1000
0010
0100
1000
,
0100
0010
1001
0100
0010
1000
0110
0001
,
0010
1000
0010
0100
0001
0100
1010
0100
,
0010
1000
0100
0010
0001
0010
0101
1000
,
0010
0100
0001
0100
1000
0001
1010
0100
,
0001
0010
1000
0010
0100
0001
1010
0100
,
0010
1000
0010
0001
0100
1000
0011
0100
,
1000
0010
0100
0001
1000
0100
1010
0100
,
0010
0001
0100
1000
0010
0100
1010
0001
,
1000
0000
0100
0000
0010
0000
1000
0010
0100
1000
0100
0000
1001
0000
0100
0000
,
1000
0000
0010
0000
0100
0000
1000
0001
0010
0001
0010
0000
1010
0000
1000
0000
,
0010
0000
0100
0000
0001
0000
1000
0100
0010
0100
0001
0000
0101
0000
0010
0000
,
1000
0000
0010
0000
0100
0000
0001
0100
0010
0001
1000
0000
0101
0000
1000
0000
,
0010
0000
0001
0000
0010
0000
1000
0001
0010
0001
0100
0000
1001
0000
0010
0000
,
0100
0000
0001
0000
1000
0000
0010
0001
1000
0001
0100
0000
1010
0000
0001
0000
,
0010
0000
0100
0000
1000
0000
0100
0001
0010
0100
0001
0000
1010
0000
0100
0000
,
1000
0000
0100
0000
0010
0000
0001
1000
0010
1000
0100
0000
1001
0000
0100
0000
,
0010
0000
0001
0000
0010
0000
0100
1000
0100
0001
0010
0000
1001
0000
0000
0000
,
0000
0000
0000
0000
0000
0000
0000
0010
1000
0010
0001
0000
1010
0000
0100
0000
,
1000
0000
0100
0000
0010
0000
0001
0100
0010
0001
0100
0000
1001
0000
0100
0000
,
0010
0000
0001
0000
0010
0000
0100
0001
1000
0001
0100
0000
1010
0000
0001
0000
,
0010
0000
0100
0000
1000
0000
0001
1000
0010
0100
0001
0000
1010
0000
0100
0000
,
1000
0000
0100
0000
0001
0000
1000
0010
0001
0001
0100
0000
1010
0000
0010
0000
,
0001
0000
1000
0000
0010
0000
0100
0010
1000
0100
0001
0000
1010
0000
0001
0000
,
0010
0100
1000
0100
0010
1000
0001
0000
,
1001
1100
0101
1010
,
1001
0011
0110
1001
,
0100
1010
0001
0010
,
0100
0100
1000
0001
0100
1000
0010
0100
,
0001
0000
0100
0000
0011
0000
0100
1000
0100
1000
0100
1000
0010
0000
0010
0000
,
0100
0000
0100
0000
1010
0000
0010
0001
0010
0001
0010
0001
1000
0000
1000
0000
,
0001
0000
0001
0000
1010
0000
0100
0010
0100
0010
0100
0010
1000
0000
1000
0000
,
0001
0000
0001
0000
0110
0000
1000
0100
1000
0100
1000
0100
0001
0000
0010
0000
,
1000
0100
1001
0010
0100
1000
0011
0100
,
0001
1000
0010
0001
0100
0010
1010
0001
,
0100
1000
0010
0100
0001
1000
0110
0001
,
0100
0010
1000
0001
1000
0100
1010
0001
,
0010
0000
0100
0000
1010
0000
0100
0001
0100
0001
0100
0001
0010
0000
1000
0000
,
0100
0000
0100
0000
1010
0000
0001
0100
0001
0100
0001
0100
0010
0000
0010
0000
,
1000
0000
1000
0000
0011
0000
0100
0010
0100
0010
0100
0010
1000
0000
0100
0000
,
0001
1000
0100
0010
1000
0010
0100
1000
,
0100
0010
1001
0000
0000
0000
0000
0000
;

//---------------dance-single - ----------------
#NOTES:
     dance-single:
     :
     Easy:
     1:
     0.000,0.000,0.000,0.000,0.000,0.000,0.000,0.000,0.000,0.000:
0000
0000
0000
0000
;

//---------------dance-single - Ridin'  Dirty----------------
#NOTES:
     dance-single:
     Ridin'  Dirty:
     Medium:
     7:
     0.542,0.492,0.298,0.443,0.000,359.000,35.000,52.000,0.000,3.000:
0000
2020
3030
2000
,
3200
0320
0230
0320
,
2030
3002
0203
2300
,
3020
2030
3200
0320
,
0032
0023
0230
2300
,
3200
0320
2032
3200
,
0303
0002
0203
2300
,
3020
0230
2300
3020
,
2030
3002
0223
0330
,
0000
0100
0010
0000
0000
0100
0001
0000
,
0000
1000
0100
0000
0000
0100
0001
0010
,
1000
0000
0100
0001
1000
0010
0100
0010
,
1000
0000
0110
0000
1000
0100
0010
0001
,
0100
1000
0011
0000
0100
0010
1000
0100
,
0010
1000
0101
0000
0010
0100
0001
1000
,
0100
0010
1100
0000
0001
1000
0010
0100
,
1000
0010
1010
0000
0100
0010
1000
0010
,
0001
1000
0011
0000
1000
0010
0100
0010
,
1000
0100
1001
0000
0010
0100
0001
1000
,
0100
0010
1010
0000
0100
0010
1000
0001
,
0100
0010
1001
0000
0100
0010
1000
0001
,
0100
0010
0101
0000
1000
0100
0010
0001
,
1000
0100
0011
0000
1000
0100
0010
1000
,
0001
0100
0010
1000
0001
0100
0010
1000
,
0100
0001
2010
0000
0100
0000
0010
0000
,
3200
1000
0010
1000
,
0320
1000
0001
1000
,
2030
0100
0001
0010
,
3200
0001
1000
0010
,
0302
1000
0100
1000
,
0203
1000
0010
0001
,
0320
1000
0001
0100
,
0030
2000
0010
0001
,
0100
3002
0100
1000
,
0010
2003
0100
0010
,
0001
3020
0100
0001
,
1000
2030
0100
0010
,
0001
3200
0010
1000
,
0001
2300
0001
0100
,
0010
3002
0100
1000
,
0010
0000
1003
0100
1000
0010
1001
0000
,
0100
0010
0001
1000
0100
0010
1001
0000
,
0100
0010
1000
0001
0100
1000
0011
0000
,
1000
0001
0100
1000
0010
0001
1100
0000
,
0100
0001
1000
0100
0001
1000
0101
0000
,
0010
1000
0100
0010
1000
0010
0101
0000
,
1000
1000
0010
0010
0001
0001
1100
0000
,
0010
0010
0001
0001
1000
1000
0010
0010
,
0100
0100
0000
1000
0100
0010
1001
0000
,
0010
0000
0000
0000
0000
0100
0001
0000
,
0010
0000
0000
0000
0000
0100
0001
0010
,
1000
0000
0100
0001
1000
0010
0100
0010
,
1000
0000
0110
0000
1000
0100
0010
0001
,
0100
1000
0011
0000
0100
0010
1000
0100
,
0010
1000
0101
0000
0010
0100
0001
1000
,
0100
0010
1100
0000
0001
1000
0010
0100
,
1000
0010
1010
0000
0100
0010
1000
0010
,
0001
1000
0011
0000
1000
0010
0100
0010
,
1000
0100
1001
0000
0010
0100
0001
1000
,
0100
0010
1010
0000
0100
0010
1000
0001
,
0100
0010
1001
0000
0100
0010
1000
0001
,
0100
0010
0101
0000
1000
0100
0010
0001
,
1000
0100
0011
0000
1000
0100
0010
1000
,
0001
0100
0010
1000
0001
0100
0010
1000
,
0100
0000
0000
0000
0000
0000
0000
0000
0000
0000
0000
0000
0000
0000
0000
0000
0000
0000
0000
0000
0000
0000
0000
0000
0001
0000
0000
0000
0000
0000
0000
0000
0000
0000
0000
0000
0000
0000
0000
0000
0000
0000
0000
0000
0000
0000
0000
0000
2010
3000
0000
0000
0000
0000
0000
0000
0000
0000
0000
0000
0000
0000
0000
0000
0000
0000
0000
0000
0000
0000
0000
0000
0000
0000
0000
0000
0000
0000
0000
0000
0000
0000
0000
0000
0000
0000
0000
0000
0000
0000
0000
0000
0000
0000
0000
0000
0000
0000
0000
0000
0000
0000
0000
0000
0000
0000
0000
0000
0000
0000
0000
0000
0000
0000
0000
0000
0000
0000
0000
0000
0000
0000
0000
0000
0000
0000
0000
0000
0000
0000
0000
0000
0000
0000
0000
0000
0000
0000
0000
0000
0000
0000
0000
0000
0000
0000
0000
0000
0000
0000
0000
0000
0000
0000
0000
0000
0000
0000
0000
0000
0000
0000
0000
0000
0000
0000
0000
0000
0000
0000
0000
0000
0000
0000
0000
0000
0000
0000
0000
0000
0000
0000
0000
0000
0000
0000
0000
0000
0000
0000
0000
0000
;
