#TITLE:Pasto Pelu;
#SUBTITLE:-Official Remix-;
#ARTIST:Jowell & Randy ft. Trebol Clan;
#TITLETRANSLIT:;
#SUBTITLETRANSLIT:;
#ARTISTTRANSLIT:;
#CREDIT:;
#BANNER:pastopelurmxbanner.PNG;
#BACKGROUND:;
#LYRICSPATH:;
#CDTITLE:!tizaTitle.png;
#MUSIC:Jowell & Randy Ft[1]. Tr__bol Clan - Pasto Pel_ (Official Rmx) (Party) (Prod. By DJ Kenoubi).ogg;
#OFFSET:-0.040;
#SAMPLESTART:66.101;
#SAMPLELENGTH:20.000;
#SELECTABLE:YES;
#BPMS:0.000=105.000,20.000=210.000,52.000=105.000,68.000=210.000,192.000=105.000,224.000=210.000,256.000=105.000,268.000=52.500,270.000=210.001,294.000=105.000,312.000=210.001,343.000=105.000,343.500=210.001,350.500=105.000,351.000=210.001,358.000=105.000,358.500=210.001,365.500=105.000,366.000=210.001,536.000=105.000,552.000=210.001,639.000=105.000,639.500=210.001,646.500=105.000,663.000=210.001;
#STOPS:80.000=0.460
,80.500=0.120
,126.000=0.140
,126.500=0.140
,127.000=0.140
,127.500=0.140
,311.750=1.140
,406.000=0.420
,406.500=0.420
,407.000=0.420
,407.500=0.220
,407.750=0.240
,687.000=0.440
,687.500=0.440
,688.000=0.440
,688.500=0.140
,688.750=0.120
,689.000=0.100
,689.250=0.020
,689.500=0.140
,689.750=0.080
,690.000=0.220
,690.250=0.080
,690.500=0.100
,690.750=0.080
,691.000=0.240
;
#BGCHANGES:;
// cache tags:
#FIRSTBEAT:10.500;
#LASTBEAT:691.000;
#SONGFILENAME:Songs/Reggaeton and more/Pasto Pelu (Official Remix)/Pollinosis.sm;
#HASMUSIC:1;
#HASBANNER:1;
#MUSICLENGTH:244.614;
// end cache tags

//---------------dance-single - ----------------
#NOTES:
     dance-single:
     :
     Challenge:
     10:
     0.708,1.000,0.703,0.155,0.243,1000.000,172.000,38.000,116.000,5.000:

0000
0000
0000
0000
,
0000
0000
0000
0000
,
0000
0000
0000
0000
0000
0000
0000
0000
0000
0000
1000
0010
0001
0010
1000
0100
,
0000
0000
0000
0000
,
1000
0000
0100
1000
0100
0000
1000
0000
0010
0000
0100
0001
0100
0000
0001
0000
0010
0000
0100
1000
0100
0000
1000
0000
0100
0000
1000
0010
1000
0000
0001
0000
,
1001
0000
1000
0100
0010
0100
1000
0010
,
0000
1000
0100
0010
0001
0000
0000
0000
,
0000
0000
0001
0100
1000
0100
0001
0000
,
0011
0000
0001
1000
0010
0100
0001
0010
,
0000
0001
0010
0100
0000
1000
1001
0000
,
0101
0000
0000
1001
,
0000
0100
0010
0001
0010
0000
0100
0000
,
1010
0000
0101
0001
0100
0010
1000
0001
,
0000
0000
1000
0100
0001
0000
0100
0000
1000
0000
0000
0001
0100
0000
0010
0000
,
1000
0000
1000
0010
0001
0000
0010
0000
1000
0000
0000
0000
1100
0000
0110
0000
,
0011
0000
0000
0000
0001
0000
0100
0000
0010
0000
0000
0000
0100
0000
0000
0000
0001
0000
0000
0000
0000
0000
0100
0000
1000
0000
0000
0000
0001
0000
0000
0010
,
1000
0000
1000
0100
0010
0000
0001
0010
0100
1000
0100
0010
0001
0000
0001
0100
,
0010
1000
0100
0010
0100
1000
0001
0000
,
1001
1000
0000
0000
,
0000
0000
1000
0100
0001
1000
0010
0001
,
1001
0100
1000
0010
0100
0001
0010
0100
,
1000
0100
0010
0001
0100
0000
0100
0001
,
1001
0000
0000
0000
0000
0000
0001
0100
,
1000
0001
1000
0100
0000
0001
0000
1000
,
1000
0001
1000
0100
0010
0100
1000
0010
,
0100
0001
0100
0010
1000
0000
1001
1000
,
0010
0000
1010
0000
0000
0000
0100
0001
,
0010
0100
0010
0001
0100
0000
1000
0010
,
0100
0010
1000
0100
0010
0100
1000
0010
,
0001
1000
0100
0001
0010
0000
0001
1000
,
1001
0000
0000
0000
0000
0000
1000
0010
,
0001
0010
1000
0100
0020
0001
0001
0001
,
0031
1000
0001
0100
0010
0000
0100
0010
,
1000
2001
3010
0000
,
0000
1000
0001
0100
0010
0000
0010
0100
,
0001
0000
0001
1000
0010
0100
0010
1000
,
0000
0100
0010
0001
0100
0000
1010
0000
,
0101
0000
0000
0000
,
0000
1000
1000
0100
0010
0000
0001
0001
,
0100
0100
0010
0010
1001
0000
0110
0000
,
1001
1000
0010
0100
0010
0000
1000
0100
,
0010
1001
0000
0000
,
0000
0001
0100
1000
0001
0000
0010
1000
,
0001
1001
0000
0000
,
0000
1000
0100
0010
0001
0000
0010
0100
,
1000
0110
0000
0000
,
0000
0000
0000
0000
1001
0000
0000
0000
0000
0000
0000
0000
0000
0000
0000
0000
0000
0000
0000
0000
0000
0000
0000
0000
1000
0000
0000
0000
0000
0100
0000
0000
,
0010
0001
0010
0000
0000
0000
1001
0000
,
0000
0000
1000
0001
0100
0001
1000
0000
1001
0000
0001
0100
0010
0000
0000
0000
,
1001
0000
1000
0100
0010
0000
0000
0000
1001
0000
0001
0010
0100
0000
1100
1001
,
0000
0000
1000
0001
0100
0001
0000
0000
0011
0000
0001
1000
0001
0000
0010
0001
,
1000
0000
0100
1000
0100
0000
1000
0000
0001
0000
0100
0001
0100
0000
0001
0000
0010
0000
0100
1000
0100
0000
1000
0000
0001
0000
1000
0001
1000
0000
0001
0000
,
1000
0100
0010
0001
1000
0100
0010
0001
1000
0100
0010
0001
1000
0010
0100
0001
,
1000
0010
0100
0001
1000
0010
0100
0001
0000
1001
0000
0000
0000
0000
0000
0000
,
1000
0010
0001
0010
1000
0000
1000
0100
0010
0100
1000
0010
0100
0001
0010
0100
,
1000
0100
0010
0001
0100
1000
0001
0010
0000
1000
0001
0000
0110
0000
0000
0000
,
1000
0100
0001
0100
1000
0100
0001
0100
,
1000
0010
0001
1000
0100
0001
0010
1000
,
0001
0100
1000
0010
0100
0001
0100
0010
,
0000
1001
0000
0000
0000
0000
0000
0000
,
0001
0100
0001
0010
0001
0000
0001
0100
,
0010
1000
0100
0010
0100
1000
0010
0100
,
0001
0010
0100
1000
0100
0010
0001
1000
,
0000
0001
0000
0010
0100
0000
0000
0000
,
0000
1010
0000
0101
0000
1001
0000
0110
,
0000
1010
0000
0101
0000
1001
0000
1011
,
0000
0011
0000
0110
0000
1100
0000
1001
,
0110
0000
0000
0000
0000
0000
0000
1000
0000
0100
0000
0010
0001
0000
0000
0000
1000
0000
0000
0000
0000
0000
0000
0000
1000
0000
0000
0000
0100
0000
0000
0000
,
0010
0000
0011
0000
1001
0000
0001
0100
,
0010
0000
1010
0010
1000
0000
0000
1000
,
0010
0100
0001
0100
0010
1000
0100
0010
,
0001
1000
0001
0100
0010
0000
0000
1000
,
0010
0100
0001
0010
0100
0010
0001
1000
,
0001
1000
0001
0100
0101
0100
0000
1100
,
0110
0011
1001
1010
0101
0000
0000
1010
,
0101
0000
0011
0000
1100
0000
0110
0000
1001
0000
0000
1000
0100
0010
0100
1000
,
0010
0001
1000
0100
0001
0010
0100
0010
0001
0000
0000
0000
0000
0000
0011
0000
,
1100
0000
0000
0000
0000
0000
0110
0000
0000
0000
0000
0000
1001
0000
0000
0000
0000
0000
1010
0000
0000
0000
0000
0000
0202
0000
0000
0000
0000
0000
0000
0000
0000
1000
0000
0000
0000
0000
0000
0000
0000
0000
0010
0000
0000
0000
0303
0000
,
1000
0000
0100
1000
0001
0000
0100
0000
0010
0000
1000
0001
0100
0000
0010
0000
,
1000
0000
0100
0010
0001
0000
0010
0000
0100
0000
1000
0010
0100
0000
0001
0000
,
1001
0000
0110
0000
1001
0000
1000
0100
,
0010
0100
1000
0000
1010
0000
0110
0000
,
0101
0000
1001
0000
1100
0000
1000
0100
,
0010
0001
0010
0000
1100
0000
1000
0001
,
1000
0000
0001
1000
1001
0000
0110
0000
,
1001
0000
0000
0000
0110
0000
0000
0000
1001
0000
0000
0000
1000
0100
0010
0000
,
0000
0001
0100
0110
0000
1001
0000
0110
,
0000
1001
0000
0110
0000
1001
0110
0000
,
1100
0000
0011
0000
1000
0100
0010
0100
,
1000
0000
0101
0000
1001
1100
0000
0110
,
0000
0011
0000
0001
0100
0010
1000
0100
,
0000
0000
0110
0000
0000
0000
1000
0100
0010
0000
0000
0000
0001
0000
0100
0000
,
0010
1010
0101
0011
,
1100
0000
1000
0001
1001
0000
0001
0100
,
0101
0000
0010
1000
1010
0000
0110
0000
,
0101
M000
0M00
000M
00M0
M000
0M00
000M
,
00M0
1010
1100
0101
,
0011
0000
1010
0000
1100
0000
M000
0M00
,
000M
M000
00M0
000M
0M00
M000
000M
00M0
,
M000
0M00
000M
M000
00M0
000M
0M00
M000
,
000M
0110
1001
0110
,
1001
0000
0000
0000
0110
0000
0000
0000
1001
0000
0110
0000
1001
0000
0110
1001
,
0110
1000
0000
0001
0000
0000
1001
0000
,
1000
0100
0010
0001
1001
0000
0000
0001
,
0100
0010
1000
0000
1000
0100
0000
0100
,
0010
0000
0010
0100
1000
0000
1000
0100
,
0001
0000
0100
0000
1000
0000
0010
0000
0200
0000
M000
00M0
000M
M000
00M0
000M
,
03M0
000M
M000
0M00
00M0
0M00
M000
000M
00M0
0M00
00M0
000M
0100
0000
0010
0000
,
1000
0001
1000
0010
0100
0000
0100
0010
,
1000
1010
0110
0101
,
1000
0100
0010
0001
0010
0100
1000
0000
,
0001
0100
0010
1000
0010
0100
0001
0000
,
1000
0010
0100
0001
0100
0010
1000
0000
,
0001
0010
0100
1000
0100
0010
0001
0000
,
1000
0100
0010
0100
1000
0100
0010
0000
,
0001
0010
0100
0010
0001
0010
0100
0000
,
1000
0100
0010
0100
1000
0010
0100
0000
,
0100
0000
0000
0010
0000
0000
M000
0000
00M0
0000
000M
0000
0M00
0000
00M0
0000
M000
0000
000M
0000
0M00
0000
0000
0000
,
0100
0010
1000
0020
0200
0000
0000
0330
,
0001
0010
0100
0010
0001
0100
0010
0100
,
0001
1000
0001
2000
0002
0000
0000
3003
,
1000
0001
1000
0001
1000
0100
0010
0100
,
1000
0010
0100
0020
2000
0000
0000
3030
,
0100
0010
0001
0020
0200
0000
0000
0330
,
0001
0100
0010
0100
0001
1000
0010
1000
,
0001
0010
0100
2000
0002
0000
0000
3003
,
1000
0100
0001
0100
1000
0010
0001
0010
,
1000
0100
0010
0002
2000
0000
0000
3003
,
1000
0100
0001
0200
2000
0000
0000
3300
,
1000
0010
0001
1000
0100
0001
0010
1000
,
0001
0100
1000
0002
2000
0000
0000
3003
,
1000
0100
0010
0001
1001
0000
0000
0000
,
1110
0000
1001
0000
,
0111
0000
0000
0000
2002
0000
0000
3003
,
M000
0M00
00M0
000M
0M00
00M0
M100
00M0
,
0M00
000M
00M0
0M00
M000
00M0
0M00
000M
,
0M10
0000
00M0
0100
M000
0000
000M
0000
00M0
0000
0M00
0000
M001
0000
00M0
0000
,
010M
M000
0M10
000M
00M0
M000
000M
0M00
,
1000
0100
0010
0200
2000
0000
0000
3300
,
0001
0100
0010
0100
0001
0100
0010
0100
,
0001
0010
0100
0020
0002
0000
0000
0033
,
1000
0001
0100
0001
1000
0010
0001
1000
,
0100
0001
0010
0200
2000
0000
0000
3300
,
1000
0100
0001
0200
2000
0000
0000
3300
,
1000
0010
0001
0010
1000
0010
0001
0010
,
1000
0010
0001
0020
2000
0000
0000
3030
,
0001
0010
0100
1000
0001
0100
0010
1000
,
0001
0010
0100
2000
0002
0000
0000
3003
,
1000
0100
0010
0002
2000
0000
0000
3003
,
0001
0010
0100
1000
0001
0010
0100
1000
,
0001
0010
0100
1000
1001
0000
0000
0000
,
1000
0010
0100
0001
1001
0000
0000
0000
,
1001
0000
0110
0000
,
1001
0000
0110
0000
,
1100
0000
0110
0000
0011
0000
0001
0010
,
0100
1000
0100
0000
0110
0000
1001
0000
,
0110
0000
1001
0000
0110
0000
1000
0010
,
0100
0010
1000
0000
0101
0000
0010
0001
,
0100
0000
0010
1000
0100
0000
1100
0000
,
0011
0000
0000
0000
1001
0000
0000
0000
0110
0000
0000
0000
1000
0100
0010
0000
,
0000
0001
0100
0010
0000
1010
0000
0101
,
0000
1010
0000
0101
0000
1100
1001
0011
,
1010
0000
1000
0010
0100
0001
0010
0000
1001
0000
0100
0000
1001
0000
0010
0000
,
1001
0000
1000
0010
0100
0001
0010
0000
1001
0000
1000
0100
0010
0000
0010
0100
,
1000
0000
1010
0000
0110
0000
0101
0000
1001
0000
0001
0010
0100
0000
0001
0100
,
0010
0001
0100
0010
1001
0000
0000
0000
,
0000
0000
1000
0100
,
0010
1000
0010
0100
,
M000
00M0
000M
0M00
M000
00M0
000M
0M00
,
M000
00M0
000M
0M00
M000
0M00
000M
00M0
,
M000
0M00
000M
00M0
M001
0M00
001M
00M0
,
0001
0000
0010
0000
0100
0000
1000
0001
,
1000
0000
0002
0000
M000
00M0
0M00
M000
0M00
00M0
0M00
0000
1003
0000
0000
0000
;
