#TITLE:Being;
#SUBTITLE:Anima (2007);
#ARTIST:Spheric Universe Experience;
#TITLETRANSLIT:;
#SUBTITLETRANSLIT:;
#ARTISTTRANSLIT:;
#CREDIT:;
#BANNER:Being_bn.png;
#BACKGROUND:Being_1_bg.png;
#LYRICSPATH:;
#CDTITLE:!cdtitle.png;
#MUSIC:02 Being.mp3;
#OFFSET:-0.162;
#SAMPLESTART:100.240;
#SAMPLELENGTH:12.000;
#SELECTABLE:YES;
#BPMS:0.000=148.003,30.000=147.995,31.000=148.003,32.000=147.995,33.000=148.003,35.000=147.995,36.000=148.003,38.000=147.995,39.000=148.003,40.000=147.995,41.000=148.003,43.000=147.995,44.000=148.003,46.000=147.995,47.000=148.003,48.000=147.995,49.000=148.003,51.000=147.995,52.000=148.003,54.000=147.995,55.000=148.003,56.000=147.995,57.000=148.003,59.000=147.995,60.000=148.003,61.000=147.995,62.000=148.003,64.000=147.995,65.000=148.003,67.000=147.995,68.000=148.003,69.000=147.995,70.000=148.003,72.000=147.995,73.000=148.003,75.000=147.995,76.000=148.003,77.000=147.995,78.000=148.003,80.000=147.995,81.000=148.003,83.000=147.995,84.000=148.003,85.000=147.995,86.000=148.003,88.000=147.995,89.000=148.003,91.000=147.995,92.000=148.003,93.000=147.995,94.000=148.003,96.000=147.995,97.000=148.003,98.000=147.995,99.000=148.003,101.000=147.995,102.000=148.003,104.000=147.995,105.000=148.003,106.000=147.995,107.000=148.003,109.000=147.995,110.000=148.003,112.000=147.995,113.000=148.003,114.000=147.995,115.000=148.003,117.000=147.995,118.000=148.003,119.000=147.995,120.000=148.003,122.000=147.995,123.000=148.003,125.000=147.995,126.000=148.003,127.000=147.995,128.000=148.003,130.000=147.995,131.000=148.003,133.000=147.995,134.000=148.003,135.000=147.995,136.000=148.003,138.000=147.995,139.000=148.003,141.000=147.995,142.000=148.003,143.000=147.995,144.000=148.003,146.000=147.995,147.000=148.003,149.000=147.995,150.000=148.003,151.000=147.995,152.000=148.003,154.000=147.995,155.000=148.003,156.000=147.995,157.000=148.003,159.000=147.995,160.000=148.003,162.000=147.995,163.000=148.003,164.000=147.995,165.000=148.003,167.000=147.995,168.000=148.003,170.000=147.995,171.000=148.003,172.000=147.995,173.000=148.003,175.000=147.995,176.000=148.003,178.000=147.995,179.000=148.003,180.000=147.995,181.000=148.003,183.000=147.995,184.000=148.003,186.000=147.995,187.000=148.003,188.000=147.995,189.000=148.003,191.000=147.995,192.000=148.003,193.000=147.995,194.000=148.003,196.000=147.995,197.000=148.003,199.000=147.995,200.000=148.003,201.000=147.995,202.000=148.003,204.000=147.995,205.000=148.003,207.000=147.995,208.000=148.003,209.000=147.995,210.000=148.003,212.000=147.995,213.000=148.003,215.000=147.995,216.000=148.003,217.000=147.995,218.000=148.003,220.000=147.995,221.000=148.003,223.000=147.995,224.000=148.003,225.000=147.995,226.000=148.003,228.000=147.995,229.000=148.003,230.000=147.995,231.000=148.003,233.000=147.995,234.000=148.003,235.000=147.995,236.000=148.003,238.000=147.995,239.000=148.003,241.000=147.995,242.000=148.003,243.000=147.995,244.000=148.003,246.000=147.995,247.000=148.003,249.000=147.995,250.000=148.003,251.000=147.995,252.000=148.003,254.000=147.995,255.000=148.003,257.000=147.995,258.000=148.003,259.000=147.995,260.000=148.003,262.000=147.995,263.000=148.003,265.000=147.995,266.000=148.003,267.000=147.995,268.000=148.003,270.000=147.995,271.000=148.003,272.000=147.995,273.000=148.003,275.000=147.995,276.000=148.003,278.000=147.995,279.000=148.003,280.000=147.995,281.000=148.003,283.000=147.995,284.000=148.003,286.000=147.995,287.000=148.003,288.000=147.995,289.000=148.003,291.000=147.995,292.000=148.003,294.000=147.995,295.000=148.003,296.000=147.995,297.000=148.003,299.000=147.995,300.000=148.003,302.000=147.995,303.000=148.003,304.000=147.995,305.000=148.003,307.000=147.995,308.000=148.003,309.000=147.995,310.000=148.003,312.000=147.995,313.000=148.003,315.000=147.995,316.000=148.003,317.000=147.995,318.000=148.003,320.000=147.995,321.000=148.003,323.000=147.995,324.000=148.003,325.000=147.995,326.000=148.003,328.000=147.995,329.000=148.003,331.000=147.995,332.000=148.003,333.000=147.995,334.000=148.003,336.000=147.995,337.000=148.003,339.000=147.995,340.000=148.003,341.000=147.995,342.000=148.003,344.000=147.995,345.000=148.003,346.000=147.995,347.000=148.003,349.000=147.995,350.000=148.003,352.000=147.995,353.000=148.003,354.000=147.995,355.000=148.003,357.000=147.995,358.000=148.003,360.000=147.995,361.000=148.003,362.000=147.995,363.000=148.003,365.000=147.995,366.000=148.003,368.000=147.995,369.000=148.003,370.000=147.995,371.000=148.003,373.000=147.995;
#STOPS:;
#BGCHANGES:0.000=Being_1_bg.png=1.000=0=0=1,
68.000=Being_2_bg.png=1.000=0=0=1,
99999=-nosongbg-=1.000=0=0=0 // don't automatically add -songbackground-
;
// cache tags:
#FIRSTBEAT:53.000;
#LASTBEAT:374.000;
#SONGFILENAME:Songs/Astronomic Metal Collection 2/(Kommsiar vs. Roar176) Being/frenchsim.sm;
#HASMUSIC:1;
#HASBANNER:1;
#MUSICLENGTH:151.849;
// end cache tags

//---------------dance-single - ----------------
#NOTES:
     dance-single:
     :
     Hard:
     13:
     1.000,1.000,1.000,1.000,1.000,1076.000,282.000,206.000,0.000,62.000:
0000
0000
0000
0000
,
0000
0000
0000
0000
,
0000
0000
0000
0000
,
0000
0000
0000
0000
,
0000
0000
0000
0000
,
0000
0000
0000
0000
,
0000
0000
0000
0000
,
0000
0000
0000
0000
,
0000
0000
0000
0000
,
0000
0000
0000
0000
,
0000
0000
0000
0000
,
0000
0000
0000
0000
,
0000
0000
0000
0000
,
0000
0000
0000
0000
0010
0100
1000
0010
0100
1000
0001
0010
0100
0010
0100
1000
,
0001
0100
0010
1000
0001
0100
1000
0001
0100
1000
0010
0001
0100
0001
0100
1000
,
0001
0100
0010
0100
1000
0010
0100
1000
0001
0010
0100
0010
0100
1000
0001
0100
,
0010
1000
0001
0100
1000
0001
0100
1000
0010
0001
0100
0001
0100
1000
0100
0010
,
1101
0000
0010
0000
0100
0000
1001
0000
0100
0000
0001
0010
1100
0000
0001
0000
0010
0000
1100
0000
0010
0000
0001
0010
1100
0000
1001
0000
0110
0000
0001
0000
,
1100
0000
0010
0000
0100
0000
1010
0000
0001
0000
0010
0100
1001
0000
0010
0000
0100
0000
1010
0000
0001
0000
0010
0100
1001
0000
0011
0000
1100
0000
0010
0000
,
0001
0000
1010
0000
0100
0000
0001
0010
1100
0000
0001
0000
0010
0000
0101
0000
0010
0000
1000
0100
0011
0000
1001
0000
0110
0000
0001
0000
1010
0000
0100
0000
,
0010
0000
0000
0000
0000
0000
0000
0000
0000
0000
0000
0000
0101
0000
0000
0000
0000
0000
0000
0000
0000
0000
0000
0000
1000
0000
0000
0000
0000
0000
0000
0000
0000
0000
0000
0000
0100
0000
0000
0000
0000
0000
0010
0000
0000
0000
0000
0000
1001
0000
0000
0000
0100
0000
0000
0000
0000
0000
0000
0000
0010
0000
0000
0000
0000
0000
0000
0000
0000
0000
0000
0000
0100
0000
0000
0000
0000
0000
0000
0000
0000
0000
0000
0000
1001
0000
0000
0000
0000
0000
0000
0000
0000
0000
0000
0000
0010
0000
0000
0000
0000
0000
0000
0000
0000
0000
0000
0000
0001
0000
0000
0000
0000
0000
0010
0000
0000
0000
0000
0000
1100
0000
0000
0000
0000
0000
0000
0000
0000
0000
0000
0000
1001
0000
0000
0000
0000
0000
0000
0000
0000
0000
0000
0000
0110
0000
0000
0000
0000
0000
0000
0000
0000
0000
0000
0000
1000
0000
0000
0000
0000
0000
0000
0000
0000
0000
0000
0000
0001
0000
0000
0000
0000
0000
0000
0000
0000
0000
0000
0000
0110
0000
0000
0000
0000
0000
0000
0000
0000
0000
0000
0000
,
1000
0000
0100
0010
1001
0000
0010
0000
0100
0000
1010
0000
0001
0000
0010
0100
1001
0000
0011
0000
1100
0000
0010
0000
1001
0000
0010
0000
0100
0000
0011
0000
,
0100
0000
1000
0100
0011
0000
0100
0000
1000
0000
0011
0000
0100
0000
0010
0100
1001
0000
0011
0000
1100
0000
0001
0000
0010
0000
1001
0000
0010
0000
1000
0100
,
0011
0000
1000
0000
0100
0000
0011
0000
1000
0000
0001
0010
1100
0000
0001
0000
0110
0000
0001
0000
1110
0000
0001
0000
0010
0000
0100
0000
1001
0000
0010
0000
,
0001
0000
0000
0000
0010
0000
0000
0000
1101
0000
0000
0000
0010
0000
0000
0000
0100
0000
0000
0000
1000
0000
0000
0000
0011
0000
0000
0000
1000
0000
0000
0000
1000
0000
0000
0000
1000
0000
0000
0000
0021
0030
0000
0000
0200
0300
0000
0000
2000
3000
0000
0000
0021
0030
0000
0000
1100
0000
0000
0000
0010
0000
0000
0000
,
0001
0000
0000
0000
0010
0000
0000
0000
0101
0000
0000
0000
2010
3000
0000
0000
0200
0300
0000
0000
0020
0030
0000
0000
2001
3000
0000
0000
0200
0300
0000
0000
0021
0030
0000
0000
0200
0300
0000
0000
2001
3000
0000
0000
0020
0030
0000
0000
0200
0300
0000
0000
1020
0030
0000
0000
0102
0003
0000
0000
0020
0030
0000
0000
,
0200
0300
0000
0000
2000
3000
0000
0000
0021
0030
0000
0000
1200
0300
0000
0000
0020
0030
0000
0000
0200
0300
0000
0000
1002
0003
0000
0000
0020
0030
0000
0000
0102
0003
0000
0000
0020
0030
0000
0000
0200
0300
0000
0000
2010
3000
0000
0000
0101
0000
0000
0000
1000
0000
0000
0000
0001
0000
0000
0000
0010
0000
0000
0000
,
1100
0000
0000
0000
0021
0030
0000
0000
0200
0300
0000
0000
2000
3000
0000
0000
0021
0030
0000
0000
2000
3000
0000
0000
0200
0300
0000
0000
0020
0030
0000
0000
1002
0003
0000
0000
0020
0030
0000
0000
0200
0300
0000
0000
2001
3000
0000
0000
0210
0300
0000
0000
0002
0003
0000
0000
0020
0030
0000
0000
0200
0300
0000
0000
,
2010
3000
0000
0000
0201
0300
0000
0000
0020
0030
0000
0000
0200
0300
0000
0000
2001
3000
0000
0000
0020
0030
0000
0000
0201
0300
0000
0000
0020
0030
0000
0000
0200
0300
0000
0000
2001
3000
0000
0000
0110
0000
0000
0000
1000
0000
0000
0000
0001
0000
0000
0000
0010
0000
0000
0000
1100
0000
0000
0000
0021
0030
0000
0000
,
0200
0300
0000
0000
0020
0030
0000
0000
2001
3000
0000
0000
0020
0030
0000
0000
0200
0300
0000
0000
2000
3000
0000
0000
0201
0300
0000
0000
0020
0030
0000
0000
0200
0300
0000
0000
0021
0030
0000
0000
2100
3000
0000
0000
0020
0030
0000
0000
0200
0300
0000
0000
2000
3000
0000
0000
0201
0300
0000
0000
1020
0030
0000
0000
,
0002
0003
0000
0000
0020
0030
0000
0000
2001
3000
0000
0000
0200
0300
0000
0000
0021
0030
0000
0000
0200
0300
0000
0000
2000
3000
0000
0000
0201
0300
0000
0000
1010
0000
0000
0000
0100
0000
0000
0000
0010
0000
0000
0000
0100
0000
0000
0000
1010
0000
0000
0000
0201
0300
0000
0000
0020
0030
0000
0000
0200
0300
0000
0000
,
1002
0003
0000
0000
0020
0030
0000
0000
0200
0300
0000
0000
0020
0030
0000
0000
2202
3303
0000
0000
0010
0000
0000
0000
0100
0000
0000
0000
0010
0000
0000
0000
0100
0000
0000
0000
1000
0000
0000
0000
0001
0000
0000
0000
0010
0000
0000
0000
1000
0000
0000
0000
0010
0000
0000
0000
0001
0000
0000
0000
0010
0000
0000
0000
,
1000
0001
0010
0100
1000
0100
0010
0100
1000
0001
0100
0010
1100
0001
0001
0110
,
1000
0000
0000
1000
0000
0000
0101
0000
0000
0010
0000
0000
1202
0303
0000
1000
0000
0000
1000
0000
0000
0000
0000
0000
0101
0000
0000
0100
0000
0000
0000
0000
0000
1000
0000
0000
1000
0000
0000
0000
0000
0000
0100
0000
0000
0100
0000
0000
,
0001
1000
1000
0000
0100
0100
0000
1000
1001
0000
0100
0100
0000
1000
1000
0000
,
0101
0100
0100
0100
0010
0100
1000
0010
0101
1000
0010
0100
1000
0001
0010
0100
,
0011
1000
0100
1000
0010
0100
1000
0010
0101
1000
0010
0100
1000
1000
1000
0000
,
0110
0100
0000
1000
1000
0000
0100
0100
0001
1000
1000
0000
0100
0100
0000
1000
,
1001
0000
0100
0100
0000
1000
1000
0000
0101
0100
0100
0100
0010
0100
1000
0010
,
0100
1000
0010
0100
1000
0001
0010
0100
0001
1000
0100
1000
0011
0100
1001
0100
,
0011
0100
1001
0010
1101
1010
1001
0000
1100
0110
0001
1100
1010
0000
1101
0110
,
0000
1010
1011
0000
0110
1100
0001
1100
1010
0000
0111
0110
0000
1010
1101
0010
,
0100
0100
1100
0100
0010
0100
1001
0010
0100
1000
0011
0100
1000
0001
1010
0100
,
0001
1000
0110
1000
0010
0100
1001
0010
0100
1000
0011
0100
1010
1100
1011
0000
,
1100
0110
0001
1010
1001
0000
0111
0110
0000
1100
1011
0000
1100
0110
0001
1100
,
1001
0000
0110
0101
0000
1010
1101
0010
0100
0100
0110
0100
0011
0100
1000
0010
,
0101
1000
0010
0100
1001
0100
0010
0100
1011
0100
0010
0001
1100
0011
0100
1000
,
0111
1000
0001
0010
0101
0010
0100
1000
0111
1000
0100
0010
1001
0100
0010
0100
,
1011
0000
0000
0100
0000
0000
0000
0010
0000
0000
0000
0100
0000
0000
0000
2012
0000
0000
0000
0003
0000
0000
0000
3000
0000
0000
0000
0000
0000
0000
0000
0000
0100
0000
0000
0000
0000
0000
0000
0000
0000
0000
0000
0000
0000
0000
0000
0000
0011
0000
0000
0000
0000
0000
0000
0000
0100
0000
0000
0000
0000
0000
0000
0000
,
1000
0000
0000
0000
0000
0000
0000
0000
0212
0000
0000
0000
0300
0000
0000
0000
0003
0000
0000
0000
0000
0000
0000
0000
1000
0001
0000
0000
0000
0000
0000
0000
0000
0000
0000
0000
0000
0000
0000
0000
2120
0000
0000
0000
0030
0000
0000
0000
3000
0000
0000
0000
0100
0000
0000
0000
0011
0000
0000
0000
0000
0000
0000
0000
,
0000
0000
0011
1000
0001
0010
0100
1000
0221
0030
0300
0000
0101
0000
2021
3000
,
0130
0100
1001
0100
0011
1100
0011
1100
0001
0010
0100
1000
0122
0030
0003
0000
,
1100
0000
0000
0000
0000
0000
0000
0000
0000
0000
0000
0000
0000
0000
0000
0000
2201
0000
0000
0000
3000
0000
0000
0000
0310
0000
0000
0000
0010
0000
0000
1100
0000
0000
0001
0000
0000
0000
0000
0010
0000
0000
0100
0000
0001
0000
0000
0000
1000
0000
0000
0000
0001
0000
0000
0000
0010
0000
0000
0000
0100
0000
0000
0000
,
1000
0001
1220
0030
0300
0000
0011
0000
2201
0300
3010
0100
0001
1000
0010
0100
,
1000
0001
0100
0010
1000
0010
2102
3000
0003
0000
1100
0000
0000
0000
2012
3100
,
0013
0001
1000
0010
0100
0010
1000
0001
0010
0100
1000
0100
1022
0003
0030
0000
,
0011
0000
2201
3000
0310
0100
0001
1000
0010
0100
1000
0001
0110
1000
0100
0011
,
2201
0000
0000
0000
0300
0000
0000
0000
3000
0000
0000
0000
0000
0000
0000
0000
0011
0000
0000
0000
0000
0000
0000
0000
0000
0000
0000
0000
0000
0000
0000
0000
2201
3300
0000
0000
0010
0000
0000
0000
0100
0000
0000
0000
0010
0000
0000
0000
0100
0000
0000
0000
1000
0000
0000
0000
0001
0000
0000
0000
0010
0000
0000
0000
,
1000
0100
0001
0100
1000
0001
0010
0100
1000
0100
0010
0100
1000
0001
0100
0010
,
2202
3303
0000
0000
0010
0000
0000
0000
1000
0000
0000
0000
0010
0000
0000
0000
1001
0000
0000
0000
0010
0000
0000
0000
0100
0000
0000
0000
0010
0000
0000
0000
1000
0000
0000
0000
0010
0000
0000
0000
1000
0000
0000
0000
0010
0000
0000
0000
1001
0000
0000
0000
0100
0000
0000
0000
2022
3033
0000
0000
0100
0000
0000
0000
,
0001
0000
0000
0000
0100
0000
0000
0000
0011
0000
0000
0000
0100
0000
0000
0000
0001
0000
0000
0000
0100
0000
0000
0000
2022
3033
0000
0000
0100
0000
0000
0000
1000
0000
0000
0000
0001
0000
0000
0000
1010
0000
0000
0000
0001
0000
0000
0000
1000
0000
0000
0000
0001
0000
0000
0000
0100
0000
0000
0000
0001
0000
0000
0000
,
1000
0000
0000
0000
0001
0000
0000
0000
1010
0000
0000
0000
0100
0000
0000
0000
2022
3033
0000
0000
0100
0000
0000
0000
0010
0000
0000
0000
0100
0000
0000
0000
0011
0000
0000
0000
0100
0000
0000
0000
2022
3033
0000
0000
0100
0000
0000
0000
1000
0000
0000
0000
0010
0000
0000
0000
1001
0000
0000
0000
0010
0000
0000
0000
,
1000
0000
0000
0000
0010
0000
0000
0000
0100
0000
0000
0000
0010
0000
0000
0000
1000
0000
0000
0000
0010
0000
0000
0000
1001
0000
0000
0000
0100
0000
0000
0000
2022
3033
0000
0000
0100
0000
0000
0000
0001
0000
0000
0000
0100
0000
0000
0000
0011
0000
0000
0000
0100
0000
0000
0000
0001
0000
0000
0000
0100
0000
0000
0000
,
2022
3033
0000
0000
0100
0000
0000
0000
1000
0000
0000
0000
0001
0000
0000
0000
1010
0000
0000
0000
0001
0000
0000
0000
1000
0000
0000
0000
0001
0000
0000
0000
0100
0000
0000
0000
0001
0000
0000
0000
1000
0000
0000
0000
0001
0000
0000
0000
1010
0000
0000
0000
0100
0000
0000
0000
2022
3033
0000
0000
0100
0000
0000
0000
,
0010
0000
0000
0000
0100
0000
0000
0000
0011
0000
0000
0000
0100
0000
0000
0000
2022
3033
0000
0000
0100
0000
0000
0000
1000
0000
0000
0000
0010
0000
0000
0000
1001
0000
0000
0000
0010
0000
0000
0000
1000
0000
0000
0000
0010
0000
0000
0000
0100
0000
0000
0000
0010
0000
0000
0000
1000
0000
0000
0000
0010
0000
0000
0000
,
1001
0000
0000
0000
0100
0000
0000
0000
2022
3033
0000
0000
0100
0000
0000
0000
0001
0000
0000
0000
0100
0000
0000
0000
0011
0000
0000
0000
0100
0000
0000
0000
0001
0000
0000
0000
0100
0000
0000
0000
2022
3033
0000
0000
0100
0000
0000
0000
1000
0000
0000
0000
0001
0000
0000
0000
1010
0000
0000
0000
0001
0000
0000
0000
,
1000
0000
0000
0000
0001
0000
0000
0000
1000
0000
0000
0000
0001
0000
0000
0000
0100
0000
0000
0000
0001
0000
0000
0000
1010
0000
0000
0000
0100
0000
0000
0000
2022
3033
0000
0000
0100
0000
0000
0000
0010
0000
0000
0000
0100
0000
0000
0000
0011
0000
0000
0000
0100
0000
0000
0000
2022
3033
0000
0000
0100
0000
0000
0000
,
1000
0000
0000
0000
0010
0000
0000
0000
1001
0000
0000
0000
0010
0000
0000
0000
1000
0000
0000
0000
0010
0000
0000
0000
0100
0000
0000
0000
0010
0000
0000
0000
1000
0000
0000
0000
0010
0000
0000
0000
1001
0000
0000
0000
0100
0000
0000
0000
2022
3033
0000
0000
0100
0000
0000
0000
0001
0000
0000
0000
0100
0000
0000
0000
,
0011
0000
0100
0000
0001
0000
0100
0000
0011
0000
0100
0000
1001
0000
0010
0000
0101
0000
1000
0000
0101
0000
0011
0000
2210
3000
0000
0000
0001
0000
0000
0000
,
0000
0000
0000
0000
2001
3000
0000
0000
0000
0000
0000
0000
0001
0000
0300
0000
2021
3000
0000
0000
0100
0000
0000
0000
0000
0000
0000
0000
0100
0000
0000
0000
,
0000
0000
0000
0000
0100
0000
0000
0000
0002
0003
0000
0000
0100
0000
0000
0000
0000
0000
0000
0000
0100
0000
0030
0000
2002
0003
0000
0000
0010
0000
0000
0000
,
0000
0000
0000
0000
0210
0300
0000
0000
0000
0000
0000
0000
0010
0000
3000
0000
0212
0300
0000
0000
1000
0000
0000
0000
0000
0000
0000
0000
1000
0000
0000
0000
,
0000
0000
0000
0000
1000
0000
0000
0000
0020
0030
0000
0000
1000
0000
0003
0000
0220
0300
0000
0000
0001
0000
0030
0000
2210
3000
0000
0000
0001
0000
0000
0000
,
0000
0000
0000
0000
2001
3000
0000
0000
0000
0000
0000
0000
0001
0000
0300
0000
0221
0300
0000
0000
1000
0000
0000
0000
0000
0000
0000
0000
1000
0000
0000
0000
,
0000
0000
0000
0000
1000
0000
0000
0000
0002
0003
0000
0000
1000
0000
0000
0000
0000
0000
0000
0000
1000
0000
0030
0000
0202
0003
0000
0000
0010
0000
0000
0000
,
0000
0000
0000
0000
0012
0003
0000
0000
0000
0000
0000
0000
0010
0000
0300
0000
2012
0003
0000
0000
0100
0000
0000
0000
0000
0000
0000
0000
0100
0000
0000
0000
,
0000
0000
0000
0000
0000
0000
0000
0000
0100
0000
0000
0000
3000
0000
0000
0000
1000
0000
0000
0000
0011
0000
0000
0000
1000
0000
0000
0000
0001
0000
0000
0000
0001
0000
0000
0000
0001
0000
0000
0000
0010
0000
0000
0000
0100
0000
0000
0000
2022
3000
0030
0000
0000
0000
0000
0000
0000
0000
0000
0000
0000
0000
0000
0000
,
0000
0000
0000
0000
0000
0000
0000
0000
0023
0000
0000
0000
1030
0001
0010
0100
,
0010
0000
0000
0000
0000
0000
0000
0000
0000
0100
0000
0000
0000
0000
0000
0000
0000
0000
1000
0000
0000
0000
0000
0000
0000
0000
0000
0001
0000
0000
0000
0000
0000
0000
0000
0000
0000
0000
0000
0000
0010
0000
0000
0000
0000
0000
0000
0000
0000
0000
0000
0100
0000
0000
0000
0000
0000
0000
0000
0000
0000
0000
0000
0010
0000
0000
0000
0000
0000
0000
0000
0000
0000
0200
0000
0000
0000
0000
0000
0000
0000
0000
0000
0000
0000
0000
0000
0000
0000
0000
0000
0000
0000
0000
0000
0000
0000
0000
0000
0000
0000
0000
0000
0000
0000
0000
0000
0000
0000
0000
0000
0000
0000
0000
0000
0000
0000
0000
0000
0000
0000
0000
0000
0000
0000
0000
0000
0000
0000
0000
0000
0000
0300
2000
0000
0000
0000
0000
0000
0000
0000
0000
0000
0000
0000
0000
0000
0000
0000
0000
0000
0000
0000
0000
0000
0000
3000
0100
0000
0000
0000
0000
0000
0000
0010
0000
0000
0000
0000
0000
0000
0001
0000
0000
0000
0000
0000
0000
0100
0000
0000
0000
0000
0010
0000
0000
0000
0000
0000
1000
0000
0000
,
0000
0000
0000
0000
0000
0000
0100
0000
0000
0000
0000
0000
0000
0000
0010
0000
0000
0000
0000
0000
0000
0000
0000
0000
0000
0000
0000
0000
0000
0001
0000
0000
0000
0000
0000
0000
0000
0000
0000
0000
0000
0100
0000
0000
0000
0000
0000
0000
0000
0000
0000
0001
0000
0000
0000
0000
0000
0000
0000
0000
0000
0000
0010
0000
0000
0000
0000
0000
0000
0000
0000
0000
0100
0000
0000
0000
0000
0000
0000
0001
0000
0000
0000
0000
0000
0000
0000
0000
0000
0000
0010
0000
0000
0000
0000
0000
0000
0000
0000
1000
0000
0000
0000
0000
0000
0000
0000
0000
0000
0000
0000
0000
0100
0000
0000
0000
0000
0000
0000
0000
0000
0000
0000
0010
0000
0000
0000
0000
0000
0000
0000
0000
0000
1000
0000
0000
0000
0000
0000
0000
0000
0000
0000
0000
0010
0000
0000
0000
0000
0000
0000
0000
0000
0000
0000
0000
0000
0000
0001
0000
0000
0000
0000
0000
0000
0000
0000
0000
0010
0000
0000
0000
0000
0000
0000
0000
0000
0000
0000
0000
0000
0000
0000
1000
0000
0000
0000
0000
0000
0000
0000
0000
,
0010
0000
0000
0000
0000
0000
0000
0000
0000
1000
0000
0000
0000
0000
0000
0000
0000
0000
0000
0000
0000
0001
0000
0000
0000
0000
0000
0000
0000
0000
0000
0000
0000
0000
0010
0000
0000
0000
0000
0000
0000
0000
0000
0000
0000
0000
0000
0000
0000
1000
0000
0000
0000
0000
0000
0000
0000
0000
0000
0000
0000
0100
0000
0000
0000
0000
0000
0000
0000
0000
0000
0000
0000
2000
0000
0000
0000
0000
0000
0000
0000
0000
0000
0000
0000
0000
0000
0000
0000
0000
0000
0000
0000
0000
0000
0000
0000
0000
0000
0000
0000
0000
0000
0000
0000
0000
0000
0000
0000
0000
0000
0000
0000
0000
0000
0000
0000
0000
0000
0000
0000
0000
0000
0000
0000
0000
0000
0000
0000
0000
0000
0000
0000
0000
0000
0000
0000
0000
0000
0000
0000
0000
0000
0000
3020
0000
0000
0000
0000
0000
0000
0000
0000
0000
0000
0000
0000
0000
0000
0000
0000
0000
0000
0000
0000
0000
0000
0000
0000
0000
0000
0000
0000
0000
0000
0000
0000
0000
0000
0000
0000
0000
0000
0000
0000
0000
0000
0000
0000
0000
0000
0000
,
0000
0130
1000
0100
2000
0000
0000
3000
0002
0000
0000
0000
0000
1003
0100
0010
,
0201
0000
0000
0000
0000
0000
0000
0000
0000
0000
0000
0000
0001
0000
0000
0000
0000
0000
0000
0000
0000
0000
0000
0000
0001
0000
0000
0000
0000
0000
0000
0000
0000
0000
0000
0000
0001
0000
0000
0000
0000
0000
0000
0000
0000
0000
0000
0000
1300
0000
0000
0000
0000
0000
0001
0000
0000
0000
0000
0000
0010
0000
0000
0000
0000
0000
0200
0000
0000
0000
0000
0000
1000
0000
0000
0000
0000
0000
0000
0000
0000
0000
0000
0000
0001
0000
0000
0000
0000
0000
0000
0000
0000
0000
0000
0000
0010
0000
0000
0000
0000
0000
0000
0000
0000
0000
0000
0000
0301
0000
0000
0000
0000
0000
0000
0000
0000
0000
0000
0000
0100
0000
0000
0000
0000
0000
0000
0000
0000
0000
0000
0000
0100
0000
0000
0000
0000
0000
0000
0000
0000
0000
0000
0000
2022
0000
0000
3033
0000
0000
0000
0000
0000
0000
0000
0000
0100
0000
0000
0000
0000
0000
0000
0000
0000
0000
0000
0000
0000
0010
0000
0000
0000
0000
0000
0000
0000
0000
0000
0000
0000
0000
0001
0000
0000
0000
0000
0000
0000
0000
0000
0000
,
0000
1000
0000
0000
0000
0000
0000
0000
0000
0000
0000
0000
0000
0000
0000
0001
0000
0000
0000
0000
0000
0000
0000
0000
0000
0010
0000
0000
0000
0000
0000
0000
0000
0000
0000
0100
0000
0000
0000
0000
0000
0000
0000
0000
0000
0000
1000
0000
0000
0000
0000
0000
0000
0000
0000
0000
0000
0000
0100
0000
0000
0000
0000
0000
0000
0010
0000
0000
0000
0000
0000
0000
0000
0000
0000
0000
0000
0000
0000
0000
0001
0000
0000
0000
0000
0000
0000
0000
0000
0000
0000
0000
1000
0000
0000
0000
0000
0000
0000
0000
0000
0000
0000
0001
0000
0000
0000
0000
0000
0000
0000
0000
0100
0000
0000
0000
0000
0000
0000
0000
0000
0000
1000
0000
0000
0000
0000
0000
0000
0000
0000
0000
0000
0000
0000
0010
0000
0000
0000
0000
0000
0000
0000
0000
1000
0000
0000
0000
0000
0000
0000
0000
0000
0000
0000
0000
0001
0000
0000
0000
0000
0000
0000
0000
0000
0000
0000
0000
0100
0000
0000
0000
0000
0000
0000
0000
0000
0000
0000
0000
0010
0000
0000
0000
0000
0000
0000
0000
0000
0000
0000
0000
,
1000
0000
0000
0000
0000
0000
0000
0000
0000
0000
0000
0000
0001
0000
0000
0000
0000
0000
0000
0000
0000
0000
0000
0000
0010
0000
0000
0000
0000
0000
0000
0000
0000
0000
0000
0000
0100
0000
0000
0000
0000
0000
0000
0000
0000
0000
0000
0000
1000
0000
0000
0000
0000
0000
0000
0000
0000
0000
0000
0000
0000
0000
0000
0000
0000
0000
0000
0000
0000
0000
0000
0000
0200
0000
0000
0000
0000
0000
0000
0000
0000
0000
0000
0000
0000
0000
0000
0000
0000
0000
0000
0000
0000
0000
0000
0000
0010
0000
0000
0000
0000
0001
0000
0000
0000
0000
0000
0000
0000
0000
0000
0000
0000
0000
0000
0000
0000
0000
0000
0000
0000
0000
0000
0000
0000
0000
0000
0000
0000
0000
0000
0000
0000
0000
0000
0000
0300
0000
0000
0000
0000
0000
0000
0000
1011
0000
0000
0000
0000
0000
0000
0000
0000
0000
0000
0000
1000
0000
0000
0000
0000
0000
0000
0000
0000
0000
0000
0000
1000
0000
0000
0000
0000
0000
0000
0000
0000
0000
0000
0000
0000
0000
0000
0000
0000
0000
0000
0000
0000
0000
0000
0000
,
0101
0100
0000
1000
1000
0000
0100
0100
0001
1000
1000
0000
0100
0100
0000
1000
,
1001
0000
0100
0100
0000
1000
1000
0000
0101
0100
0000
1000
1000
0000
0100
0100
,
0001
1000
1000
0000
0100
0100
0000
1000
1001
0000
0110
0101
1000
1000
1001
0000
,
0100
0100
0001
1000
1000
0000
0101
0100
0000
1000
1001
0000
0100
0100
0001
1000
,
1000
0000
0100
0100
0001
1000
1000
0000
0100
0100
0001
1000
1000
0000
0101
0100
,
0000
1000
1001
0000
0100
0100
0001
1000
1000
0000
0101
0100
1001
0010
0100
1000
,
0011
0100
1000
0001
0100
1010
0001
0010
1001
0100
0010
0101
1000
0001
1100
0011
,
1100
0011
1010
0101
1010
0100
0010
0001
1000
0001
0010
0100
2012
0000
0000
0000
,
0000
0000
3003
0000
;
