#TITLE:Concertino In Blue;
#SUBTITLE:;
#ARTIST:Hirofumi Sasaki;
#TITLETRANSLIT:;
#SUBTITLETRANSLIT:;
#ARTISTTRANSLIT:;
#CREDIT:DukAmok;
#BANNER:Concertino_In_Blue.png;
#BACKGROUND:Concertino_In_Blue-bg.png;
#LYRICSPATH:;
#CDTITLE:!duktitle.png;
#MUSIC:Concertino_In_Blue.mp3;
#OFFSET:1.120;
#SAMPLESTART:37.500;
#SAMPLELENGTH:10.000;
#SELECTABLE:YES;
#BPMS:0.000=140.000,24.000=155.000,48.000=150.000,56.000=155.000,80.000=148.000,85.000=155.000,151.500=152.000,160.000=155.000,214.000=140.000,216.000=120.000,222.000=115.000,223.000=110.000,228.000=120.000,230.000=130.000,232.000=115.000;
#STOPS:;
#BGCHANGES:;
// cache tags:
#FIRSTBEAT:4.000;
#LASTBEAT:238.750;
#SONGFILENAME:Songs/Community Keyboard Megapack - Volume 2/(DukAmok) Concertino in Blue/Concertino_In_Blue.sm;
#HASMUSIC:1;
#HASBANNER:1;
#MUSICLENGTH:103.790;
// end cache tags

//---------------dance-single - Heavy----------------
#NOTES:
     dance-single:
     Heavy:
     Hard:
     11:
     1.000,1.000,1.000,0.010,1.000,605.000,237.000,1.000,0.000,0.000:
0000
0000
0000
0000
,
1001
0101
0101
1100
0011
0011
0101
1100
1100
0010
0101
0101
,
1010
1001
1001
0110
1010
1010
1100
0011
0011
0100
1010
1010
,
0101
0011
0011
0110
1001
1001
1010
0101
0101
0010
0110
0110
,
1010
0000
0110
0000
1010
0000
0101
0000
0110
0000
0101
0000
1010
0000
0001
0010
0100
0000
1100
0000
1010
0000
0101
0000
,
0110
0110
0110
0110
0110
0110
0110
0110
0110
0110
0110
0110
,
1001
1001
0000
0011
0000
1100
1100
0000
1010
0000
1010
0000
0101
0000
0000
0000
,
0101
0000
0000
0000
1000
0100
0010
0001
1100
0000
0000
0000
0110
0000
0001
1000
,
0010
0101
0000
1010
0000
0000
1100
0000
0001
0000
0010
0000
0011
0000
0100
0000
,
1010
0000
1000
0110
0000
0001
0101
0000
1010
0000
1010
0000
0100
0110
0000
0011
,
0000
0001
1100
0000
0011
0000
1000
0000
0001
0100
0010
1000
0101
0000
0000
0000
,
1010
0000
0100
0001
1000
1100
0000
0011
0000
0000
1100
0000
0001
0000
0010
0000
,
0011
0000
0101
0000
0010
1000
0010
0101
0000
0010
0100
1010
0000
1000
0100
0010
,
0001
0010
0001
0010
0001
0010
0001
0010
0001
0010
0001
0010
1001
0000
0000
0000
,
1010
0000
0000
0000
0010
0100
0001
1000
0011
0000
0001
0010
1100
0000
0100
0000
,
0011
1100
0000
1010
0000
0010
0101
1000
0010
0100
1001
0000
0101
0000
1010
0000
,
0101
0000
0010
0101
0000
0010
1100
0000
1100
0000
1100
0000
1100
0010
0000
0110
,
0000
0000
0000
1000
0000
0000
0101
0000
0000
0000
0000
0000
0011
0000
0000
1000
0000
0000
0100
0000
0000
1000
0000
0000
0001
0000
0010
0000
0100
0000
1000
0000
0000
0010
0000
0000
1001
0000
0000
0000
0000
0000
1000
0000
0000
0010
0000
0000
,
0101
0000
0010
1000
0101
0110
0000
1010
0000
0001
1100
0010
1000
0100
0010
0000
,
0011
0000
1100
0000
0010
0100
0001
1010
0000
1000
0100
0011
0000
1000
0100
1000
,
0100
1000
0100
1000
0100
1000
0100
1000
0100
1000
0100
1000
0101
0000
0000
0000
,
0101
0000
0000
0001
1010
0000
0110
0000
0101
0000
0000
0110
0000
1000
1100
0000
,
0000
0001
0000
0001
1100
0000
0000
1010
0000
0010
0101
0000
0000
0010
0000
0100
,
1001
0000
0000
0101
0000
0010
1100
0000
0110
0000
1001
0000
1010
0000
0000
0110
,
0000
0001
0110
0000
0000
0010
0000
0010
0101
0000
0000
0011
0000
0010
1100
0000
,
0010
0001
0000
1000
0110
0000
0000
0101
0000
0010
1000
0000
1100
0010
0001
0100
,
1001
0000
0000
1010
0000
0010
0101
0000
0001
1000
0000
0010
0101
0000
0000
1010
,
0000
1000
1100
0000
0110
0001
1000
0100
0011
0000
1000
0010
0100
0001
1010
0000
,
1000
0100
0010
0100
1001
0010
1000
0100
0010
0001
0110
0000
1000
0010
0100
0001
,
0110
0000
1000
0010
1000
0100
1001
0000
0010
0001
1000
0010
0101
0000
0010
1000
,
0100
0010
1001
0000
0001
0100
0001
0010
1100
0000
0010
1000
0001
0100
1001
0010
,
0100
1000
0100
0010
1001
0000
0001
0100
0010
1000
0101
0010
1000
0010
0100
0001
,
1000
0010
0100
0001
1000
0100
0010
0100
1000
0010
0100
0001
1000
0001
0010
0100
,
1000
0100
0010
0001
0010
0001
0100
0010
1000
0010
0100
0001
1000
0100
0010
0001
,
1000
0000
0000
0010
0000
0000
0000
0000
0000
0000
0000
0000
0001
0000
0000
0000
0000
0000
1000
0000
0000
0010
0000
0000
0100
0000
0000
0001
0000
0000
1000
0000
0100
0000
0010
0000
0001
0000
0000
1000
0000
0000
0010
0000
0000
0000
0000
0000
,
1010
0000
0010
0100
0001
1000
0010
0000
0101
0000
1010
0000
1100
0000
0010
0001
,
1000
0010
0100
0000
0101
0000
1010
0000
1100
0000
1000
0100
1000
0010
0101
0000
,
1010
0000
0011
0000
1000
0010
0100
0001
1000
0100
0010
0001
0010
0100
1000
0010
,
0101
0000
0000
0000
1001
0000
0000
0000
1000
0010
0100
0010
1000
0000
0000
1100
,
0000
0000
0011
0000
0000
0101
0000
0000
1001
0000
0000
0000
0110
0000
1000
0000
,
0100
0010
0001
0010
0100
0000
1100
0000
1010
0000
0101
0000
0011
0000
1010
0000
,
0101
0000
0000
0000
0000
0000
0000
0000
0000
0000
0000
0000
1010
0000
0000
0000
0000
0000
0001
0000
0100
0000
0010
0000
1000
0000
0000
0001
0000
0000
0010
0000
0000
0100
0000
0000
1001
0000
0000
0000
0000
0000
1010
0000
0000
0000
0000
0000
,
0011
0000
0000
0101
0000
0000
1100
0000
0000
1010
0000
0000
1000
0000
0001
0000
1000
0000
0010
0000
0100
0000
0010
0000
,
1000
0010
1000
0100
0010
0100
1000
0001
1000
0010
1000
0010
,
0100
0001
0100
0010
1000
0100
0010
0001
0010
0100
1000
0010
,
0100
0001
0100
0010
1000
0001
0200
0000
0000
0000
0000
0000
,
0000
0000
0300
0000
,
0001
0100
0010
1000
0101
0000
0000
0000
0000
0000
0000
0000
1010
1010
0000
1010
,
0000
1010
1010
0000
0101
0000
0101
0000
0011
0000
0000
0000
0011
0000
0000
0000
,
0001
0010
0100
0010
1001
0000
0000
0000
1010
0000
0001
1000
0010
0101
0000
0011
,
0000
0000
1100
0010
0001
0000
1010
0000
1001
0000
1010
0000
1100
0000
0100
0011
,
0000
0001
1010
0000
0101
0000
1010
0000
0001
0110
0000
1010
0000
1000
1100
0000
,
0011
0100
1000
0001
1000
0100
0010
0001
0110
0000
0100
1000
0011
0000
0100
0000
,
0010
1001
0000
1010
0000
0000
0011
0000
0010
0001
1010
0000
0101
0000
0011
0000
,
0001
1000
0100
1001
0000
0010
1000
0101
0000
1000
0010
0100
0010
0100
0010
0100
,
0010
0100
0010
0100
0010
0100
0010
0100
1001
0000
0000
0000
1010
0000
0001
0010
,
1100
0010
1001
0000
0000
0000
0000
0000
,
1010
0000
0010
0000
0100
0000
1001
0000
0010
0000
0100
0000
,
1100
0000
0000
0000
0010
0000
0000
0000
0001
0000
0000
0000
0000
0000
0000
1010
0000
0000
0000
0000
0000
0000
0000
0000
,
0000
0000
0000
0000
1000
0000
0100
0000
0000
0000
0000
0110
0000
0000
0000
0000
;

//---------------dance-single - Challenge----------------
#NOTES:
     dance-single:
     Challenge:
     Challenge:
     12:
     1.000,1.000,1.000,0.019,1.000,605.000,272.000,2.000,0.000,0.000:
0000
0000
0000
0000
,
1001
1010
1010
0011
1100
1100
1010
0011
0011
0101
1010
1010
,
0101
1001
1001
0110
0101
0101
0011
1100
1100
1010
0101
0101
,
1010
1100
1100
0110
1001
1001
0101
1010
1010
0101
0110
0110
,
0101
0000
0110
0000
0101
0000
1010
0000
0110
0000
1010
0000
0101
0000
0011
0100
1010
0000
0011
0000
0101
0000
1010
0000
,
0110
0110
0110
0110
0110
0110
0110
0110
0110
0110
0110
0110
,
1001
1001
0000
1100
0000
0011
0011
0000
0101
0000
0101
0000
1010
0000
0000
0000
,
1010
0000
0000
0000
0001
0010
0100
1000
0011
0000
0000
0000
0110
0000
1000
0001
,
0100
1010
0000
0101
0000
0000
0011
0000
1000
0000
0100
0000
1100
0000
0010
0000
,
0101
0000
0001
0110
0000
1000
1010
0000
0101
0000
0101
0000
0010
0110
0000
1100
,
0000
1000
0011
0000
1100
0000
0001
0000
1000
0010
0100
0001
1010
0000
0000
0000
,
0101
0000
0010
1000
0001
0011
0000
1100
0000
0000
0011
0000
1000
0000
0100
0000
,
1100
0000
1010
0000
0100
0001
0100
1010
0000
0100
0010
0101
0000
0001
0010
0101
,
1000
0100
1000
0100
1000
0100
1000
0100
1000
0100
1000
0100
1010
0000
0000
0000
,
0101
0000
0000
0000
0100
0010
1000
0001
1100
0000
1000
0100
0011
0000
0010
0000
,
1100
0011
0000
0101
0000
0100
1010
0001
0100
0010
1001
0000
1010
0000
0101
0000
,
1010
0000
0100
1010
0000
0100
0011
0000
0011
0000
0011
0000
0011
0100
0000
0110
,
0000
0000
0000
0001
0000
0000
1010
0000
0000
0000
0000
0000
1100
0000
0000
0001
0000
0000
0010
0000
0000
0001
0000
0000
1000
0000
0100
0000
0010
0000
0001
0000
0000
0100
0000
0000
1001
0000
0000
0000
0000
0000
0001
0000
0000
0100
0000
0000
,
1010
0000
0100
0001
1010
0110
0000
0101
0000
1000
0011
0100
0001
0010
0100
0000
,
1100
0000
0011
0000
0100
0010
1000
0101
0000
0001
0010
1100
0000
0001
0010
0101
,
0010
0001
0010
0001
0010
0001
0010
0001
0010
0001
0010
0001
1010
0000
0000
0000
,
1010
0000
0000
1000
0101
0000
0110
0000
1010
0000
0000
0110
0000
0001
0011
0000
,
0000
1000
0000
1000
0011
0000
0000
0101
0000
0100
1010
0000
0000
0100
0000
0010
,
1001
0000
0000
1010
0000
0100
0011
0000
0110
0000
1001
0000
0101
0000
0000
0110
,
0000
1000
0110
0000
0000
0100
0000
0100
1010
0000
0000
1100
0000
0100
0011
0000
,
0100
1000
0000
0001
0110
0000
0000
1010
0000
0100
0001
0000
0011
0100
1000
0010
,
1001
0000
0000
0101
0000
0100
1010
0000
1000
0001
0000
0100
1010
0000
0000
0101
,
0000
0001
0011
0000
0110
1000
0001
0010
1100
0000
0001
0100
0010
1000
0101
0000
,
0001
0010
0100
0010
1001
0100
0001
0010
0100
1000
0110
0000
0001
0100
0010
1000
,
0110
0000
0001
0100
0001
0010
1001
0000
0100
1000
0001
0100
1010
0000
0100
0001
,
0010
0100
1001
0000
1000
0010
1000
0100
0011
0000
0100
0001
1000
0010
1001
0100
,
0010
0001
0010
0100
1001
0000
1000
0010
0100
0001
1010
0100
0001
1100
0010
1000
,
0011
0100
0010
1100
0001
0010
1100
0010
0001
1100
0010
1000
0101
1000
0100
1010
,
0001
0010
0101
1000
0100
1001
0010
0100
1001
0100
0010
1100
0001
0010
0101
1000
,
0001
0000
0000
0100
0000
0000
0000
0000
0000
0000
0000
0000
1010
0000
0000
0000
0000
0000
0001
0000
0000
0100
0000
0000
0011
0000
0000
1000
0000
0000
0001
0000
0010
0000
0100
0000
1000
0000
0000
0001
0000
0000
0100
0000
0000
0000
0000
0000
,
0101
0000
0100
0010
1000
0001
0100
0000
1010
0000
0101
0000
0011
0000
0100
1000
,
0001
0100
0010
0000
1010
0000
0101
0000
0011
0000
0001
0010
0001
0100
1010
0000
,
0101
0000
1100
0000
0001
0100
0010
1000
0001
0010
0100
1000
0100
0010
0001
0100
,
1010
0000
0000
0000
1001
0000
0000
0000
0001
0100
0010
0100
0001
0000
0000
0011
,
0000
0000
1100
0000
0000
1010
0000
0000
1001
0000
0000
0000
0110
0000
0001
0000
,
0010
0100
1000
0100
0010
0000
0011
0000
0101
0000
1010
0000
1100
0000
0101
0000
,
1010
0000
0000
0000
0000
0000
0000
0000
0000
0000
0000
0000
0101
0000
0000
0000
0000
0000
1000
0000
0010
0000
0100
0000
0001
0000
0000
1000
0000
0000
0100
0000
0000
0010
0000
0000
1001
0000
0000
0000
0000
0000
0101
0000
0000
0000
0000
0000
,
1100
0000
0000
1010
0000
0000
0011
0000
0000
0101
0000
0000
0011
0000
1000
0000
0001
0000
1100
0000
0010
0000
0100
0000
,
0011
0100
0001
1010
0100
0010
0101
1000
0001
0110
0001
0100
,
0011
1000
0010
1100
0001
0010
0101
1000
0100
1010
0001
0100
,
0011
1000
0010
1100
0001
1000
0220
0000
0000
0000
0000
0000
,
0000
0000
0330
0000
,
1000
0010
0100
0001
1010
0000
0000
0000
0000
0000
0000
0000
0101
0101
0000
0101
,
0000
0101
0101
0000
1010
0000
1010
0000
1100
0000
0000
0000
1100
0000
0000
0000
,
1000
0100
0010
0100
1001
0000
0000
0000
0101
0000
1000
0001
0100
1010
0000
1100
,
0000
0000
0011
0100
1000
0000
0101
0000
1001
0000
0101
0000
0011
0000
0010
1100
,
0000
1000
0101
0000
1010
0000
0101
0000
1000
0110
0000
0101
0000
0001
0011
0000
,
1100
0010
0001
1000
0001
0010
0100
1000
0110
0000
0010
0001
1100
0000
0010
0000
,
0100
1001
0000
0101
0000
0000
1100
0000
0100
1000
0101
0000
1010
0000
1100
0000
,
1000
0001
0010
1001
0000
0100
0001
1010
0000
0001
0100
1010
0100
0010
0100
0010
,
0100
0010
0100
0010
0100
0010
0100
0010
1001
0000
0000
0000
0101
0000
1000
0100
,
0011
0100
1001
0000
0000
0000
0000
0000
,
0101
0000
0100
0000
0010
0000
1001
0000
0100
0000
0010
0000
,
0011
0000
0000
0000
0100
0000
0000
0000
1000
0000
0000
0000
0000
0000
0000
0101
0000
0000
0000
0000
0000
0000
0000
0000
,
0000
0000
0000
0000
0001
0000
0010
0000
0000
0000
0000
0110
0000
0000
0000
0000
;
