#TITLE:The Least 100sec;
#SUBTITLE:;
#ARTIST:Hirofumi Sasaki;
#TITLETRANSLIT:;
#SUBTITLETRANSLIT:;
#ARTISTTRANSLIT:;
#CREDIT:;
#BANNER:The Least 100sec.png;
#BACKGROUND:The Least 100sec-bg.png;
#LYRICSPATH:;
#CDTITLE:super_sonic.PNG;
#MUSIC:The Least 100sec.mp3;
#OFFSET:-0.092;
#SAMPLESTART:0.070;
#SAMPLELENGTH:12.000;
#SELECTABLE:YES;
#DISPLAYBPM:200.000:263.000;
#BPMS:0.000=263.500,80.000=251.600,92.000=261.000,103.000=263.700,123.000=263.600,159.000=263.200,175.000=263.700,199.000=263.600,231.000=263.900,247.000=263.600,398.000=223.100,405.000=199.400;
#STOPS:;
#BGCHANGES:;
// cache tags:
#FIRSTBEAT:0.000;
#LASTBEAT:413.750;
#SONGFILENAME:Songs/Definitive Keyboard Megapack/The Least 100sec(SonicX)/The Least 100sec.sm;
#HASMUSIC:1;
#HASBANNER:1;
#MUSICLENGTH:99.892;
// end cache tags

//---------------dance-single - DM----------------
#NOTES:
     dance-single:
     DM:
     Hard:
     12:
     1.000,1.000,1.000,0.000,0.150,769.000,101.000,0.000,0.000,4.000:

1001
0000
0100
0010
0000
0100
1001
0000
,
1000
1000
0010
0100
,
0001
0010
0100
1000
0001
0010
0100
1000
,
0001
1000
0010
0100
0001
0100
0010
0100
,
0001
0010
0100
1000
0000
0110
0000
1100
,
0000
0110
0000
0011
0000
0100
1000
0100
,
0010
0001
0100
0010
1000
0010
0100
0001
,
0010
0100
0000
0000
,
1010
0000
0010
0001
0000
0001
1010
0000
,
0100
1000
0100
0011
,
1000
0100
0010
0001
1000
0100
0010
0001
,
1000
0010
0100
0001
0100
0010
1000
0100
,
1000
0100
1000
1100
0000
0110
0000
0011
,
0000
0101
0000
0110
0000
0100
0010
0100
,
1000
0100
1000
0100
0001
0100
0001
0100
,
0001
0000
0000
1000
0000
0000
0000
0100
0001
0100
0001
0100
0001
0100
0100
0000
,
0101
1000
0001
0101
1000
0100
0110
0010
,
1000
0100
0010
0001
0010
0100
1000
0100
,
1100
0010
1000
0110
1000
0010
0011
0100
,
1000
0100
0001
0100
1000
0010
0001
0010
,
1000
0010
0100
0011
1000
0001
0110
0001
,
0010
1100
0001
1000
0110
1000
0010
0101
,
0100
1000
0110
1000
0010
0110
1000
0100
,
1010
0100
1000
0100
0010
0001
0010
0100
,
1000
0010
0100
0001
0010
0100
1000
0100
,
0010
0000
1000
0001
1000
0001
1000
0100
,
1100
1000
0110
1000
0011
1000
0010
0001
,
0011
0100
1001
0100
0101
0010
0100
0010
,
0110
1000
0101
1000
0011
1000
0010
0100
,
1100
0010
0101
1000
0110
0001
1100
0000
,
1000
0110
0001
0110
0000
0000
1000
0010
,
0001
0100
0010
0100
0010
0100
1000
0100
,
1000
0100
1000
0100
0010
0001
0010
0001
,
0010
0001
0100
1000
0001
1000
0001
0100
,
1000
0100
0010
1000
0001
1000
0001
1000
,
0001
1000
0001
0010
0100
1000
0110
1000
,
0001
1000
0001
1000
0001
1000
0001
1000
,
0001
1000
0001
1000
0001
1000
0001
1000
,
0001
1000
0001
1000
0001
1000
0001
1000
,
0001
1000
0001
1000
0001
1000
0001
0000
,
0000
1000
0000
0000
0000
0000
0000
0000
0000
0000
0000
0000
0000
0000
0000
0000
0000
0000
1000
0000
0000
0000
0000
0000
0100
0000
0000
0000
0000
0000
0010
0000
0000
0000
0000
0000
0001
0000
0000
0000
0000
0000
0010
0000
0000
0000
0000
0000
,
0100
0000
1000
0000
0100
0000
0010
1000
0001
1000
0100
0000
0001
0000
1000
0000
,
0000
0000
0000
1000
0000
0000
0010
0000
0000
1000
0000
0000
0100
0000
0000
1000
0000
0000
0100
0000
0000
0000
0010
0000
,
0000
0000
0000
0001
0000
0000
0000
0000
0000
0000
0010
0000
0000
0000
0000
0000
0000
0000
0001
0000
0000
0000
0000
0000
0000
0000
0000
0100
0000
0000
0000
0000
0000
0000
0000
0000
1010
0000
0000
0000
0000
0000
0000
0000
0000
0000
0000
0000
,
0000
1000
0100
0001
0100
0100
1000
0010
,
1000
0100
0001
0010
0100
0100
1000
0010
,
0100
0001
0100
1000
1000
0100
0001
0010
,
1000
1000
0100
0010
0100
0001
0101
1000
,
0100
1010
0100
1000
0110
1000
0010
0101
,
1000
0001
0110
1000
0010
0110
1000
0110
,
0001
0110
1000
0110
0001
1010
0100
1001
,
0010
0100
0101
1000
1100
0010
1100
0100
,
1010
0001
1000
0100
0001
0100
1000
0100
,
0001
0100
1000
0010
0001
0100
1000
0100
,
0001
0100
1000
0100
0001
0010
0100
1000
,
0100
0010
0010
0001
0010
0100
1000
0100
,
0010
0001
0100
0010
1000
0010
0100
0001
,
0010
0100
1000
0100
0010
0001
0100
0010
,
0100
0001
1000
0001
0100
0010
0100
0010
,
1000
0010
1000
0010
1000
0001
1000
0001
,
0100
0010
0001
1000
0100
1000
0100
1000
,
0010
0001
0010
1000
0100
1000
0010
0100
,
1000
0010
1000
0010
1000
0100
0001
0010
,
0001
0010
0001
0010
0001
0010
0100
1000
,
0100
1000
0100
1000
0100
0010
0001
0100
,
0010
1000
0010
0100
0001
0010
0100
1000
,
0010
0100
0001
0100
0010
1000
0100
0010
,
0100
1000
0001
0010
0100
0010
0001
0100
,
0010
1000
0010
0100
0001
0010
0100
1000
,
0010
0100
0010
0100
0010
1000
0110
1000
,
0110
1000
0011
1000
0011
1000
0101
1000
,
0101
0100
1010
0100
1010
0100
0010
1000
,
0010
1000
0001
1000
0001
1000
0001
1000
,
0001
1000
0010
0010
0001
1000
0010
1000
,
0010
1000
0001
1000
0001
1000
0101
1000
,
0101
0100
1010
0100
1010
1000
0101
1000
,
0110
0001
1010
0001
1100
0001
0110
1000
,
0011
1000
0101
0100
1010
0000
0010
0000
,
1000
0100
0000
0010
0001
0000
0000
0000
,
0100
0000
0001
0000
0010
0000
0100
1000
,
0100
0010
0001
1000
0001
0010
0100
1000
,
0100
0010
0001
0100
0010
0100
0010
0100
,
0010
1100
0000
0110
0000
0011
0000
0101
,
0000
1100
0000
0010
0100
1000
0001
1000
,
0001
1000
0100
0010
0001
0010
0100
1000
,
0001
1000
0001
1000
0001
1000
0001
1000
0001
0000
0100
0000
0001
0000
0100
0000
,
0001
0100
0010
1000
0010
1000
0010
1000
,
0100
1010
0100
1001
0100
0010
0001
0010
,
0001
0010
0001
0010
0100
1000
0100
1000
,
0100
0000
0010
1000
0100
0001
0010
0100
1000
0001
0010
0100
0001
0000
0000
0000
,
0010
1100
0010
1000
0100
1000
0100
0001
,
1000
0010
0100
1100
1000
0001
0100
0010
,
0110
1000
0100
0010
1000
0010
1010
0100
,
1000
0100
0010
0001
0010
0100
1000
0100
,
0010
0001
0010
0001
0010
0001
0010
0000
,
0000
0001
0000
0000
1000
0100
0010
0100
,
0101
0010
0101
1000
0001
0100
0010
1000
,
1100
0010
0011
0100
1000
0100
0010
0001
,
1000
0100
0010
0001
1000
0100
0010
0001
,
1000
0000
0000
0100
0000
0000
0010
0000
0000
0001
0000
0000
1010
0000
0000
0000
0000
1010
0000
0000
0000
0000
0000
0000
,
0000
0000
0000
0000
,
0000
0000
0000
0000
1000
0100
1000
0100
1000
0000
0000
0000
0010
0001
0010
0001
,
0010
0000
0000
0000
1000
0001
1000
0001
1000
0000
0000
0000
0111
0000
0000
1101
,
0000
0000
1011
0000
0000
0000
0000
1111
0000
0000
0000
0000
0000
0000
0000
0000
;
