#TITLE:Bloodtricuted;
#SUBTITLE:;
#ARTIST:Dethklok;
#TITLETRANSLIT:;
#SUBTITLETRANSLIT:;
#ARTISTTRANSLIT:;
#CREDIT:Wavanova;
#BANNER:Bloodtribanner.jpg;
#BACKGROUND:Dethklok - Bloodtricuted.jpg;
#LYRICSPATH:;
#CDTITLE:wavanova06.png;
#MUSIC:Dethklok - Bloodtricuted.mp3;
#OFFSET:0.000;
#SAMPLESTART:6.360;
#SAMPLELENGTH:12.000;
#SELECTABLE:YES;
#BPMS:0.000=187.100,29.500=192.000,38.500=187.100;
#STOPS:38.000=3.300
,86.625=10.400
;
#BGCHANGES:;
// cache tags:
#FIRSTBEAT:0.000;
#LASTBEAT:112.000;
#SONGFILENAME:Songs/toune/banner/Dethklok - Bloodtricuted.sm;
#HASMUSIC:1;
#HASBANNER:1;
#MUSICLENGTH:49.031;
// end cache tags

//---------------dance-single - ----------------
#NOTES:
     dance-single:
     :
     Hard:
     10:
     1.000,1.000,1.000,0.163,0.204,235.000,175.000,8.000,0.000,1.000:
2002
0000
0000
3113
0011
0110
0011
1010
,
0110
1010
0110
0101
1001
0101
1001
0110
,
1010
0110
1010
0011
1100
0011
1100
1010
,
0011
0000
1010
0000
0011
0000
1000
0100
0001
0000
1000
0100
0001
0000
0110
0000
,
1100
0000
0110
0000
1100
0000
1000
0100
0001
0000
1000
0100
0001
0000
0011
0000
,
1010
0000
0011
0000
1010
0000
1000
0100
0001
0000
1000
0100
0001
0000
0101
0000
,
1010
0000
0101
0000
1010
0000
1000
0100
0001
0000
1000
0100
0001
0000
1001
0000
,
0110
0000
1001
0000
0110
0000
1000
0100
0001
0000
1000
0100
0001
0000
1100
0000
,
0101
0000
1100
0000
0101
0000
1000
0100
0001
0000
1000
0100
0001
0000
0110
0000
,
0101
0110
0101
2002
3003
0110
0011
0110
,
0011
0110
1010
0110
1010
0110
1001
0110
,
1001
0101
0110
0101
0110
1001
0011
1001
,
0011
1001
1010
1001
1010
0110
0101
0110
,
0101
0000
0110
0000
1100
0000
0110
0000
1100
0000
0001
0010
0100
0000
0001
0010
,
0100
0000
1010
0000
0101
0000
1010
0000
0101
0000
0001
0010
0100
0000
0001
0010
,
0100
0000
0011
0000
1100
0000
0011
0000
1100
0000
0001
0010
0100
0000
0001
0010
,
0100
0000
1001
0000
0110
0000
1001
0000
0110
0000
0001
0010
0100
0000
0001
0010
,
0100
0011
0110
0011
0110
1001
1100
1001
,
1100
1001
0110
1001
0110
0011
0110
0011
,
0110
1100
0110
1100
0110
0101
0011
0101
,
0011
1010
1100
1010
1100
1001
0011
1001
,
0011
0000
0000
0000
0110
0000
0000
0000
1010
0000
0000
0000
0110
0000
0000
0000
1010
0000
0000
0000
2002
3003
0000
0000
0110
0000
0000
0000
0011
0000
0000
0000
,
0110
0011
1001
1100
1001
1100
0110
0101
,
0110
0101
0110
1001
0110
1001
0011
1001
,
0011
1001
0110
1010
0110
1010
0110
1100
,
0110
1100
0110
0011
0110
0011
1001
0110
,
1001
0110
0110
1001
0110
1001
0011
1100
,
0011
2200
0000
0000
0000
0000
0000
3300
;

//---------------dance-single - ----------------
#NOTES:
     dance-single:
     :
     Medium:
     6:
     0.629,0.483,0.000,0.061,0.000,213.000,0.000,3.000,0.000,0.000:
0002
0000
0000
0003
0001
1000
0001
1000
,
1000
1000
1000
0001
0001
0001
0001
1000
,
1000
1000
1000
0001
0010
0001
0010
1000
,
0001
1000
0001
0100
0001
0100
0001
1000
,
0010
1000
0010
0100
0001
0100
0001
0001
,
1000
0001
1000
0100
0001
0100
0001
0001
,
1000
0001
1000
0100
0001
0100
0001
0001
,
1000
0001
1000
0100
0001
0100
0001
0010
,
0001
0010
0001
0100
0001
0100
0001
1000
,
0001
1000
0001
0002
0003
1000
0001
1000
,
0001
1000
1000
1000
1000
1000
0001
1000
,
0001
0001
1000
0001
1000
0001
0001
0001
,
0001
0001
1000
0001
1000
1000
0001
1000
,
0001
1000
0010
1000
0010
0001
1000
0001
,
1000
1000
0001
1000
0001
0001
1000
0001
,
1000
0001
0010
0001
0010
0001
1000
0001
,
1000
0001
1000
0001
1000
0001
1000
0001
,
1000
0001
1000
0001
1000
0001
0010
0001
,
0010
0001
1000
0001
1000
0001
1000
0001
,
1000
0010
1000
0010
1000
0001
0001
0001
,
0001
1000
0010
1000
0010
0001
0001
0001
,
0001
1000
1000
1000
1000
0000
1000
0001
,
1000
0001
0001
0010
0001
0010
1000
0001
,
1000
0001
1000
0001
1000
0001
0001
0001
,
0001
0001
1000
1000
1000
1000
1000
0010
,
1000
0010
1000
0001
1000
0001
0001
1000
,
0001
1000
1000
0001
1000
0001
0001
0010
,
0001
0020
0000
0000
0000
0000
0000
0030
;

//---------------dance-single - ----------------
#NOTES:
     dance-single:
     :
     Easy:
     5:
     0.551,0.514,1.000,0.041,0.000,107.000,80.000,2.000,0.000,0.000:
0002
0000
0003
1001
,
1000
1000
0001
0001
,
1000
1000
0011
0011
,
1001
1001
0101
0101
,
1010
1010
0101
0101
,
1001
1001
0101
0101
,
1001
1001
0101
0101
,
1001
1001
0101
0101
,
0011
0011
0101
0101
,
1001
1001
0000
1001
,
1001
1000
1000
1001
,
1001
1001
1001
0001
,
0001
1001
1001
1001
,
1001
1010
1010
1001
,
1001
1001
1001
1001
,
1001
0011
0011
1001
,
1001
1001
1001
1001
,
1001
1001
1001
0011
,
0011
1001
1001
1001
,
1001
1010
1010
0001
,
0001
1010
1010
0001
,
0001
1000
1000
1000
,
1001
0001
0011
1010
,
1001
1001
1001
0001
,
0001
1001
1000
1000
,
1010
1010
1001
0001
,
1001
1000
1001
0001
,
0011
0020
0000
0000
,
0030
0000
0000
0000
;

//---------------dance-single - ----------------
#NOTES:
     dance-single:
     :
     Beginner:
     1:
     0.105,0.136,0.000,0.000,0.000,36.000,0.000,0.000,0.000,0.000:
0000
0000
0000
0000
,
0000
0000
1000
0000
,
0000
0000
0001
0000
,
0000
0000
0010
0000
,
0001
0000
1000
0000
,
0010
0000
0001
0000
,
1000
0000
0010
0000
,
0001
1000
0000
0010
,
0000
0000
0001
1000
,
0000
0001
0000
0000
,
0000
1000
0000
0010
,
0000
0001
0100
0000
,
0000
0100
0000
0100
,
0000
0100
0010
0000
,
0000
0000
0010
0000
,
0000
0000
0010
0000
,
0000
0000
0001
0000
,
0000
0000
0000
1000
,
0000
0000
0001
0000
,
0000
0000
0000
1000
,
0000
0000
0000
0001
,
0000
0000
0000
0010
,
0000
0000
0000
0010
,
0000
0000
0000
0001
,
0000
0000
0000
1000
,
0000
0000
0000
0001
,
0000
0000
0000
0100
;
