#TITLE:1A while playing this song hit f6 twice;
#SUBTITLE:and set your;
#ARTIST:Global Offset aka Autosync Machine;
#TITLETRANSLIT:;
#SUBTITLETRANSLIT:;
#ARTISTTRANSLIT:;
#CREDIT:;
#BANNER:../fallback-bn.png;
#BACKGROUND:../fallback-bg.png;
#LYRICSPATH:;
#CDTITLE:;
#MUSIC:Dimrain47 - REM III.ogg;
#OFFSET:0.038;
#SAMPLESTART:11.268;
#SAMPLELENGTH:12.000;
#SELECTABLE:YES;
#BPMS:0.000=170.000;
#STOPS:492.000=0.360
;
#BGCHANGES:;
// cache tags:
#FIRSTBEAT:8.000;
#LASTBEAT:64.000;
#SONGFILENAME:Songs/SSSC PACK/SYNC TEST (SET GLOBAL OFFSET TO THIS)/REM III.sm;
#HASMUSIC:1;
#HASBANNER:1;
#MUSICLENGTH:24.290;
// end cache tags

//---------------dance-single - Blank----------------
#NOTES:
     dance-single:
     Blank:
     Challenge:
     1:
     0.323,0.296,0.000,0.000,0.000,55.000,0.000,0.000,6.000,0.000:



0000
0000
0000
0000
,
0000
0000
0000
0000
,
0MM0
0001
0001
0001
,
0001
0001
0001
0001
,
0001
0001
0001
0001
,
0001
0001
0001
0001
,
0001
0001
0001
0001
,
0001
0001
0001
0001
,
0001
0001
0001
0001
,
0001
0001
0001
0001
,
0001
0001
0001
0001
,
0001
0001
0001
0001
,
0001
0001
0001
0001
,
0001
0001
0001
0001
,
0001
0001
0001
0001
,
0001
0001
0001
0001
,
MMMM
0000
0000
0000
;
