#TITLE:TRIPPING CONTACT;
#SUBTITLE:;
#ARTIST:kors k vs teranoid;
#TITLETRANSLIT:;
#SUBTITLETRANSLIT:;
#ARTISTTRANSLIT:;
#CREDIT:;
#BANNER:../fallback-bn.png;
#BACKGROUND:../fallback-bg.png;
#LYRICSPATH:;
#CDTITLE:!Arachno-cdtitle.png;
#MUSIC:kors k vs teranoid - TRIPPING CONTACT.ogg;
#OFFSET:-0.845;
#SAMPLESTART:33.127;
#SAMPLELENGTH:12.000;
#SELECTABLE:YES;
#BPMS:0.000=182.000;
#STOPS:;
#BGCHANGES:;
// cache tags:
#FIRSTBEAT:15.333;
#LASTBEAT:372.500;
#SONGFILENAME:Songs/SSSC PACK/[debit13] - Tripping Contact/TRIPPING CONTACT.sm;
#HASMUSIC:1;
#HASBANNER:1;
#MUSICLENGTH:128.835;
// end cache tags

//---------------dance-single - debit13----------------
#NOTES:
     dance-single:
     debit13:
     Challenge:
     14:
     1.000,1.000,0.318,0.132,1.000,947.000,41.000,17.000,132.000,0.000:




0000
0000
0000
0000
,
0000
0000
0000
0000
,
0000
0000
0000
0000
,
0000
0000
0000
0000
0000
0000
0000
0000
0000
0000
0000
0000
0000
0000
0000
0000
0000
0000
0000
0000
0001
0010
0000
0100
,
1000
0000
0010
0000
0100
0000
0001
0000
1000
0000
0001
0010
0100
1000
0100
0010
,
0001
0000
1000
0000
0100
0000
0010
0000
0001
0000
0100
0001
0010
0100
1000
0001
,
1000
0000
0000
0001
0010
0100
1000
0000
0000
1000
0010
0100
0001
0000
0000
0001
0100
0010
1000
0000
0000
1000
0100
0010
,
0002
0000
0000
0000
0000
0000
00M0
0000
0000
0M00
0000
0000
10M0
0000
0000
1000
0000
0000
0MM3
0000
0000
0001
1000
0001
,
1000
0100
1000
0000
0001
0000
0100
0001
0100
0000
0010
1000
0001
1000
0010
1000
,
0001
0000
0010
0000
0100
1000
0100
1000
0100
0000
1000
0010
0100
0001
0100
0010
,
1000
0001
1000
0000
0001
0000
0100
0010
0100
0000
0001
0100
0010
1000
0010
0100
,
0001
1000
0001
0000
1000
0000
0010
0100
0010
0000
1000
0010
0100
0001
0100
0010
,
1000
0100
1000
0000
0100
0000
0010
0001
0010
0000
0001
1000
0001
0010
0100
1000
,
0001
0100
0001
0000
1000
0000
0010
1000
0010
0000
1000
0010
0100
0001
0100
0010
,
1000
0100
M0M1
0100
1000
0010
MM01
0010
,
1000
0000
0100
1000
0000
0010
1000
0000
0001
1000
0000
0010
1000
0000
0000
0001
1000
0001
1000
0000
0000
0001
1000
0001
,
1000
0001
1000
0000
0001
1000
0001
0100
,
0001
0000
1000
0001
1000
0010
1000
0001
,
0100
0001
0100
0010
0100
0000
0001
0100
,
0010
0100
0001
0000
1000
0100
0010
0100
,
1000
0001
0010
0001
1000
0000
0001
1000
,
0010
1000
0001
0000
0100
0010
0100
0001
,
0100
0010
0100
0001
0010
0100
1000
0000
,
1100
0000
0000
0000
0000
0000
0000
0011
0000
0000
0000
0000
0000
1001
0000
0000
0000
0000
0000
0101
0000
0000
0000
0000
1001
0000
0000
0000
0010
0000
0000
0000
,
0101
0000
0101
0000
0001
0000
1000
0010
1000
0000
1001
0000
1000
0100
0010
0000
,
0011
0000
0011
0000
0001
0000
1000
0010
0100
0001
0010
0000
0110
0000
0010
0000
,
1001
0000
1001
0000
0010
0000
0101
0000
0010
0100
0001
0000
1000
0000
0010
1000
,
0001
0000
0001
0000
1001
0000
1000
0100
0010
0000
1001
0000
0001
0000
1000
0000
,
1010
0000
1010
0000
0010
0000
0100
0001
1000
0000
1100
0000
1000
0001
0100
0000
,
0101
0000
0101
0000
0001
0000
0010
0100
1000
0100
0010
0001
1000
0000
0001
0000
,
1000
0100
1000
0001
1000
0010
1000
0100
0010
0001
1000
0001
0100
0001
0010
0100
,
1000
0000
0000
0010
0000
0000
0100
0000
0000
0001
0000
0000
1000
0000
0000
0001
0000
0000
0100
0000
0000
0010
0000
0000
1000
0000
0000
0001
0000
0000
1000
0000
0000
0100
0000
0000
0010
0000
0000
0001
0000
0000
1000
0000
0001
0000
1000
0000
,
0001
0000
0000
000M
0000
0000
MM00
0000
0000
00M0
0000
0000
0000
0000
0M0M
0000
0000
0000
M000
0000
0000
00M0
0000
0000
,
0M0M
0000
0000
0000
0000
0000
00M0
0000
0000
0000
0000
0000
0000
0000
0000
M000
0000
0000
0M00
0000
0000
0000
0000
0000
0000
0000
0000
000M
0000
0000
00M0
0000
0000
0M00
0000
0000
0000
0000
0000
0000
M00M
0000
0000
0000
0000
0000
0000
0000
,
0110
0000
0000
000M
0000
0000
0000
0000
0000
0M00
0000
0000
1001
0000
0000
00M0
0000
0000
0000
0000
0M0M
0000
0000
0000
0000
0000
0000
M000
0000
0000
00M0
0000
0000
0M00
0000
0000
0000
0000
0000
0000
0000
0000
M00M
0000
0000
0000
0000
0000
,
0000
0000
0000
0000
0000
0000
0000
0000
0000
0000
0000
0000
0000
0000
0000
0000
0MM0
0000
0000
0000
0000
0000
0000
0000
0000
0000
0000
0000
0000
0000
0000
0000
0000
0000
0000
0000
0000
0000
0000
0000
0000
0000
0000
0000
0000
0000
0000
0000
000M
0000
0000
0000
0000
0000
0000
0000
0000
0000
0000
0000
0000
0000
0000
0000
00M0
0000
0000
0000
0000
0000
0000
0000
0000
0000
0000
0000
0000
0000
0000
0000
0M00
0000
0000
0000
0000
0000
0000
0000
0000
0000
0000
0000
0000
0000
0000
0000
00M0
0000
0000
0000
0000
0000
0000
0000
0000
0000
0000
0000
0000
0000
0000
0000
0000
0000
0000
0000
0000
0000
0000
0000
M000
0000
0000
0000
0000
0000
0000
0000
0000
0000
0000
0000
0000
0000
0000
0000
0000
0000
0000
0000
0000
0000
0000
0000
0M00
0000
0000
0000
0000
0000
0000
0000
000M
0000
0000
0000
0000
0000
0000
0000
0000
0000
0000
0000
0000
0000
0000
0000
0000
0000
0000
0000
0000
0000
00M0
0000
0000
0000
0000
0000
0000
0000
0000
0000
0000
0000
0000
0000
0000
0000
0000
0000
,
1100
0000
0000
0000
0000
0000
00M0
0000
0000
000M
0000
0000
0000
0000
0000
0000
0000
0000
MM00
0000
0000
0000
0000
0000
000M
0000
0000
00M0
0000
0000
0000
0000
0000
MM00
0000
0000
00MM
0000
0000
0000
0M00
0000
0000
0000
0000
0000
0000
0000
,
00M0
0000
0000
0000
M000
0000
0000
0000
000M
0000
0000
0000
00M0
0000
0000
0000
0000
0000
0000
0000
0000
0M00
0000
0000
0000
0000
0000
0000
0000
0000
M00M
0000
0000
00M0
0000
0000
0000
0000
0000
0000
0000
0000
0001
0000
0000
0000
0000
0000
,
1001
0000
0000
0000
1001
0000
0000
0000
0001
0010
0001
0010
0100
0010
0100
0010
,
0100
1000
0100
1000
0010
0100
0010
0100
0001
0100
0001
0100
0001
0010
0100
0010
,
0002
0000
0000
0000
1003
0000
0000
0010
0000
0100
0000
0000
0010
0000
0000
1000
,
0002
0000
0000
0000
1003
0000
0000
0010
0000
0100
0000
0000
0010
0000
0000
1000
,
0200
0000
0000
0000
0310
0000
0000
0100
0000
1000
0000
0000
0001
0000
0000
0010
,
0200
0000
0000
0000
0000
0000
0000
0000
0000
0000
0000
0000
0310
0000
0000
0000
0000
0000
0000
0000
0000
0100
0000
0000
1000
0000
0000
0001
0000
0000
0000
0000
0000
1000
0000
0000
0010
0000
0000
0000
0000
0000
0100
0000
0001
0000
0100
0000
,
0001
0000
0000
0100
0000
0000
1000
0000
0000
0100
0000
0000
0001
0000
0000
0010
0000
0000
1000
0000
0000
0010
0100
0010
,
0100
0000
0000
1000
0000
0010
0100
0000
0000
0001
0000
0010
0100
0000
0000
1000
0000
0100
0010
0000
0000
0001
0000
1000
,
0010
0000
1000
0010
0000
0100
0001
0000
0100
0010
0000
1000
0010
0000
1000
0001
0000
1000
0100
0000
0010
0001
0000
1000
,
0001
000M
00M0
MM00
00MM
M000
0MM0
000M
,
1000
0100
0010
0001
0100
0010
1000
0001
0010
0100
0010
0001
1000
0010
0100
0001
,
1000
0100
0010
0100
1000
0001
0100
0010
0100
0001
0010
0000
0001
0000
0100
0000
,
0010
1000
0100
0010
0001
0010
0100
1000
0001
0100
0010
0100
0001
0010
0100
1000
,
0001
0100
0001
0100
0010
0100
0001
0100
0001
0010
0100
0000
1000
0000
0001
0000
,
0011
0010
0001
1000
0010
0100
0010
1000
0001
0010
0100
1000
0001
0100
0010
0100
,
0001
0010
0100
1000
0010
0100
0001
0010
0100
0010
0001
0000
1000
0000
0010
0000
,
0100
0010
0100
0001
0010
0001
0100
0010
1000
0010
1000
0100
1000
0010
0100
0010
,
0100
0001
0010
0001
1000
0001
0010
0100
1000
0010
0100
0000
0010
0000
0100
0000
,
0101
0001
0010
0100
1000
0100
0010
0001
1000
0010
0100
0010
1000
0100
0010
0100
,
1000
0001
0100
0001
1000
0010
0100
0010
1000
0100
0010
0100
1000
0010
0100
0001
,
0010
0100
0010
0001
1000
0001
0100
0001
0010
0001
1000
0010
1000
0100
0010
0001
,
1000
0010
0100
0001
0100
0010
1000
0001
0010
0100
1000
0100
0010
0001
1000
0010
,
0100
0001
0100
0000
0010
0100
0010
0100
0001
0100
0001
0000
0010
0100
0010
0100
,
1000
0100
1000
0000
0010
0100
0010
0100
0101
0000
0101
0000
0010
0000
1001
0000
,
1001
0000
0001
0010
0100
1000
0010
0100
0002
0003
1000
0100
0010
0001
0100
0010
,
1000
0000
0100
1000
0000
0010
1000
0000
0001
1000
0000
0001
0100
0000
0010
0100
0000
0001
0000
0000
0000
0000
0000
0000
,
0110
0000
0000
0000
0000
0000
MMM0
M1M0
,
MMM0
0000
0000
0000
0000
00MM
00M1
00MM
,
0000
MM00
0000
1M00
0000
MM00
0000
0000
0010
0000
0110
0000
0000
0000
1010
0000
,
0000
0000
0000
0000
1000
0100
1000
0100
0000
0000
0000
0000
0010
0001
0010
0001
0000
0000
0000
0000
1000
0001
1000
0001
0000
0000
0000
0000
1000
0000
0000
0000
,
1100
0000
0100
1000
0010
0000
0100
0001
1000
0000
0100
0010
0001
1000
0010
0100
,
0001
0000
0010
0000
0100
1000
0001
1000
0010
0000
0000
0000
M101
0000
0000
0000
,
0001
0010
0100
0010
0001
1000
0010
0100
0001
0000
1000
0010
0100
0001
1000
0000
,
0200
0310
0200
1300
0001
0000
1M1M
0000
,
1000
0010
1000
0001
0100
0010
0100
0001
0010
0000
0100
1000
0010
0100
0010
0000
,
1000
0000
0100
0000
0001
0000
0100
0000
0010
0000
0001
0000
0M10
0000
0000
000M
1M00
0000
0010
0000
0100
0000
1000
0000
,
0001
0100
0010
0100
0001
0010
0100
1000
0001
0000
1000
0001
1000
0010
0100
0010
,
2000
0000
3100
0000
0002
0000
0103
0000
0010
0001
MM10
0000
0001
0010
0M01
0010
,
M10M
0000
1000
0010
0100
0000
0001
0010
0100
0000
0010
0001
1000
0000
0010
0100
,
0001
0000
1000
0100
0010
0001
0010
0100
20MM
0000
000M
0000
3MMM
0000
0000
0000
,
1001
0000
0001
1000
0010
0000
1000
0100
0010
0000
0100
1000
0001
0000
0100
0010
,
1000
0000
0100
0010
0001
1000
0001
0100
M02M
0000
M00M
0000
MM3M
0000
0000
0000
,
1010
0000
1000
0100
0010
0000
0100
0010
0001
0000
1000
0010
0100
0000
0001
0100
,
0001
0010
0100
1000
0010
0100
200M
0000
3100
0010
1000
0100
,
0001
0100
0001
0100
0010
0100
0010
0001
0010
0001
1000
0010
0100
0001
0010
0100
,
2000
3001
0200
0301
0011
0001
0100
0010
,
2M0M
00M0
0000
00MM
0M00
00M0
300M
0000
,
100M
0100
1000
0001
1000
0010
1000
0001
1000
0010
0100
0001
1000
0100
0010
0001
,
0010
0001
1000
0001
0100
0001
1000
0001
0010
0001
1000
0100
0010
0001
1000
0010
,
0100
0001
1000
0001
0100
0010
1000
0010
1000
0100
0010
0001
0010
0001
1000
0010
,
0100
0010
1000
0001
0010
0100
1000
0010
1000
0001
0010
0001
1000
0010
0100
0001
,
0020
0031
1000
0100
0010
0001
1000
0010
0100
0010
1000
0100
0010
0001
0010
0100
,
1000
0001
0100
0001
1000
0010
0100
0010
1000
0100
0010
0001
1000
0010
0100
0010
,
1000
0100
0010
0100
0001
0100
0010
0100
,
1000
0000
0000
0100
1000
0100
1000
0000
0000
0001
0100
0001
0100
0000
0000
0010
1000
0010
1000
0000
0000
0001
0010
0100
,
100M
00M0
0M00
M000
0000
0000
0000
0000
0000
0000
0000
0000
0000
0000
0000
0000
0000
0000
0000
0000
0000
0000
0000
0000
;
