#TITLE:GANNON (Techno);
#SUBTITLE:Challenge;
#ARTIST:NINTENDO;
#TITLETRANSLIT:;
#SUBTITLETRANSLIT:;
#ARTISTTRANSLIT:;
#CREDIT:DJ Banzai and JDDD;
#BANNER:Ganon-banner.PNG;
#BACKGROUND:Ganon-bg.PNG;
#LYRICSPATH:;
#CDTITLE:./CDTITLES/DANCE DANCE REVOLUTION EXTREME.PNG;
#MUSIC:Ganon (Techno Remix).mp3;
#OFFSET:-2.427;
#SAMPLESTART:19.220;
#SAMPLELENGTH:12.000;
#SELECTABLE:YES;
#BPMS:0.000=599.995;
#STOPS:;
#BGCHANGES:;
// cache tags:
#FIRSTBEAT:0.000;
#LASTBEAT:888.000;
#SONGFILENAME:Songs/new encore/Ganon Challenge/Ganon.sm;
#HASMUSIC:1;
#HASBANNER:1;
#MUSICLENGTH:96.060;
// end cache tags

//---------------dance-single - JDDD----------------
#NOTES:
     dance-single:
     JDDD:
     Challenge:
     13:
     0.683,1.000,0.427,0.187,0.005,400.000,41.000,18.000,321.000,0.000:
0MM0
M00M
MMM0
0000
,
0000
0000
0000
0000
,
0000
0000
0000
0M0M
,
0MM0
M0M0
0000
0000
,
0000
0000
0000
0000
,
0000
0000
0000
0M0M
,
0000
0MM0
0000
0000
,
M000
0000
0000
0000
,
M001
0000
0000
0000
,
100M
0000
0000
0000
,
M001
0000
0000
0000
,
100M
0000
0000
0000
,
M011
0000
0000
0000
,
100M
0000
0000
0000
,
M001
0000
0000
0000
,
01M1
0000
0000
0000
,
M001
0000
0000
0000
,
M100
0000
0000
0000
,
M001
0000
0000
0000
,
M110
0000
0000
0000
,
0M01
0000
0000
0000
,
010M
0000
0000
0000
,
M001
0000
0000
0000
,
10M0
0000
0000
0000
,
0110
0000
0000
0000
,
1000
0000
0000
0000
,
0M10
0000
0000
0000
,
1000
0000
0000
0000
,
0110
0000
0000
000M
,
0100
0000
0000
0000
,
0001
0000
0000
0M00
,
0100
0000
0000
0000
,
1001
0000
0000
0000
,
0100
0M00
0000
0000
,
0001
0000
0000
000M
,
0100
0000
0000
0000
,
0001
0000
1000
0M00
,
0010
0000
0000
0000
,
0100
0000
0000
0000
,
M010
0000
0000
0000
,
1100
0000
0000
0000
,
001M
0000
0000
0000
,
1001
0000
0000
0000
,
0010
0000
0M00
0000
,
1001
0000
0000
0000
,
0010
0000
0000
0000
,
0101
0000
0M0M
0000
,
1000
0000
0000
0000
,
0001
0000
0000
0000
,
1000
0000
0M01
0000
,
0010
0000
0000
0000
,
1000
0000
0000
0000
,
0010
0000
0000
0000
,
100M
0000
0000
0000
,
0100
0000
0000
0000
,
10M0
0000
0001
0000
,
0100
0000
0000
0000
,
1000
00M0
0000
0000
,
0100
0000
0000
0000
,
0001
0000
0000
0000
,
01M0
00M0
MMM0
MMM0
,
MMM1
MMM0
MMM0
MMM0
,
MMM1
MMM0
MMM0
00M0
,
10M0
0MM0
0MM0
MMM0
,
MMM1
0000
0000
0000
,
0010
0000
0000
0000
,
0001
0000
0000
0000
,
1M00
0000
0000
0000
,
0001
0000
0000
0000
,
0100
00M0
0000
0000
,
0010
0000
0000
0000
,
1000
0000
0000
0000
,
0010
0000
0000
0000
,
0100
0000
0000
0000
,
001M
0000
0000
0000
,
1000
0000
0000
0000
,
0M10
0000
0000
0000
,
0100
00M0
0000
0000
,
0001
0000
0000
0000
,
0010
0000
M000
0000
,
0001
0000
00M0
0000
,
0100
0000
M000
0000
,
0010
0000
0M00
0000
,
0001
0000
00M0
0000
,
0100
0000
M00M
0000
,
0110
0000
0000
0000
,
1MM1
0000
1MM1
0000
,
1MM1
0000
1MM1
0000
,
1MM1
0000
1MM1
0000
,
1MM1
0000
1MM1
0000
,
10MM
01MM
0000
0000
,
1MMM
0000
0100
0000
,
0010
0M00
0001
0000
,
0100
0000
0010
0001
,
100M
0000
0010
0000
,
010M
0000
0M01
0000
,
0010
0000
0100
0000
,
1000
0000
0100
1000
,
0010
0000
0001
0000
,
0100
0000
1010
000M
,
1000
0000
0010
0000
,
0100
0000
0010
1000
,
0M01
0000
0010
0000
,
0100
0000
0011
0000
,
100M
0000
0010
0000
,
1000
0000
0010
0000
,
0101
0000
010M
0000
,
0101
0000
010M
0000
,
0100
0001
0100
0010
,
1000
0100
0010
M001
,
0100
0010
0100
0001
,
0010
0100
100M
0010
,
0100
M001
0010
0100
,
1000
0001
0100
001M
,
1000
0000
0010
0000
,
10M0
0000
0001
0000
,
0100
0000
0010
0000
,
010M
0000
0001
0000
,
1000
0000
0100
M000
,
0010
0000
0100
0000
,
0010
0000
0001
0000
,
010M
0000
0001
0000
,
0010
0000
0100
0000
,
0010
0000
0001
0M00
,
0100
0000
0010
0000
,
1000
0000
010M
0000
,
0010
0000
0100
0000
,
1000
0000
0010
M000
,
0100
0000
0001
0000
,
0010
0000
00M1
0000
,
0100
0000
0010
0000
,
1000
0000
0010
0000
,
100M
0000
0010
0000
,
0100
0000
M001
0000
,
0100
0000
0001
0000
,
0010
0000
M100
0000
,
1000
0000
0010
0000
,
010M
0000
0010
0000
,
1000
0100
0010
M001
,
0010
01M0
0010
0001
,
0100
0010
1000
0100
,
M010
0100
1000
0010
,
010M
0000
0001
0000
,
0010
0000
0100
0000
,
0010
0000
0001
0000
,
0100
0000
0010
0000
,
1MMM
0000
0010
0000
,
0100
0000
MM1M
0000
,
1000
0000
M1MM
0000
,
0010
0000
M1MM
0000
,
1000
0000
0100
0000
,
MM1M
0000
0010
0000
,
01MM
0000
M1M0
0000
,
0001
0000
MMM1
0000
,
M1MM
0000
1000
0000
,
0100
0000
0010
0000
,
MMM1
0000
0010
0000
,
0100
0000
1000
0000
,
MM1M
0000
0100
MMMM
,
0001
0000
0100
0000
,
0010
0000
1MMM
0000
,
0100
0000
MM10
0000
,
010M
0000
0001
0000
,
0100
0000
10MM
0000
,
0010
0000
01MM
0000
,
MM01
0000
0100
0000
,
0010
0000
10MM
0000
,
0001
0000
01MM
0000
,
MM01
0000
0010
0000
,
0100
0000
1MMM
0000
,
M11M
0000
MM11
0000
,
M11M
0000
M11M
0000
,
M11M
0000
1MMM
0000
,
M1M1
0000
M1M1
0000
,
M1M1
0000
MMM1
0000
,
1M1M
0000
1M1M
0000
,
1M1M
0000
M1MM
0000
,
1MM1
0000
1MM1
0000
,
1MM1
0000
010M
0000
,
1M1M
0000
1MMM
0000
,
1MMM
0100
0010
0001
,
02M0
0310
1000
0100
,
M01M
010M
1000
0001
,
0100
0010
100M
0010
,
0100
0001
0010
0100
,
0010
M10M
1000
0001
,
1MM1
0000
10MM
0100
,
0010
MM01
0100
0010
,
1000
00M0
0010
0100
,
0001
0M00
0010
0000
010M
0000
M010
0000
,
0001
0000
0000
0000
0000
000M
0000
0000
0100
0000
M000
0000
0010
0000
0000
0000
,
100M
001M
0100
M002
,
0013
MM0M
0010
0100
,
1000
0010
0100
0001
,
0100
M0MM
0010
1000
,
0100
1000
0010
0100
,
0001
MMM0
0010
0001
,
0100
0010
1000
0100
,
1000
0MMM
0010
0100
,
0001
0100
0010
1000
,
0001
000M
0010
0200
,
1300
0001
1000
0100
,
0010
MM0M
0001
0100
,
0010
1000
0100
0010
,
0001
MM0M
0010
0001
,
1000
0200
0320
0230
,
1300
0000
0000
0000
,
0000
010M
100M
020M
,
032M
023M
230M
3020
,
0230
0302
2003
3001
,
2002
0MM0
0000
0000
,
0000
0MM0
0000
0000
,
0000
0MM0
0000
0000
,
0000
00M0
0000
0000
,
0000
0MM0
0000
0000
,
0000
0M00
0000
0000
,
0000
0MM0
0000
0000
,
0000
3MM3
2002
0000
,
0000
00M0
0000
0000
,
0000
0MM0
0000
0000
,
3M03
0000
0000
0000
;

//---------------dance-single - JDDD----------------
#NOTES:
     dance-single:
     JDDD:
     Edit:
     15:
     1.000,1.000,0.167,0.021,0.000,748.000,16.000,2.000,32.000,0.000:
0000
0000
0000
0000
,
0000
0000
0000
0000
,
0000
0000
0000
0000
,
0000
0000
0000
0000
,
0000
0000
0000
0000
,
0000
0000
0000
0000
,
0000
0000
0000
0000
,
0000
0000
0000
0000
,
1000
0100
1000
0100
,
1000
0001
1000
0001
,
1000
0100
1000
0100
,
1000
0001
1000
0001
,
1000
0100
1000
0100
,
0010
0100
0010
0100
,
0010
0001
0010
0001
,
0100
0001
0100
0001
,
1000
0001
1000
0001
,
0100
0001
0100
0001
,
1000
0001
1000
0001
,
0010
0001
0010
0001
,
0010
0100
0010
0100
,
1000
0100
1000
0100
,
1000
0100
0010
0100
,
0010
0M00
0010
0000
,
0001
0100
0001
0100
,
0001
1000
0001
1000
,
0001
0010
0001
0010
,
0001
1000
0001
1000
,
0001
0010
0001
0010
,
0100
0010
0100
0010
,
0100
1000
0100
1000
,
0010
1000
0010
1000
,
0010
0100
0001
0100
,
0001
0M00
0001
0000
,
1000
0001
1000
0001
,
0100
0010
0100
0010
,
1000
0001
1000
0001
,
0100
0010
0100
0010
,
1000
0100
1000
0001
,
1000
0100
1000
0001
,
0010
0001
0100
0001
,
1000
00M0
0100
0000
,
0001
0100
0001
0100
,
0010
1000
0010
1000
,
0001
0100
0001
0100
,
0010
1000
0010
1000
,
0100
0010
0001
0100
,
0010
1000
0100
0010
,
0100
1000
0001
0100
,
0010
M000
0001
0000
,
1000
0100
1000
0100
,
0010
0001
0010
0001
,
1000
0100
1000
0100
,
0010
0001
0010
0001
,
0100
0001
0100
0001
,
1000
0010
0100
0001
,
1000
0100
0010
0100
,
1000
00M0
0100
0000
,
0001
1000
0001
1000
,
0001
0010
0001
0010
,
0100
0010
0100
0010
,
0100
1000
0100
1000
,
0100
0010
0100
0010
,
0001
0010
0001
0010
,
0100
1000
0100
1000
,
0100
0000
1MM1
0000
,
1000
0010
1000
0010
,
1000
0001
1000
M001
,
M010
M001
M010
M001
,
M010
M100
001M
010M
,
001M
010M
100M
010M
,
100M
00M1
10M0
00M1
,
01M0
00M1
M100
M001
,
M100
000M
0010
0000
,
0010
1000
0010
0100
,
0001
1000
0001
0100
,
0010
1000
0010
0100
,
0001
0010
0100
1000
,
0001
1000
0100
0010
,
0100
1000
0001
0100
,
0001
0100
0010
1000
,
0010
0000
0010
0000
,
1000
0001
1000
0010
,
0100
0001
1000
0010
,
0100
0001
0100
0001
,
1000
0100
0010
0001
,
0100
0010
1000
0010
,
0100
0001
0010
0100
,
1000
0010
1000
0010
,
0100
0000
0100
0000
,
0001
0010
0001
0010
,
0100
1000
0100
1000
,
0010
0100
0010
0100
,
0001
0010
0001
0010
,
0100
1000
0100
1000
,
0010
0100
0010
0100
,
0001
0010
0001
0010
,
0100
0000
0100
0000
,
1000
0100
1000
0001
,
1000
0100
1000
0001
,
0010
0001
1000
0001
,
0010
0001
0100
0001
,
0100
0010
1000
0001
,
0100
0010
1000
0001
,
1000
0010
0100
0001
,
1000
0000
0010
0000
,
1000
0100
0010
0001
,
0010
0100
1000
0001
,
1000
0100
0010
0001
,
0010
0100
1000
0001
,
1000
0100
0010
0001
,
0010
0100
1000
0001
,
1000
0100
0010
0001
,
0100
0000
0100
0000
,
0101
0000
0100
0000
,
0101
0000
0100
0000
,
1010
0000
0010
0000
,
1010
0000
0010
0000
,
1001
0000
1001
0000
,
0110
0000
0101
0000
,
0011
0000
0010
0000
,
0110
0000
0100
0000
,
1100
0000
0100
0000
,
1010
0000
0010
0000
,
1001
0000
1000
0000
,
0011
0000
0M10
0000
,
1000
0100
1000
0010
,
0100
0010
0100
0010
,
0100
0001
0010
0001
,
0100
0010
0100
0001
,
0010
0100
1000
0100
,
0010
0001
0010
0100
,
1000
0001
0100
0010
,
1000
0000
1000
0000
,
0001
0100
0010
0100
,
0010
1000
0100
0010
,
0100
1000
0001
0100
,
0010
1000
0100
0010
,
0100
1000
0010
0100
,
0010
0100
0001
0010
,
0001
0100
0010
1000
,
0100
0000
0100
0000
,
0010
0001
0010
0001
,
1000
0001
1000
0001
,
0100
0001
0100
0001
,
0100
0010
0100
0010
,
1000
0100
0010
0001
,
0010
0100
1000
0001
,
0100
0010
0100
0001
,
0010
0000
0010
0000
,
0100
1000
0100
1000
,
0010
1000
0010
1000
,
0010
0100
0001
0100
,
0010
1000
0100
0010
,
0001
0010
0100
1000
,
0001
1000
0001
0010
,
0100
1000
0010
0100
,
0001
0000
0101
0000
,
0M10
0100
0010
0100
,
0001
0100
0001
1000
,
0010
1000
0001
0100
,
0001
1000
0010
1000
,
0010
0100
0001
0100
,
0010
0000
0010
0000
,
1000
0100
1000
0100
,
0010
0100
0010
0001
,
0010
0001
0100
0001
,
0100
0010
0100
0010
,
1000
0100
1000
0100
,
0010
0001
0010
0100
,
1000
0000
0010
0000
,
0100
0010
1000
0100
,
1000
0100
1000
0100
,
0010
0001
0010
0001
,
0010
0100
0010
0100
,
0010
0001
0100
0010
,
1000
0010
0100
0001
,
1000
0000
1000
0000
,
0010
0001
0100
0010
,
1000
0010
1000
0010
,
0100
0001
0010
0100
,
1000
0010
0100
0001
,
0010
0100
1000
0010
,
0100
0010
1000
0100
,
0010
0001
1000
0100
,
0010
0000
0100
0000
,
1000
0010
1000
0010
,
0100
0001
0100
0001
,
1000
0001
1000
0001
,
0100
0001
0010
0100
,
1000
0100
0010
0001
,
0100
0001
0100
0010
,
1000
0100
0010
0001
,
0100
0000
0100
0000
,
0010
0100
1000
0100
,
0010
0001
1000
0010
,
0100
0001
0100
0010
,
1000
0010
0100
0001
,
0010
0100
0010
0001
,
0010
0100
1000
0100
,
0010
0001
1000
0010
,
1000
0100
1000
0010
,
0100
0001
0100
0010
,
1000
0100
0010
0001
,
0010
0100
1000
0001
,
0100
0010
1000
0010
,
0100
0001
0010
0001
,
0010
0001
0100
0010
,
0100
0010
0100
0001
,
0010
0100
1000
0200
,
0002
0000
0000
0000
,
0000
0000
0000
0000
,
0000
0000
0000
0000
,
0000
0000
0000
0000
,
0000
0000
0000
0000
,
0000
0000
0000
0000
,
0300
0000
0000
0000
,
0003
0000
0000
0000
,
0100
0000
0000
0000
,
0001
0000
0000
0000
,
0100
0000
0000
0000
,
0001
0000
0000
0000
,
0100
0000
0000
0000
;
