#TITLE:NS18;
#SUBTITLE:The BOSS Song of Kirby5464;
#ARTIST:3034;
#TITLETRANSLIT:;
#SUBTITLETRANSLIT:;
#ARTISTTRANSLIT:;
#CREDIT:;
#BANNER:../BN.png;
#BACKGROUND:../BG.png;
#LYRICSPATH:;
#CDTITLE:../CDTitleKIRBY.png;
#MUSIC:NS18.ogg;
#OFFSET:-1.095;
#SAMPLESTART:52.272;
#SAMPLELENGTH:12.000;
#SELECTABLE:YES;
#DISPLAYBPM:230.000:255.000;
#BPMS:0.000=230.000,195.000=195.234,196.000=235.000,260.000=240.000,391.000=206.445,392.000=245.000,456.000=250.000,504.000=255.000;
#STOPS:;
#BGCHANGES:;
// cache tags:
#FIRSTBEAT:0.000;
#LASTBEAT:521.000;
#SONGFILENAME:Songs/Index Gradation/NS18 - [Kirby5464]/NS18.sm;
#HASMUSIC:1;
#HASBANNER:1;
#MUSICLENGTH:132.963;
// end cache tags

//---------------dance-single - ----------------
#NOTES:
     dance-single:
     :
     Challenge:
     27:
     1.000,1.000,0.060,0.436,1.000,1881.000,8.000,58.000,0.000,0.000:
0001
0100
0001
0000
1000
0000
0100
0000
0010
0000
0001
1000
0001
0000
0100
0000
,
0010
1000
0100
0010
0001
0100
0010
0100
0001
0010
0001
1000
0010
1000
0100
0010
,
0001
1000
0100
0010
0100
1000
0001
0010
0001
1000
0010
1000
0100
0010
0001
0100
,
0010
0100
0001
0010
0001
1000
0100
1000
0001
0010
0100
0010
0001
1000
0010
1000
,
0100
0010
0001
0100
0010
0100
0001
1000
0100
0010
0001
1000
0100
1000
0001
0010
,
0001
0100
0010
0100
0001
1000
0100
0010
0001
1000
0100
1000
0001
0100
0001
0010
,
0100
1000
0001
0010
0100
0010
0001
1000
0100
1000
0001
0100
0001
0010
0100
1000
,
0001
0010
0001
1000
0100
1000
0010
0100
0010
1000
0001
0100
0010
1000
0100
0010
,
0100
1000
0001
0100
0001
0010
0100
1000
0010
0100
0010
1000
0100
1000
0001
0100
,
0001
0010
0100
1000
0001
0100
0010
1000
0100
0010
0001
1000
0010
0100
0001
0010
,
0100
1000
0001
0100
0010
1000
0100
0010
0001
1000
0010
0100
0001
0010
0100
1000
,
0001
0100
0010
1000
0100
0010
0001
1000
0010
0100
0001
0010
0100
1000
0001
0100
,
0010
1000
0100
0010
0001
1000
0010
0100
0001
0010
0100
1000
0001
0100
0010
1000
,
0100
0010
0001
1000
0010
0100
0001
0010
0100
1000
0001
0100
0010
1000
0100
0010
,
0001
1000
0010
0100
0001
0010
0100
1000
0001
0100
0010
1000
0100
0010
0001
1000
,
0010
0100
0001
0010
0100
1000
0001
0100
0010
1000
0100
0010
0001
1000
0010
0100
,
0001
1000
0001
0100
0010
1000
0100
0010
0001
1000
0100
1000
0001
0100
0001
0010
0100
1000
0001
0010
0100
0010
0001
1000
,
0001
0000
0000
0100
0000
0000
0001
0000
0000
1000
0000
0000
0010
0000
0100
0000
0001
0000
0010
0000
0100
0000
1000
0000
0001
0000
0100
0000
0010
0000
1000
0000
0100
0000
0010
0000
0001
0000
0000
1000
0000
0000
0010
0000
0000
0100
0000
0000
,
0001
0000
0000
1000
0000
0000
0001
0000
0000
0010
0000
0000
0100
0000
1000
0000
0001
0000
0100
0000
0010
0000
1000
0000
0100
0000
0010
0000
0001
0000
1000
0000
0010
0000
0100
0000
0001
0000
0000
1000
0000
0000
0001
0000
0000
0100
0000
0000
,
0010
0000
0000
0100
0000
0000
0001
0000
0000
1000
0000
0000
0100
0000
0010
0000
0001
0000
1000
0000
0010
0000
0100
0000
0001
0000
0010
0000
0100
0000
1000
0000
0010
0000
0100
0000
0010
0000
0000
1000
0000
0000
0100
0000
0000
0010
0000
0000
,
0001
0000
0000
1000
0000
0000
0010
0000
0000
0100
0000
0000
0001
0000
0010
0000
0100
0000
1000
0000
0010
0000
1000
0000
0001
0000
0000
0100
0000
0000
0001
0000
0000
0010
0000
0000
0100
0000
0000
1000
0000
0000
0010
0000
0000
0100
0000
0000
,
0010
0000
0000
1000
0000
0000
0001
0000
0000
0010
0000
0000
0001
0000
1000
0000
0100
0000
0010
0000
0001
0000
0100
0000
0010
0000
1000
0000
0001
0000
0010
0000
0100
0000
1000
0000
0001
0000
0000
0100
0000
0000
0010
0000
0000
1000
0000
0000
,
0100
0000
0000
0010
0000
0000
0001
0000
0000
1000
0000
0000
0010
0000
0100
0000
0001
0000
0010
0000
0100
0000
1000
0000
0001
0000
0010
0000
0001
0000
1000
0000
0100
0000
1000
0000
0010
0000
0000
0100
0000
0000
0001
0000
0000
1000
0000
0000
,
0100
0000
0000
0010
0000
0000
0001
0000
0000
0100
0000
0000
0010
0000
1000
0000
0001
0000
0100
0000
0001
0000
0010
0000
0100
0000
1000
0000
0010
0000
0100
0000
0010
0000
1000
0000
0001
0000
0000
1000
0000
0000
0100
0000
0000
0010
0000
0000
,
0001
0000
0000
1000
0000
0000
0010
0000
0000
0100
0000
0000
0001
0000
1000
0000
0100
0000
0010
0000
0001
0000
1000
0000
0001
0000
0000
0100
0000
0000
0001
0000
0000
0010
0000
0000
0100
0000
0000
1000
0000
0000
0010
0000
0000
0100
0000
0000
,
0010
0000
0000
1000
0000
0000
0001
0000
0000
0010
0000
0000
0001
0000
1000
0000
0100
0000
0010
0000
0001
0000
0100
0000
0010
0000
1000
0000
0001
0000
0010
0000
0100
0000
1000
0000
0001
0000
0000
0100
0000
0000
0010
0000
0000
1000
0000
0000
,
0100
0000
0000
0010
0000
0000
0001
0000
0000
1000
0000
0000
0010
0000
0100
0000
0001
0000
0010
0000
0100
0000
1000
0000
0001
0000
0010
0000
0001
0000
1000
0000
0100
0000
1000
0000
0010
0000
0000
0100
0000
0000
0001
0000
0000
1000
0000
0000
,
0100
0000
0000
0010
0000
0000
0001
0000
0000
0100
0000
0000
0010
0000
1000
0000
0001
0000
0100
0000
0001
0000
0010
0000
0100
0000
1000
0000
0010
0000
0100
0000
0010
0000
1000
0000
0001
0000
0000
0100
0000
0000
0001
0000
0000
1000
0000
0000
,
0010
0000
0100
0000
0001
0000
0010
0000
0100
0000
1000
0000
0001
0000
0000
0100
0000
0000
0010
0000
0000
1000
0000
0000
0001
0000
0000
1000
0000
0000
0010
0000
0000
0100
0000
0000
0001
0000
0000
1000
0000
0000
0001
0000
0000
0010
0000
0000
,
0100
0000
1000
0000
0001
0000
0100
0000
0010
0000
1000
0000
0100
0000
0010
0000
0001
0000
1000
0000
0010
0000
0100
0000
0001
0000
0000
1000
0000
0000
0001
0000
0000
0100
0000
0000
0010
0000
0000
0100
0000
0000
0001
0000
0000
1000
0000
0000
,
0100
0000
0010
0000
0001
0000
1000
0000
0010
0000
0100
0000
0001
0000
0010
0000
0100
0000
1000
0000
0010
0000
0100
0000
0010
0000
0000
1000
0000
0000
0100
0000
0000
0010
0000
0000
0001
0000
0000
1000
0000
0000
0010
0000
0000
0100
0000
0000
,
0001
0000
0000
0010
0000
0000
0100
0000
0000
1000
0000
0000
0001
0000
0010
0000
0001
0000
1000
0000
0100
0000
0010
0000
0001
0000
1000
0000
0010
0000
0100
0000
0001
0000
1000
0000
0010
0000
0000
1000
0000
0000
0001
0000
0000
0010
0000
0000
,
0001
0000
0000
1000
0000
0000
0100
0000
0000
0010
0000
0000
0001
0000
1000
0000
0010
0000
0100
0000
0001
0000
1000
0000
0001
0000
0100
0000
0010
0000
0100
0000
0001
0000
1000
0000
0100
0000
0000
0010
0000
0000
0001
0000
0000
1000
0000
0000
,
0000
0020
0030
0200
0300
0002
0003
0020
,
0030
0200
0300
2000
3000
0002
0003
0200
,
0300
0020
0030
2000
3000
0200
0300
0040
,
0030
0002
0003
2000
3000
0020
0030
0200
,
0300
0001
1000
0020
0030
0200
0300
0002
,
0003
0020
0030
0200
0300
2000
3000
0002
,
0003
0200
0300
0020
0030
2000
3000
0004
,
0003
0200
0300
0002
0003
2000
3000
0002
,
0003
1000
0010
0100
0001
0010
0100
1000
,
0001
0100
0010
1000
0100
0010
0001
0100
,
0010
0100
0001
0010
0001
1000
0100
1000
,
0001
0010
0100
0010
0001
1000
0010
1000
,
0100
0010
0001
0100
0010
0100
0001
0010
,
0001
1000
0010
1000
0100
0010
0001
1000
,
0010
0100
0001
0010
0100
1000
0010
0100
,
0002
0023
0032
2003
3020
2030
3002
0003
,
1000
0100
0010
0001
1000
0010
0100
0001
0010
0001
1000
0010
1000
0100
0010
0001
,
1000
0100
0010
0100
1000
0001
0010
0001
1000
0010
1000
0100
0010
0001
0100
0010
,
0100
0001
0010
0001
1000
0100
1000
0001
0010
0100
0010
0001
1000
0010
1000
0100
,
0010
0001
0100
0010
0100
0001
1000
0100
0010
0001
1000
0100
1000
0001
0010
0001
,
0100
0010
0100
0001
1000
0100
0010
0001
1000
0100
1000
0001
0100
0001
0010
0100
,
1000
0001
0010
0100
0010
0001
1000
0100
1000
0001
0100
0001
0010
0100
1000
0001
,
0010
0001
1000
0100
1000
0010
0100
0010
1000
0001
0100
0010
1000
0100
0010
0100
,
1000
0001
0100
0001
0010
0100
1000
0010
0100
0010
1000
0100
1000
0001
0100
0001
,
0010
0100
1000
0001
0100
0001
1000
0100
0010
0001
1000
0010
1000
0001
0010
0100
,
1000
0001
0100
0001
1000
0100
0010
0001
1000
0010
0100
0001
0010
0100
1000
0001
,
0010
0001
1000
0100
0010
0001
1000
0100
1000
0001
0010
0100
1000
0010
0100
0010
,
1000
0100
1000
0001
0100
0001
0010
0100
1000
0001
0010
0100
0010
0001
1000
0100
,
1000
0001
0100
0001
0010
0100
1000
0010
0100
0010
1000
0100
1000
0001
0010
0001
,
1000
0100
0010
0100
1000
0001
0100
0001
0010
0100
1000
0010
0100
0010
1000
0001
,
0010
0100
1000
0001
0010
0001
1000
0100
1000
0010
0100
0010
1000
0001
0010
0100
,
1000
0001
0100
0010
1000
0100
0010
0100
1000
0001
0010
0001
1000
0100
1000
0010
0100
0010
1000
0001
0010
0001
1000
0100
,
0010
0001
1000
0010
1000
0100
0010
0001
1000
0100
1000
0001
0010
0001
0100
0010
,
0100
0001
1000
0010
0100
0001
0010
0100
0010
0001
1000
0010
1000
0100
0010
0001
,
0100
0010
0100
0001
0010
0001
1000
0010
1000
0100
0010
0001
1000
0010
0100
0001
,
0010
0100
1000
0001
0100
0010
1000
0100
0010
0001
1000
0010
0100
0001
0010
0100
,
1000
0001
0100
0010
1000
0100
0010
0001
0100
0010
0100
0001
0010
0001
1000
0010
,
1000
0100
0010
0001
1000
0100
0010
0100
1000
0001
0010
0001
1000
0010
1000
0100
,
0010
0001
0100
0010
0100
0001
0010
0001
1000
0100
1000
0001
0010
0100
0010
0001
,
1000
0010
1000
0100
0010
0001
0100
0010
0100
0001
1000
0100
0010
0001
1000
0100
,
1000
0001
0010
0001
0100
0010
0100
0001
1000
0100
0010
0001
1000
0100
1000
0001
,
0100
0001
0010
0100
1000
0001
0010
0100
0010
0001
1000
0100
1000
0001
0100
0001
,
0010
0100
1000
0001
0010
0001
1000
0100
1000
0010
0100
0010
1000
0001
0100
0010
,
1000
0100
0010
0100
1000
0001
0100
0001
0010
0100
1000
0010
0100
0010
1000
0100
,
1000
0001
0100
0001
0010
0100
1000
0001
0100
0010
1000
0100
0010
0001
1000
0010
,
0100
0001
0010
0100
1000
0001
0100
0010
1000
0100
0010
0001
1000
0010
1000
0001
,
0010
0100
1000
0001
0100
0010
1000
0100
0010
0001
1000
0100
1000
0001
0010
0100
,
1000
0001
0100
0010
1000
0100
0010
0001
1000
0010
0100
0001
0010
0001
1000
0100
1000
0010
0100
0010
1000
0001
0100
0010
,
1000
0000
0000
0000
0000
0000
0001
0100
0001
0000
0000
0000
1000
0100
1000
0000
0000
0000
0001
0010
0001
0000
0000
0000
,
1000
0010
1000
0000
0000
0000
0001
0100
0010
0000
0000
0000
1000
0010
0100
0000
0000
0000
0001
0010
0001
0000
0000
0000
,
0100
0010
0100
0000
0000
0000
0001
1000
0001
0000
0000
0000
1000
0100
1000
0000
0000
0000
0001
0100
0001
0000
0000
0000
,
1000
0001
1000
0000
0000
0000
0010
0100
0010
0000
0000
0000
1000
0100
1000
0000
0000
0000
0001
0010
0001
0000
0000
0000
,
0110
0000
0000
0000
0000
0000
1000
0001
1000
0000
0000
0000
0001
1000
0001
0000
0000
0000
0100
0010
0100
0000
0000
0000
,
0001
0010
0001
0000
0000
0000
1000
0100
1000
0000
0000
0000
0001
0100
0001
0000
0000
0000
1000
0010
1000
0000
0000
0000
,
0001
0100
0010
0000
0000
0000
1000
0001
1000
0000
0000
0000
0010
0100
0010
0000
0000
0000
1000
0100
1000
0000
0000
0000
,
0001
0010
0001
0000
0000
0000
1000
0010
1000
0000
0000
0000
0001
0100
0001
0000
0000
0000
1100
0000
0000
0000
0000
0000
,
1010
0000
0000
0000
0000
0000
0001
1000
0001
0000
0000
0000
1000
0001
1000
0000
0000
0000
0010
0100
0010
0000
0000
0000
,
1000
0100
1000
0000
0000
0000
0001
0010
0001
0000
0000
0000
1000
0010
1000
0000
0000
0000
0001
0100
0001
0000
0000
0000
,
1010
0000
0000
0000
0000
0000
0001
1000
0001
0000
0000
0000
0100
0010
0100
0000
0000
0000
0001
0010
0001
0000
0000
0000
,
1000
0100
1000
0000
0000
0000
0001
0100
0001
0000
0000
0000
1000
0010
1000
0000
0000
0000
0001
1000
0001
0000
0000
0000
,
0110
0000
0000
0000
0000
0000
1000
0010
1000
0000
0000
0000
0001
0100
0001
0000
0000
0000
0010
0100
0010
0000
0000
0000
,
1100
0000
0000
0000
0000
0000
0001
0010
0001
0000
0000
0000
1000
0100
1000
0000
0000
0000
1000
0010
1000
0000
0000
0000
,
0022
0033
0000
0000
0000
0000
0000
0000
1001
0000
0000
0000
0000
0000
0000
0000
,
1000
0001
0100
0010
1000
0100
0010
0001
,
2000
0000
3020
0000
0230
0000
0302
0000
2003
0000
3002
0000
0203
0300
0000
0000
,
0001
0010
0100
1000
0001
0100
0010
1000
0100
1000
0001
0100
0001
0010
0100
1000
,
0001
0010
0100
0010
0001
1000
0100
1000
0001
0100
0001
0010
0100
1000
0010
0100
,
0010
1000
0100
1000
0001
0010
0001
1000
0100
0010
0100
1000
0001
0100
0001
0010
,
0100
1000
0010
0100
0010
1000
0001
0010
0100
1000
0001
0010
0001
1000
0100
1000
,
0010
0100
0010
1000
0001
0010
0100
1000
0001
0010
0001
1000
0010
1000
0100
0010
,
0001
1000
0100
0010
0100
1000
0001
0010
0001
1000
0010
1000
0100
0010
0001
1000
,
0100
1000
0001
0010
0001
0100
0010
0100
0001
1000
0010
0100
0001
0010
0100
0010
,
0001
1000
0010
1000
0100
0010
0001
0100
0010
0100
0001
0010
0001
1000
0010
1000
,
0100
0010
0001
1000
0010
1000
0001
0010
0100
1000
0001
0100
0001
1000
0100
0010
,
0001
1000
0010
1000
0001
0010
0100
1000
0001
0100
0010
1000
0100
0010
0001
1000
,
0100
1000
0001
0010
0100
1000
0001
0010
0001
1000
0100
0010
0001
0100
0010
0100
,
0001
0010
0001
1000
0010
1000
0100
0010
0001
1000
0100
0010
0100
1000
0001
0010
,
0001
1000
0010
1000
0100
0010
0001
0100
0010
0100
0001
0010
0001
1000
0100
1000
,
0001
0010
0100
0010
0001
1000
0010
1000
0100
0010
0001
0100
0010
0100
0001
1000
,
0100
0010
0001
1000
0100
1000
0001
0010
0001
0100
0010
0100
0001
1000
0100
0010
,
0002
2003
3020
0230
,
0301
1000
0001
0100
0001
0010
0100
1000
0001
0010
0001
1000
0100
1000
0010
0100
,
0010
1000
0001
0100
0010
1000
0100
0010
0100
1000
0001
0100
0001
0010
0100
1000
,
0010
0100
0010
1000
0100
1000
0001
0100
0001
0010
0100
1000
0001
0100
0010
1000
,
0100
0010
0001
1000
0010
0100
0001
0010
0100
1000
0001
0100
0010
1000
0100
0010
,
0001
1000
0010
0100
0001
0010
0100
1000
0010
0100
0010
1000
0100
1000
0001
0100
,
0001
0010
0100
1000
0001
0010
0100
0010
0001
1000
0100
1000
0001
0100
0001
0010
,
0100
1000
0010
0100
0010
1000
0100
1000
0001
0010
0001
1000
0100
0010
0100
1000
,
0001
0100
0001
0010
0100
1000
0010
0100
0010
1000
0001
0010
0100
1000
0001
0010
,
0001
1000
0100
1000
0010
0100
0010
1000
0001
0010
0100
1000
0001
0010
0001
1000
,
0010
1000
0100
0010
0001
1000
0100
0010
0100
1000
0001
0010
0001
1000
0010
1000
,
0100
0010
0001
1000
0100
1000
0001
0010
0001
0100
0010
0100
0001
1000
0010
0100
,
0002
2003
3200
0320
0032
2003
3020
0230
,
0301
1000
0010
1000
0100
0010
0001
1000
0010
0100
0001
0010
0100
1000
0001
0100
,
0010
1000
0100
0010
0001
1000
0010
0100
0001
0010
0100
1000
0001
0100
0001
1000
,
0100
0010
0001
1000
0010
0100
0001
0010
0100
1000
0001
0010
0001
1000
0100
0010
,
0001
1000
0010
0100
0001
0010
0100
1000
0001
0100
0010
1000
0100
1000
0001
0010
0001
0100
0010
0100
0001
1000
0010
0100
,
0020
0030
0000
0000
;
