#TITLE:Evening Star;
#SUBTITLE:;
#ARTIST:Dragonforce;
#TITLETRANSLIT:;
#SUBTITLETRANSLIT:;
#ARTISTTRANSLIT:;
#CREDIT:B. Abear;
#BANNER:Bn-Evening.png;
#BACKGROUND:Bg-Evening.png;
#LYRICSPATH:;
#CDTITLE:;
#MUSIC:08 - Evening Star.ogg;
#OFFSET:0.015;
#SAMPLESTART:86.830;
#SAMPLELENGTH:20.690;
#SELECTABLE:YES;
#BPMS:0.000=150.000,78.000=185.000;
#STOPS:78.000=3.526
;
#BGCHANGES:;
// cache tags:
#FIRSTBEAT:16.000;
#LASTBEAT:1195.750;
#SONGFILENAME:Songs/Dragonforce/Evening Star/Evening Star.sm;
#HASMUSIC:1;
#HASBANNER:1;
#MUSICLENGTH:399.725;
// end cache tags

//---------------dance-single - B. Abear----------------
#NOTES:
     dance-single:
     B. Abear:
     Challenge:
     14:
     1.000,1.000,0.333,0.223,1.000,2946.000,133.000,89.000,168.000,0.000:



0000
0000
0000
0000
,
0000
0000
0000
0000
,
0000
0000
0000
0000
,
0000
0000
0000
0000
,
1001
0000
0001
0001
0010
0100
1000
0000
,
1010
0000
0010
0010
0110
0000
0100
0001
,
1001
0000
0000
0000
0000
0000
0000
0000
0000
0000
1000
0100
0010
0000
0000
0001
0000
0000
1000
0000
0000
0001
0000
0000
,
0101
0100
0010
1000
0000
0001
0010
0100
,
1100
0000
0000
0000
0000
0000
0000
0000
0000
0000
1000
0001
0100
0000
0000
0010
0000
0000
0100
0000
0000
0001
0000
0000
,
1000
0001
0100
0001
1000
0100
0010
0001
,
0011
0010
0100
1000
0001
0100
0001
1000
,
0010
0100
0001
0010
0000
0001
1000
0100
,
0110
0000
0010
0010
0001
1000
0010
0100
,
0101
0000
0001
1000
0100
1000
0001
0010
,
0110
0100
1000
0001
0100
0010
0100
0001
,
1001
1000
0100
0010
0000
0001
1000
0010
,
0110
0100
0001
1000
1100
0100
0010
0001
,
0011
0010
0100
1100
0000
1000
0001
0100
,
0101
0001
0100
0010
1000
0010
0100
0001
,
1000
0100
0010
0001
1MM0
0000
0002
0000
,
1003
0100
0010
0100
1000
0001
0200
0000
,
1300
0200
0000
0000
0000
0000
0301
0001
,
1000
0000
0100
0000
0010
0000
0001
0000
0010
0100
1000
0001
0020
0000
0000
0000
,
1030
0020
0000
0000
0000
0000
0030
00M1
,
1000
0100
0010
0001
1000
0010
0200
0000
,
1300
0000
0200
0000
0000
0000
0000
0000
0000
0000
0000
0000
0301
00M0
000M
00M0
,
1000
0000
0100
0000
0010
0M0M
00M0
0000
0001
0000
1000
0000
0010
0100
0001
1000
,
0001
1000
0001
1000
0010
0100
0001
1000
0001
1000
0001
1000
0100
0000
0010
0000
,
0001
1000
0001
0100
0010
1000
0200
0000
,
0301
0200
0000
0000
0000
0000
1300
1000
,
0001
0000
0100
0000
0010
0000
1000
0000
0001
0010
0100
1000
0020
0000
0000
0000
,
0031
0000
0000
0020
0000
0000
0000
0000
0000
0000
0000
0000
0000
0000
0000
0000
0000
0000
0030
0000
1000
0001
0000
0000
,
0010
0000
0000
0100
0000
0000
1000
0001
0000
0100
0000
0000
0010
0000
0000
1000
0000
0000
0200
0000
0000
0000
0000
0000
,
0301
0200
0000
0000
0000
0000
0300
1M00
,
0000
0001
0000
0000
0100
0000
0000
0010
0000
0000
1000
0000
0001
0010
0100
0010
,
0001
0010
0100
0010
0001
0010
0100
0010
0001
0010
0100
0010
0002
0000
0000
0000
,
1003
0100
2000
0000
0000
0000
3001
0100
0001
0000
0001
1000
0002
0000
0000
0000
,
0013
0100
0020
0000
0000
0000
0130
1000
0100
0000
0100
0010
0200
0000
0000
0000
,
1300
0001
2000
0000
0000
0000
3001
0100
0001
0000
1000
0000
0001
0000
0010
0001
,
0010
0000
0000
0001
0000
0000
0020
0000
0000
0000
0000
0000
0000
0000
0000
0000
0000
0000
0130
0000
0000
1000
0000
0000
0001
0000
0000
0000
0000
0000
0100
0000
0001
0000
1000
0000
0001
0000
0000
0000
0000
0000
0010
0000
0000
0000
0000
0000
,
0100
0000
0000
1100
0000
0000
1000
0000
0000
0001
0000
0000
0101
0000
0000
0100
0010
1000
0010
0000
0000
1000
0000
0000
,
0100
0000
0000
0000
0000
0000
0110
0000
0000
0000
0000
0000
0010
0000
0000
0000
0000
0000
0001
0000
0000
0000
0000
0000
1001
0000
0000
0000
0000
0000
1000
0000
0001
0000
1000
0000
0100
0000
0000
0010
0000
0000
0001
0000
0000
0100
0000
0000
,
0001
1000
0010
0100
0001
1000
0100
1000
0001
0010
0100
1000
0001
0100
0001
1000
,
0100
0010
0001
1000
0010
1000
0001
1000
0100
0010
0001
1000
0001
0000
0100
0001
,
0100
0001
1000
0000
0100
0010
0100
0010
0001
0000
1000
0010
0100
0000
0001
1000
,
0001
1000
0100
0000
0010
0001
0010
0001
1000
0000
0001
0100
0010
0000
1000
0010
,
1000
0010
0100
0000
0001
1000
0001
1000
0100
0000
0010
0001
1000
0000
0100
1000
,
0100
1000
0001
0000
1000
0000
0110
0000
0002
0000
1003
0100
0010
0000
0100
1000
,
0100
1000
0001
0000
0100
0010
0100
0010
1000
0000
0001
0010
0100
0000
1000
0100
,
1000
0100
0010
0000
0001
1000
0001
1000
0010
0000
0100
0010
1000
0000
0010
0100
,
0010
0100
0001
0000
1000
0001
1000
0001
0010
0000
0100
1000
00M1
0100
0001
0100
,
0001
0100
0001
0100
001M
1000
0010
1000
0010
1000
0010
1000
0002
0000
0013
0001
,
0010
0001
0020
0000
0031
0010
0001
0010
0002
0000
0013
0100
2000
0000
3100
1000
,
0100
1000
0200
0000
1300
0100
1000
0100
2000
0000
3100
0010
0001
0000
0001
0010
,
0100
0000
0002
0000
0000
0000
0103
0000
1000
0000
0001
0000
1000
0000
1000
0010
,
0100
0000
2000
0000
0000
0000
3100
0000
0101
0000
0001
0000
1000
0000
0001
0010
,
0100
1000
0002
0000
1003
0010
0100
0001
0200
0000
0310
1000
0002
0000
0013
0100
,
1000
0001
2000
0000
3010
1000
0100
0010
0002
0000
1003
0100
0010
0000
0010
0000
,
0100
0000
0000
0100
0000
0000
1000
0000
0000
1000
0000
0000
0001
0000
0000
0001
0000
0000
0101
0000
0000
0000
0110
0000
,
0000
0000
0000
0000
1010
0000
0000
0000
0000
0000
0000
0000
1001
0000
0000
0000
0000
0000
0000
0000
1100
0000
0000
0000
0000
0000
0000
0000
0110
0000
0000
0000
0000
0000
0000
0000
0011
0000
0000
0000
0000
0000
0001
0000
0000
1000
0000
0000
,
0001
1000
0010
0000
0100
0001
0100
0001
0100
0001
0100
0001
1000
0000
0001
0010
,
0001
0010
0100
0000
1000
0001
1000
0001
0200
0000
0300
0000
0101
0000
0001
1000
,
0001
1000
0010
0000
1000
0001
1000
0001
0010
0000
0100
1000
0001
0000
0010
0001
,
0010
0001
1000
0000
0010
0100
0010
0100
0004
1000
0000
1003
0100
0000
0010
0100
,
0010
0100
1000
0000
0001
0100
0001
0100
0010
0000
1000
0010
0100
0000
0001
1000
,
0001
1000
0100
0000
0010
0001
0010
0001
0010
0001
0010
0001
1000
0000
0010
0000
,
0100
0000
0000
0001
0000
0000
0101
0000
0000
0100
0000
0000
0001
0000
0000
1000
0001
1000
0100
0000
0000
0010
0000
0000
,
0001
0000
1000
0000
0100
0010
0001
1000
0001
1000
0001
1000
0100
0000
1000
0001
,
1000
0001
0100
0000
0010
1000
0010
1000
0001
0000
1000
0100
0010
0000
0001
1000
,
0001
1000
0010
0000
0100
0001
1000
0000
11MM
0000
0100
0000
M11M
0000
0010
0001
,
0010
0001
1000
0000
0010
0100
0010
0100
0001
0000
1000
0001
0010
0000
0100
1000
,
0100
1000
0001
0000
0010
0001
0010
0001
4000
0001
0000
3001
0100
0000
0010
1000
,
0010
1000
0001
0000
1000
0100
1000
0100
0010
0000
0001
0010
0100
0000
1000
0001
,
1000
0001
0100
0000
0010
1000
0010
1000
0001
0010
0100
1000
0001
0000
0100
0000
,
0010
0000
0000
1000
0000
0000
1001
0000
0000
0001
0000
0000
0010
0000
0000
0100
1000
0001
1000
0000
0000
0100
0000
0000
,
0010
0000
0001
0000
0100
0010
1000
0100
0010
0001
1000
0001
0010
0000
0100
0000
,
1000
0100
1000
0000
0001
0000
0100
0000
0010
0100
0010
0000
1000
0000
0001
0000
,
1000
0100
1000
0000
0001
0000
0010
0000
0001
0010
0100
1000
0M01
0010
0001
1000
,
0010
0100
001M
1000
0001
0010
0001
1000
010M
0010
0001
1000
0M10
0100
0010
1000
,
0010
0100
M001
0010
0100
1000
0001
1000
0M1M
0000
0M1M
0000
1000
0000
0001
0000
,
0010
0001
0010
0000
0100
0000
1000
0000
0001
0100
0001
0000
1000
0000
0010
0000
,
1000
0001
1000
0000
0001
0000
0010
0000
0001
0100
0010
1000
0001
0010
0100
1000
,
0100
1000
0001
0010
0100
1000
0100
1000
0001
0100
0010
1000
0001
0010
0100
1000
,
0001
0010
0001
0010
0001
1000
0001
1000
0010
0000
0000
0000
1000
0000
0001
0000
,
1000
0100
0010
0001
1000
0000
0001
0000
0100
0000
0010
0000
1000
0000
0001
0000
,
1000
0100
0010
0100
1000
0000
0001
0000
0100
0000
0010
0000
1000
0000
0001
0000
,
0010
0100
1000
0001
1000
0100
0010
0001
1000
0010
0100
0001
M100
0010
1000
0100
,
0010
0001
1000
0100
M010
0001
1000
0010
M10M
0000
M10M
0000
0101
0000
0001
0000
,
1000
0000
0100
0000
0010
0001
1000
0001
0010
0000
0001
0000
1000
0010
1000
0001
,
0010
0000
0100
0000
1000
0001
0010
0001
1000
0010
0100
0010
1000
0100
0010
0001
,
0010
0001
1000
0100
0010
0001
0010
0001
1000
0100
0010
0001
1000
0010
0100
0001
,
0100
0001
1000
0010
0100
0001
0100
0001
1000
0010
0100
0001
1000
0100
0010
0000
,
0011
0000
1001
0000
0001
0000
1001
0000
1010
0000
0010
0000
0100
0001
0100
0001
,
1000
0001
1000
0001
0010
0001
0010
0001
0010
0100
0010
0100
2000
0000
0000
3000
,
0000
0000
0000
0000
,
0000
0000
0000
0000
0000
0000
0000
0000
0000
0000
0000
0000
2002
0000
0000
3003
,
0000
0000
0000
0000
0000
0000
0000
0000
0000
0000
0000
0000
0004
0100
0000
0100
,
0000
0000
0000
1000
0000
0000
0000
0000
0000
1000
0000
0000
0000
0000
0000
0010
0000
0000
0000
0000
0000
0013
0000
0000
0100
0000
0000
1000
0000
0000
0001
0000
1000
0000
0001
0000
1000
0000
0000
0000
0000
0000
0010
0000
0000
0000
0000
0000
,
1010
0000
1000
0000
1001
0000
0001
0000
0011
0000
0010
0100
1000
0000
0001
0000
,
1001
0000
1000
0000
1010
0000
0010
0000
0100
0001
1000
0001
0010
0000
0100
0000
,
0100
0000
1000
0000
0001
0000
0001
0000
0100
0000
0010
0000
100M
0000
0M00
M000
,
0001
1000
0010
0100
0010
0100
0001
1000
0010
0100
0010
0100
0001
0000
1000
0000
,
0100
1000
0100
0000
0010
0000
0001
0000
1000
0010
1000
0000
0001
0000
0100
0000
,
0010
0100
0010
0000
1000
0000
0001
0000
0010
0001
0010
0000
0100
0000
1000
0000
,
0001
1000
0001
0000
1000
0000
0010
0000
0100
0001
0100
0000
0010
0000
1000
0000
,
0001
0010
0001
0000
1000
0000
0100
0000
0010
0100
0010
0000
0001
0000
1000
0000
,
0001
0100
0001
0000
0100
0000
0010
0000
1000
0010
1000
0000
0001
0000
1000
0000
,
0100
0010
0100
0000
0010
0000
0001
0000
1000
0001
1000
0000
0001
0000
0010
0000
,
0001
0010
0001
0000
0010
0000
0001
0000
0010
0001
0010
0000
0001
1000
0001
1000
,
0001
1000
0001
1000
0010
0100
0010
0100
0010
0100
0010
0100
0001
0000
1000
0000
,
0100
1000
0100
0000
0010
0000
0100
0000
1000
0001
1000
0000
1001
0000
0001
0000
,
0100
0010
0100
0000
0010
0000
1000
0000
0001
0010
0001
0000
0011
0000
0010
0000
,
0100
1000
0100
0000
0010
0000
0001
0000
1000
0001
1000
0000
1010
0000
0010
0000
,
0100
0001
0100
0000
0010
0000
1000
0000
0001
0010
0001
0000
1001
0000
1000
0000
,
0001
1000
0001
0000
1000
0000
0001
0000
1000
0001
1000
0000
1100
0000
0100
0000
,
1000
0100
1000
0000
0100
0000
1000
0000
0100
1000
0100
0000
0110
0000
0010
0000
,
0001
1000
0001
0000
0100
0000
0010
0000
1000
0010
0100
0001
1000
0100
0010
0001
,
1000
0001
0010
0001
1000
0010
0100
0001
1000
0010
1000
0001
0010
0000
0010
0000
,
0100
1000
0001
0100
0010
1000
0002
0000
,
0013
2000
0000
0000
0000
0000
3010
0010
,
0001
0000
0100
0000
0010
0000
1000
0001
0010
0001
1000
0010
2000
0000
0000
0000
,
3010
0000
0000
0002
0000
0000
0000
0000
0000
0000
0000
0000
0000
0000
0000
0000
0000
0000
0003
0000
0010
100M
0000
0000
,
0010
1000
0001
0010
0100
0010
0002
0000
,
0013
0000
2000
0000
0000
0000
0000
0000
0000
0000
0000
3000
0011
0000
0000
0000
,
0010
0000
0001
0000
1000
0000
0000
0010
0000
0000
0100
0000
0010
0100
0001
1000
,
0001
1000
0001
1000
0010
0100
0001
1000
0001
1000
0001
1000
0100
0000
0010
0000
,
0001
1000
0001
0100
0010
1000
0200
0000
,
0301
0200
0000
0000
0000
0000
1300
1000
,
0001
0000
0100
0000
0010
0000
1000
0000
0001
0010
0100
1000
0020
0000
0000
0000
,
0031
0000
0000
0020
0000
0000
0000
0000
0000
0000
0000
0000
0000
0000
0000
0000
0000
0000
0030
0000
1000
0001
0000
0000
,
0010
0000
0000
0100
0000
0000
1000
0001
0000
0100
0000
0000
0010
0000
0000
1000
0000
0000
0200
0000
0000
0000
0000
0000
,
0301
0200
0000
0000
0000
0000
0300
1M00
,
0000
0001
0000
0000
0100
0000
0000
0010
0000
0000
1000
0000
0001
0010
0001
0010
,
0100
0010
0100
0010
0100
1000
0100
1000
0001
1000
0001
1000
0010
0000
1000
0001
,
1000
0001
0010
0000
0100
1000
0100
1000
0001
0000
0010
0100
1000
0000
0001
1000
,
0001
1000
0010
0000
0100
0001
0010
0100
2000
0000
0000
3000
1001
0000
0001
0100
,
0001
0100
0010
0000
1000
0001
1000
0001
0010
0000
0100
1000
0001
0000
0100
0010
,
0100
0010
1000
0000
0001
0010
0001
0010
0004
1000
0000
1003
0010
0000
0100
0001
,
0100
0001
1000
0000
0001
1000
0001
1000
0100
0000
0010
0001
1000
0000
0010
1000
,
0010
1000
0001
0000
1000
0001
1000
0001
1000
0001
1000
0001
1000
0000
0100
0000
,
0010
0000
0000
0001
0000
0000
1001
0000
0000
1000
0000
0000
0010
0000
0000
1000
0001
1000
0100
0000
0000
1000
0000
0000
,
0100
0000
0010
0000
0011
0000
0001
1000
0001
1000
0010
0100
0001
0000
1000
0001
,
1000
0001
0100
0000
0010
1000
0010
1000
0001
0000
1000
0100
0010
0000
0001
1000
,
0001
1000
0010
0000
0100
0001
1000
0000
11MM
0000
0100
0000
M11M
0000
0010
0001
,
0010
0001
1000
0000
0010
0100
0010
0100
0001
0000
1000
0001
0010
0000
0100
1000
,
0100
1000
0001
0000
0010
0001
0010
0001
4000
0001
0000
3001
0100
0000
0010
1000
,
0010
1000
0001
0000
1000
0100
1000
0100
0010
0000
0001
0010
0100
0000
1000
0001
,
1000
0001
0100
0000
0010
1000
0010
1000
0001
0010
0100
1000
0001
0000
0100
0000
,
0010
0000
1000
0000
1001
0000
0001
0000
0010
0100
1000
0001
1000
0000
0100
0000
,
0010
0001
1000
0001
0100
0000
0000
0000
0001
1000
0100
1000
0010
0000
0100
0000
,
0001
0010
0001
0000
1000
0000
0010
0000
0100
0010
0100
0000
0001
0000
1000
0000
,
0001
0010
0001
0000
1000
0000
0100
0000
1000
0100
0010
0001
10M0
0100
1000
0001
,
0100
0010
M100
0001
1000
0100
1000
0001
M010
0100
1000
0001
01M0
0010
0100
0001
,
0100
0010
100M
0100
0010
0001
1000
0001
M1M0
0000
M1M0
0000
0001
0000
1000
0000
,
0100
1000
0100
0000
0010
0000
0001
0000
1000
0010
1000
0000
0001
0000
0100
0000
,
0001
1000
0001
0000
1000
0000
0100
0000
1000
0010
0100
0001
1000
0100
0010
0001
,
0010
0001
1000
0100
0010
0001
0010
0001
1000
0010
0100
0001
1000
0100
0010
0001
,
1000
0100
1000
0100
1000
0001
1000
0001
0100
0000
0000
0000
0001
0000
1000
0000
,
0001
0010
0100
1000
0001
0000
1000
0000
0010
0100
0001
1000
0001
0000
1000
0000
,
0001
0010
0100
0010
0001
0000
1000
0000
0010
0100
0001
1000
0001
0000
1000
0000
,
0100
0000
0010
0000
0001
0000
0010
0001
1000
0010
0100
0001
M100
0010
1000
0100
,
0010
0001
1000
0100
M010
0001
1000
0010
M10M
0000
M10M
0000
0101
0000
0001
0000
,
1000
0000
0100
0000
0010
0001
1000
0001
0010
0001
0010
0001
1000
0000
0010
0000
,
0100
0000
0001
0000
1000
0000
0001
0000
1000
0010
0100
0010
1000
0100
0010
0001
,
0010
0001
1000
0100
0010
0001
0010
0001
1000
0100
0010
0001
1000
0010
0100
0001
,
0100
0001
1000
0010
0100
0001
0100
0001
1000
0010
0100
0001
1000
0100
0010
0000
,
0011
0000
1001
0000
0001
0000
1001
0000
1010
0000
0010
0000
0100
0001
0100
0001
,
1000
0001
1000
0001
0010
0001
0010
0001
0010
0100
0010
0100
2000
0000
0000
3000
,
0000
0000
0000
0000
,
0000
0000
0000
0000
0000
0000
0000
0000
0000
0000
0000
0000
2002
0000
0000
3003
,
0000
0000
0000
0000
0000
0000
0000
0000
0000
0000
0000
0000
0004
0100
0000
0100
,
0000
1000
0000
1000
0000
0010
0000
0013
0100
1000
0001
1000
0001
0000
1000
0000
,
1001
0000
0001
0000
1001
0000
1000
0000
1100
0000
0100
0010
0001
0000
1000
0000
,
1001
0000
0001
0000
0101
0000
0100
0000
0010
1000
0001
1000
0100
0000
0010
0000
,
0010
0001
1000
1000
0010
0100
0001
1000
,
1000
0000
0100
0000
0100
0010
0001
1000
0001
0000
1000
0000
1001
0000
0001
0000
,
0010
0001
0010
0000
0100
0000
1000
0000
0001
0100
0001
0000
1000
0000
0010
0000
,
0100
0010
0100
0000
0001
0000
1000
0000
0100
1000
0100
0000
0010
0000
0001
0000
,
1000
0001
1000
0000
0001
0000
0100
0000
0010
1000
0010
0000
0100
0000
0001
0000
,
1000
0100
1000
0000
0001
0000
0010
0000
0100
0010
0100
0000
1000
0000
0001
0000
,
1000
0010
1000
0000
0010
0000
0100
0000
0001
0100
0001
0000
1000
0000
0001
0000
,
0010
0100
0010
0000
0100
0000
1000
0000
0001
1000
0001
0000
1000
0000
0100
0000
,
1000
0100
1000
0000
0100
0000
1000
0000
0100
1000
0100
0000
1000
0001
1000
0001
,
1000
0001
1000
0001
0100
0010
0100
0010
0100
0010
0100
0010
1000
0000
0001
0000
,
0010
0001
0010
0000
0100
0000
0010
0000
0001
1000
0001
0000
1001
0000
1000
0000
,
0010
0100
0010
0000
0100
0000
0001
0000
1000
0100
1000
0000
1100
0000
0100
0000
,
0010
0001
0010
0000
0100
0000
1000
0000
0001
1000
0001
0000
0101
0000
0100
0000
,
0010
1000
0010
0000
0100
0000
0001
0000
1000
0100
1000
0000
1001
0000
0001
0000
,
1000
0001
1000
0000
0001
0000
1000
0000
0001
1000
0001
0000
0011
0000
0010
0000
,
0001
0010
0001
0000
0010
0000
0001
0000
0010
0001
0010
0000
0110
0000
0100
0000
,
1000
0001
1000
0000
0010
0000
0100
0000
0010
0000
1000
0000
0001
0100
0001
0100
,
0001
0100
0001
0100
0001
0100
0001
0100
0001
0100
0001
0000
1001
0000
1000
0000
,
0100
0110
0010
0001
1001
1000
1010
0010
,
0100
0000
0101
0000
0001
0000
1000
0000
1100
0000
0100
0010
0001
0100
0001
1000
,
0100
1000
0001
0010
0001
1000
0010
1000
0001
0100
0001
1000
0100
1000
0001
0010
,
0001
1000
0100
1000
0001
0100
0001
1000
0400
0000
0000
0300
0011
0000
0001
0000
,
1000
0000
0000
1010
0000
0000
0010
0000
0000
0100
0000
0000
0101
0000
0000
0001
1000
0100
1000
0000
0000
0100
0000
0000
,
0010
0000
0000
0000
0000
0000
0011
0000
0000
0000
0000
0000
0001
0000
0000
0000
0000
0000
1000
0000
0000
0010
0000
0000
0100
0000
0000
0001
0000
0000
1000
0000
0100
0000
1000
0000
0004
0000
0000
0010
0000
0000
0000
0000
0000
0013
0000
0000
,
0400
1000
0000
1300
0004
0100
0000
0103
0040
1000
0000
1030
0004
0100
0000
1003
,
0040
1000
0000
0100
0000
1000
0000
0130
0004
1000
0000
0013
0200
0000
0000
0000
,
0000
0000
0000
0000
1300
0010
0200
0000
,
0000
0302
0203
0340
,
0000
0000
0000
0000
0000
0000
0000
0000
0000
0000
0000
0000
0000
0000
0000
0000
0000
0000
0000
0000
0000
0000
0000
0000
0030
0000
0000
0000
0000
0000
0000
0000
0000
0000
0000
0000
0000
0000
0000
0000
0000
0000
0000
0000
0000
0000
0000
0000
0000
0000
0000
0000
0000
0000
0000
0000
0000
0000
0000
0000
0000
0000
0000
0000
0000
0000
0000
0000
0000
0000
0000
0000
1000
0000
0000
0000
0000
0000
0000
0000
0000
0000
0000
0000
0000
0000
0000
0000
0000
0000
0000
0000
0001
0000
0000
0000
0000
0000
0000
0000
0000
0000
0000
0000
0000
1000
0000
0000
0000
0000
0000
0000
0000
0000
0000
0000
0000
0000
0000
0000
0100
0000
0000
0000
0000
0000
0000
0000
0000
0000
0000
0000
0000
0000
0000
0000
0000
0000
0000
0000
0000
0000
0000
0000
0020
0000
0000
0000
0000
0000
0000
0000
0000
0000
0000
0000
0000
0000
0000
0000
0000
0000
0000
0000
0000
0000
0000
0000
0000
0000
0000
0000
0000
0000
0000
0000
0000
0000
0000
0000
0000
0000
0000
0000
0000
0000
0000
0000
0000
0000
0000
0000
,
0000
0000
0034
4000
0000
0000
0000
0000
0000
3003
0100
0010
0002
0000
0000
0000
,
0000
0000
0000
1003
0100
1000
0001
0100
0001
2000
0000
0000
,
0000
0000
0000
0000
0000
0000
0000
0000
0000
0000
0000
0000
3001
0000
0000
4000
0000
0000
0000
0000
0000
0000
0000
0000
0000
0000
0000
0000
0000
0000
0000
0000
0000
0000
0000
0000
3001
0000
0000
0000
0010
0000
0000
0000
0100
0000
0000
0000
,
1000
0000
0000
0000
0001
0000
0000
0000
1000
0000
0000
0000
0010
0000
0000
0000
0100
0000
0000
0000
0001
0000
0000
0000
1000
0000
0000
0000
0100
0000
0000
0000
0010
0000
0000
0000
0001
0000
0000
1000
0000
0000
0001
0000
0000
1000
0000
0000
,
0001
0000
0000
1000
0000
0000
0001
0000
0000
1000
0000
0000
0100
0000
0000
1000
0000
0000
0001
0000
0000
1000
0000
0000
0010
0000
0000
0100
0000
0000
0010
0000
0000
0100
0000
0000
0001
0000
0000
0000
1000
0000
0000
0000
0100
0000
0000
0000
,
1000
0000
0000
0000
0001
0000
0000
0000
0100
0000
0000
0000
0010
0000
0000
1000
0000
0000
0010
0000
0000
0100
0000
0000
0001
0000
0000
1000
0000
0000
0100
0000
0000
0010
0000
0000
0001
0000
0000
0000
0010
0000
0000
0000
0100
0000
0000
0000
,
1000
0100
0010
0002
0000
0000
0000
0000
0003
1000
0010
0100
,
0001
0000
0000
0000
0100
0000
0000
0000
0010
0000
0000
0000
1000
0000
0000
0100
0000
0000
0010
0000
0000
0100
0000
0000
1000
0000
0000
0001
0000
0000
0010
0000
0000
0001
0000
0000
1000
0000
0000
0100
0000
0000
0010
0000
0000
0001
0000
0000
,
1000
0000
0000
0100
0000
0000
0010
0000
0000
0001
0000
0000
2000
0000
0000
0000
0000
0000
0000
0000
0000
0000
0000
0000
0000
0000
0000
0000
0000
0000
0000
0000
0000
0000
0000
0000
3001
0000
0000
0000
0100
0000
0000
0000
0010
0000
0000
0000
,
1000
0000
0000
0000
0001
0000
0000
0000
0010
0000
0000
0000
0100
0000
0000
1000
0000
0000
0001
0000
0000
1000
0000
0000
0100
0000
0000
0010
0000
0000
0001
0000
0000
1000
0000
0000
0010
0000
0000
1000
0000
0000
0001
0000
0000
0100
0000
0000
,
0010
0100
0001
0100
0010
1000
0001
1000
0100
1000
0001
0100
0010
1000
0001
0100
,
0001
1000
0100
0010
0001
1000
0010
0100
0001
1000
0100
0000
4000
0001
0000
0001
,
0000
0001
0000
0001
0000
0001
0000
0001
0000
0001
0000
3001
0100
0000
0010
0000
,
1000
0000
0000
0000
0001
0000
0000
0000
0010
0100
0000
0000
1000
0000
0000
0000
0001
0000
0000
0000
1000
0000
0000
0000
0010
0000
0000
0000
0100
0000
0000
0000
,
0001
0000
0000
0000
0000
0000
0000
0000
0000
0000
0000
0000
0000
0000
0000
0000
0000
0000
0000
0000
0000
0000
0000
0000
1000
0000
0000
0000
0000
0000
0000
0000
0000
0000
0000
0000
0000
0000
0000
0000
0000
0000
0000
0000
0000
0000
0000
0000
0001
0000
0000
0000
0000
0000
0010
0000
0000
0000
0000
0000
0000
0000
0000
0000
0000
0000
0000
0000
0000
0000
0000
0000
0100
0000
0000
0000
0000
0000
0000
0000
0000
0000
0000
0000
0000
0000
0000
0000
0000
0000
0000
0000
0000
0000
0000
0000
1000
0000
0000
0000
0000
0000
0000
0000
0000
0000
0000
0000
0000
0000
0000
0000
0000
0000
0000
0000
0000
0000
0000
0000
0001
0000
0000
0000
0000
0000
0000
0000
0000
0000
0000
0000
0000
0000
0000
0000
0000
0000
0000
0000
0000
0000
0000
0000
1000
0000
0000
0000
0000
0000
0000
0000
0000
0000
0000
0000
0000
0000
0000
0000
0000
0000
0000
0000
0000
0000
0000
0000
0000
0000
0000
0000
0000
0000
0000
0000
1000
0000
0000
0000
0000
0000
0000
0000
0000
0000
0000
0000
0000
0000
0000
0000
,
0100
0000
0010
0000
0001
0000
1000
0000
0010
0000
1000
0000
0001
0000
0010
0000
0100
0000
1000
0000
0000
0004
0000
0000
,
1003
0000
0000
0000
0100
0000
0000
0000
0010
0000
0000
0000
0001
0000
0000
1000
0000
0000
0001
0000
0000
1000
0000
0000
0400
0000
0000
0000
0000
0000
0000
0000
0000
0000
0000
0000
M310
0000
0000
0001
0000
0000
0M10
0000
0000
0001
0000
0000
,
M010
0000
0000
0000
00M1
1000
0M01
1000
00M1
0000
0000
0000
1M00
0010
100M
0010
,
1M00
0000
0000
0000
001M
0100
M010
0100
001M
0000
0000
0000
0100
0001
0100
0001
,
1000
0001
1000
0001
0100
0001
0100
0001
0020
0000
0000
0000
0130
0000
0100
0000
,
0100
1000
0010
0100
0004
1000
0000
1000
0000
1000
0003
0000
1MM1
0000
000M
00M0
,
0M00
M000
0M00
00M0
000M
00M0
0M00
M000
0M00
00M0
000M
0000
11MM
0000
000M
00M0
,
0M00
M000
0M00
00M0
000M
00M0
0M00
M000
0M00
00M0
000M
0000
M11M
0000
000M
00M0
,
0M00
M000
0M00
00M0
000M
00M0
0M00
M000
0M00
00M0
000M
0000
0010
0001
0010
0001
,
0010
0001
0010
0001
1000
0001
1000
0001
1000
0001
1000
0000
1MM1
0000
M000
0M00
,
00M0
000M
00M0
0M00
M000
0M00
00M0
000M
00M0
0M00
M000
0000
M1M1
0000
M000
0M00
,
00M0
000M
00M0
0M00
M000
0M00
00M0
000M
00M0
0M00
M000
0000
M11M
0000
M000
0M00
,
00M0
000M
00M0
0M00
M000
0M00
00M0
000M
00M0
0M00
M000
0000
0010
1000
0010
1000
,
0010
1000
0010
1000
0001
1000
0001
1000
0001
0000
0001
0000
1000
0100
0010
0001
,
1000
0010
0100
0010
1000
0001
0100
0001
1000
0100
0010
0001
0010
0001
1000
0010
,
0100
0001
1000
0100
1000
0001
0010
0100
0010
0001
1000
0010
0100
0001
0100
0010
,
1000
0001
0010
0100
1000
0100
0010
0001
1000
0010
0100
0010
1000
0001
1000
0001
,
1000
0001
0100
0010
1000
0001
1000
0001
0100
0010
1000
0001
0010
0100
1000
0001
,
0100
0001
1000
0100
0010
0001
0010
0100
1000
0010
0100
0001
0100
0010
1000
0001
,
0100
0001
1000
0100
1000
0001
0010
0001
1000
0100
0010
0001
1000
0100
1000
0001
,
1000
0100
1000
0100
1000
0001
1000
0100
1000
0100
0010
0001
1000
0100
1000
0001
,
1000
0100
1000
0100
1000
0001
1000
0010
1000
0010
0100
0001
1000
0100
1000
0100
,
0010
0001
1000
0001
1000
0100
1000
0100
0010
0001
1000
0001
0100
0010
0100
0010
,
0100
0010
0100
0010
1000
0001
1000
0001
1000
0001
1000
0001
0020
0000
0000
0000
,
0000
0000
0000
0000
0000
0000
0000
0000
0000
0000
0000
0000
0000
0000
0000
0000
0000
0000
0000
0000
0000
0000
0000
0000
0030
0100
0000
0000
0000
0000
0000
0000
0000
0000
0000
0000
0000
0000
0000
0000
0000
0000
0000
0000
0000
0000
0000
0000
1000
0000
0000
0000
0000
0000
0000
0000
0000
0000
0000
0000
0000
0000
0000
0000
0000
0000
0000
0000
0000
0000
0000
0000
0000
0001
0000
0000
0000
0000
0000
0000
0000
0000
0000
0000
0000
0000
0000
0000
0000
0000
0000
0000
0000
0000
0000
0000
0100
0000
0000
0000
0000
0000
0000
0000
0000
0000
0000
0000
0000
0000
0000
0000
0000
0000
0000
0000
0000
0000
0000
0000
0000
0010
0000
0000
0000
0000
0000
0000
0000
0000
0000
0000
0000
0000
0000
0000
0000
0000
0000
0000
0000
0000
0000
0000
2000
0000
0000
0000
0000
0000
0000
0000
0000
0000
0000
0000
0000
0000
0000
0000
0000
0000
0000
0000
0000
0000
0000
0000
0000
0000
0000
0000
0000
0000
0000
0000
0000
0000
0000
0000
0000
0000
0000
0000
0000
0000
0000
0000
0000
0000
0000
0000
,
0000
0000
0000
0000
0000
0000
0000
0000
0000
0000
0000
0000
0000
0000
0000
0000
0000
0000
0000
0000
0000
0000
0000
0000
3000
0001
0000
0000
0000
0000
0000
0000
0000
0000
0000
0000
0000
0000
0000
0000
0000
0000
0000
0000
0000
0000
0000
0000
0010
0000
0000
0000
0000
0000
0000
0000
0000
0000
0000
0000
0000
0000
0000
0000
0000
0000
0000
0000
0000
0000
0000
0000
0000
0100
0000
0000
0000
0000
0000
0000
0000
0000
0000
0000
0000
0000
0000
0000
0000
0000
0000
0000
0000
0000
0000
0000
1000
0000
0000
0000
0000
0000
0000
0000
0000
0000
0000
0000
0000
0000
0000
0000
0000
0000
0000
0000
0000
0000
0000
0000
0000
0001
0000
0000
0000
0000
0000
0000
0000
0000
0000
0000
0000
0000
0000
0000
0000
0000
0000
0000
0000
0000
0000
0000
0200
0000
0000
0000
0000
0000
0000
0000
0000
0000
0000
0000
0000
0000
0000
0000
0000
0000
0000
0000
0000
0000
0000
0000
0000
0000
0000
0000
0000
0000
0000
0000
0000
0000
0000
0000
0000
0000
0000
0000
0000
0000
0000
0000
0000
0000
0000
0000
,
0000
0000
0000
0000
0000
0000
0000
0000
0000
0000
0000
0000
0000
0000
0000
0000
0000
0000
0000
0000
0000
0000
0000
0000
0300
0010
0000
0000
0000
0000
0000
0000
0000
0000
0000
0000
0000
0000
0000
0000
0000
0000
0000
0000
0000
0000
0000
0000
1000
0000
0000
0000
0000
0000
0000
0000
0000
0000
0000
0000
0000
0000
0000
0000
0000
0000
0000
0000
0000
0000
0000
0000
0000
0001
0000
0000
0000
0000
0000
0000
0000
0000
0000
0000
0000
0000
0000
0000
0000
0000
0000
0000
0000
0000
0000
0000
0001
0000
0000
0000
0000
0000
0100
0000
0000
0000
0000
0000
0000
0000
0000
0000
0000
0000
0000
0000
0000
0000
0000
0000
0000
0010
0000
0000
0000
0000
0000
0000
0000
0000
0000
0000
0000
0000
0000
0000
0000
0000
0000
0000
0000
0000
0000
0000
2000
0000
0000
0000
0000
0000
0000
0000
0000
0000
0000
0000
0000
0000
0000
0000
0000
0000
0000
0000
0000
0000
0000
0000
0000
0000
0000
0000
0000
0000
0000
0000
0000
0000
0000
0000
0000
0000
0000
0000
0000
0000
0000
0000
0000
0000
0000
0000
,
0000
0000
0000
0000
0000
0000
0000
0000
0000
0000
0000
0000
0000
0000
0000
0000
0000
0000
0000
0000
0000
0000
0000
0000
0000
0000
0000
0000
0000
0000
0000
0000
0000
0000
0000
0000
0000
0000
0000
0000
0000
0000
0000
0000
0000
0000
0000
0000
3002
0000
0000
0000
0000
0000
0000
0000
0000
0000
0000
0000
0000
0000
0000
0000
0000
0000
0000
0000
0000
0000
0000
0000
0000
0000
0000
0000
0000
0000
0000
0000
0000
0000
0000
0000
0000
0000
0000
0000
0000
0000
0000
0000
0000
0000
0000
0200
0003
0000
0000
0000
0000
0000
0000
0000
0000
0000
0000
0000
0000
0000
0000
0000
0000
0000
0000
0000
0000
0000
0000
0000
0000
0000
0000
0000
0000
0000
0000
0000
0000
0000
0000
0000
0000
0000
0000
0000
0000
0000
0000
0000
0000
0000
0000
0000
0301
0000
0000
0000
0000
0000
0000
0000
0000
0000
0000
0000
1000
0000
0000
0000
0000
0000
0000
0000
0000
0000
0000
0000
0001
0000
0000
0000
0000
0000
0000
0000
0000
0000
0000
0000
1000
0000
0000
0000
0000
0000
0000
0000
0000
0000
0000
0000
,
0001
0000
1000
M000
0001
0010
0001
0010
0001
0000
0100
0M00
0010
1000
0010
1000
,
0010
0000
0000
0000
0000
0000
0000
0000
0000
0000
0000
0000
0000
0000
0000
0000
0000
0000
0000
0000
0000
0000
0000
0000
1000
0000
0000
0000
0000
0000
0000
0000
0000
0000
0000
0000
M000
0000
0000
0000
0000
0000
0000
0000
0000
0000
0000
0000
0001
0000
0000
0000
0000
0000
0000
0000
0000
0000
0000
0000
0100
0000
0000
0000
0000
0000
0000
0000
0000
0000
0000
0000
0001
0000
0000
0000
0000
0000
0000
0000
0000
0000
0000
0000
0100
0000
0000
0000
0000
0000
0000
0000
0000
0000
0000
0000
0001
0000
0000
0000
0000
0000
0000
0000
0000
0000
0000
0000
0000
0000
0000
0000
0000
0000
0000
0000
0000
0000
0000
0000
1000
0000
0000
0000
0000
0000
0000
0000
0000
0000
0000
0000
M000
0000
0000
0000
0000
0000
0000
0000
0000
0000
0000
0000
0000
0001
0000
0000
0000
0000
0000
0000
0000
0000
0000
0000
0000
0000
0000
0000
0000
0000
0000
0000
0000
0000
0000
0000
0000
0001
0000
0000
0000
0000
0000
0000
0000
0000
0000
0000
0000
0000
0000
0000
0000
0000
0000
0000
0000
0000
0000
0000
,
0000
0001
0000
0000
0000
0000
0000
0000
0000
0000
0000
0000
0000
0000
0000
0000
0010
0000
0000
0000
0000
0000
0000
0000
0000
0000
0000
0000
0000
0000
0000
0000
0100
0000
0000
0000
0000
0000
0000
0000
0000
0000
0000
0000
0000
0000
0000
0000
0000
1000
0000
0000
0000
0000
0000
0000
0000
0000
0000
0000
0000
0000
0000
0000
0000
0000
0000
0000
0000
0000
0000
0000
0000
1000
0000
0000
0000
0000
0000
0000
0000
0000
0000
0000
0000
0000
0000
0000
0000
0000
0000
0000
0000
0000
0000
0000
0000
1000
0000
0000
0000
0000
0000
0000
0000
0000
0000
0000
0000
0000
0000
0000
0010
0000
0000
0000
0000
0000
0000
0000
0000
0000
0000
0000
0000
0000
0000
0000
0100
0000
0000
0000
0000
0000
0000
0000
0000
0000
0000
0000
0000
0000
0000
0000
0001
0000
0000
0000
0000
0000
0000
0000
0000
0000
0000
0000
1000
0000
0000
0000
0000
0000
0000
0000
0000
0000
0000
0000
0001
0000
0000
0000
0000
0000
0000
0000
0000
0000
0000
0000
1000
0000
0000
0000
0000
0000
0000
0000
0000
0000
0000
0000
,
0001
1000
0001
1000
0010
0100
0001
1000
0001
1000
0001
1000
0100
0010
0100
0010
,
0001
0010
0001
0010
0100
0010
0100
0010
0001
0010
0001
0010
0001
1000
0001
1000
,
0010
0000
0000
0000
0000
0000
0000
0000
0000
0000
0000
0000
0100
0000
0000
0000
0000
0000
0000
0000
0000
0000
0000
0000
0010
0000
0000
0000
0000
0000
0000
0000
0000
0000
0000
0000
1000
0000
0000
0000
0000
0000
0000
0000
0000
0000
0000
0000
0001
0000
0000
0000
0000
0000
0000
0000
0000
0000
0000
0000
1000
0000
0000
0000
0000
0000
0000
0000
0000
0000
0000
0000
0001
0000
0000
0000
0000
0000
0000
0000
0000
0000
0000
0000
1000
0000
0000
0000
0000
0000
0000
0000
0000
0000
0000
0000
0000
0100
0000
0000
0000
0000
0000
0000
0000
0000
0000
0000
0000
0000
0000
0000
0000
0000
0000
0000
0000
0000
0000
0000
0000
0010
0000
0000
0000
0000
0000
0000
0000
0000
0000
0000
0000
0000
0000
0000
0000
0000
0000
0000
0000
0000
0000
0000
0002
0000
0000
0000
0000
0000
0000
0000
0000
0000
0000
0000
0000
0000
0000
0000
0000
0000
0000
0000
0000
0000
0000
0000
2003
0000
0000
0000
0000
0000
0000
0000
0000
0000
0000
0000
0000
0000
0000
0000
0000
0000
0000
0000
0000
0000
0000
0000
,
3010
0100
0010
0100
0010
1000
0010
1000
0010
0100
0001
1000
0100
1000
0100
1000
,
0001
0000
0000
0010
0000
0000
0200
0000
0000
0000
0000
0000
M3MM
0000
0000
0M00
0000
0000
1000
0000
0010
0000
0100
0000
,
0001
0000
1000
0000
0100
0010
0001
0000
1000
0000
0001
0000
0100
0000
0010
0000
1000
0000
0001
0000
0010
0000
0001
0000
,
1000
0000
0100
0000
1000
0000
0001
0000
0100
0000
0010
0000
1010
0000
0000
1000
0000
0000
1002
0000
0000
0000
0000
0000
,
0000
0000
0000
0000
0000
0000
0000
0000
0013
0000
0000
0200
0000
0000
0000
0000
0000
0000
0000
0000
0000
0000
0000
0000
0000
0000
0000
0000
0000
0000
0000
0000
2300
0000
0000
0000
0000
0000
0000
0000
0000
0000
0000
0000
0000
0000
0000
0000
3001
0000
0000
0000
0100
0000
0000
0000
0001
0000
0000
0000
0100
0000
0000
0000
,
0001
0100
0001
0100
0001
1000
0001
1000
0001
1000
0001
1000
0200
0000
0000
0000
,
0300
0010
0000
0000
0000
0000
0000
0000
0000
0000
0000
0000
0000
0000
0000
0000
0000
0000
0000
0000
0000
0000
0000
0000
0002
0000
0000
0000
0000
0000
0000
0000
0000
0000
0000
0000
0000
0000
0000
0000
0000
0000
0000
0000
0000
0000
0000
0000
0000
0000
0000
0000
0000
0000
0000
0000
0000
0000
0000
0000
0000
0000
0000
0000
0000
0000
0000
0000
0000
0000
0000
0000
0003
1000
0000
0000
0000
0000
0000
0000
0000
0000
0000
0000
0000
0000
0000
0000
0000
0000
0000
0000
0000
0000
0000
0000
0010
0000
0000
0000
0000
0000
0000
0000
0000
0000
0000
0000
0000
0000
0000
0000
0000
0000
0000
0000
0000
0000
0000
0000
0000
0100
0000
0000
0000
0000
0000
0000
0000
0000
0000
0000
0000
0000
0000
0000
0000
0000
0000
0000
0000
0000
0000
0000
0002
0000
0000
0000
0000
0000
0000
0000
0000
0000
0000
0000
0000
0000
0000
0000
0000
0000
0000
0000
0000
0000
0000
0000
0000
0000
0000
0000
0000
0000
0000
0000
0000
0000
0000
0000
0000
0000
0000
0000
0000
0000
0000
0000
0000
0000
0000
0000
,
0003
1000
0000
0000
0000
0000
0000
0000
0000
0000
0000
0000
0000
0000
0000
0000
0000
0000
0000
0000
0000
0000
0000
0000
0200
0000
0000
0000
0000
0000
0000
0000
0000
0000
0000
0000
0000
0000
0000
0000
0000
0000
0000
0000
0000
0000
0000
0000
0000
0000
0000
0000
0000
0000
0000
0000
0000
0000
0000
0000
0000
0000
0000
0000
0000
0000
0000
0000
0000
0000
0000
0000
0300
0010
0000
0000
0000
0000
0000
0000
0000
0000
0000
0000
0000
0000
0000
0000
0000
0000
0000
0000
0000
0000
0000
0000
0001
0000
0000
0000
0000
0000
0000
0000
0000
0000
0000
0000
0000
0000
0000
0000
0000
0000
0000
0000
0000
0000
0000
0000
0000
1000
0000
0000
0000
0000
0000
0000
0000
0000
0000
0000
0000
0000
0000
0000
0000
0000
0000
0000
0000
0000
0000
0000
0010
0000
0000
0000
0000
0000
0000
0000
0000
0000
0000
0000
0000
0000
0000
0000
0000
0000
0000
0000
0000
0000
0000
0000
0100
0000
0000
0000
0000
0000
0000
0000
0000
0000
0000
0000
0000
0000
0000
0000
0000
0000
0000
0000
0000
0000
0000
0000
,
0000
0000
0000
0000
0000
0000
0000
0000
0000
0000
0000
0000
0000
0000
0000
0000
0000
0000
0000
0000
0000
0000
0000
0000
0000
0000
0000
0000
0000
0000
0000
0000
0002
0000
0000
0000
0000
0000
0000
0000
0000
0000
0000
0000
0000
0000
0000
0000
0000
0000
0000
0000
0000
0000
0000
0000
0000
0000
0000
0000
0000
0000
0000
0000
0000
0000
0000
0000
0000
0000
0000
0000
0003
1000
0000
0000
0000
0000
0000
0000
0000
0000
0000
0000
0000
0000
0000
0000
0000
0000
0000
0000
0000
0000
0000
0000
0200
0000
0000
0000
0000
0000
0000
0000
0000
0000
0000
0000
0000
0000
0000
0000
0000
0000
0000
0000
0000
0000
0000
0000
0000
0000
0000
0000
0000
0000
0000
0000
0000
0000
0000
0000
0000
0000
0000
0000
0000
0000
0000
0000
0000
0000
0000
0000
0320
0000
0000
0000
0000
0000
0000
0000
0000
0000
0000
0000
0000
0000
0000
0000
0000
0000
0000
0000
0000
0000
0000
0000
0000
0000
0000
0000
0000
0000
0000
0000
0000
0000
0000
0000
0000
0000
0000
0000
0000
0000
0000
0000
0000
0000
0000
0000
,
0030
0001
0000
0000
0000
0000
0000
0000
0000
0000
0000
0000
0000
0000
0000
0000
0000
0000
0000
0000
0000
0000
0000
0000
2000
0000
0000
0000
0000
0000
0000
0000
0000
0000
0000
0000
0000
0000
0000
0000
0000
0000
0000
0000
0000
0000
0000
0000
0000
0000
0000
0000
0000
0000
0000
0000
0000
0000
0000
0000
0000
0000
0000
0000
0000
0000
0000
0000
0000
0000
0000
0000
0000
0000
0000
0000
0000
0000
0000
0000
0000
0000
0000
0000
0000
0000
0000
0000
0000
0000
0000
0000
0000
0000
0000
0000
0000
0000
0000
0000
0000
0000
0000
0000
0000
0000
0000
0000
0000
0000
0000
0000
0000
0000
0000
0000
0000
0000
0000
0000
3000
0000
0000
0000
0000
0000
0000
0000
0000
0000
0000
0000
0000
0000
0000
0000
0000
0000
0000
0000
0000
0000
0000
0000
M002
0000
0000
0000
0000
0000
0000
0000
0000
0000
0000
0000
0000
0000
0000
0000
0000
0000
0000
0000
0000
0000
0000
0000
0000
0000
0000
0000
0000
0000
0000
0000
0000
0000
0000
0000
0000
0000
0000
0000
0000
0000
0000
0000
0000
0000
0000
0000
,
0000
1003
0200
0000
0320
0000
0034
0000
,
0000
0000
0000
0000
4000
0000
0000
0000
0000
0003
3000
0000
0001
1000
0100
0010
,
0001
1000
0010
0100
0001
1000
0100
1000
0001
0010
0100
1000
0010
0100
0001
0100
,
0010
1000
0001
0010
0100
1000
0001
0010
0001
1000
0010
1000
0100
0000
0010
0000
,
0001
0010
0001
0000
1000
0000
0001
0000
0100
0001
0100
0000
0101
0000
0001
0000
,
1000
0100
1000
0000
0001
0000
0010
0000
0100
0010
0100
0000
0110
0000
0010
0000
,
0001
1000
0001
0000
1000
0000
0010
0000
0100
0001
0100
0000
0101
0000
0001
0000
,
1000
0100
1000
0000
0001
0000
0010
0000
0100
1000
0100
0000
1100
0000
1000
0000
,
0001
1000
0001
0000
1000
0000
0001
0000
1000
0001
1000
0000
0001
0000
0100
0000
,
0001
0100
0001
0000
0100
0000
0001
0000
0100
0001
0100
0000
0001
0000
1000
0000
,
0100
1000
0100
0000
1000
0000
0100
0000
0010
0001
0010
0000
0100
0000
1000
0000
,
0001
0100
0001
0100
0001
0100
0001
0100
0001
0100
0001
0100
0001
0000
1000
0000
,
0100
1000
0100
0000
0010
0000
0001
0000
1000
0001
1000
0000
1001
0000
0001
0000
,
0100
0000
0010
1000
0010
0000
0100
0000
0001
1000
0001
0000
1001
0000
1000
0000
,
0001
0010
0001
0000
1000
0000
0100
0000
1000
0001
1000
0000
1001
0000
0001
0000
,
0100
0010
0100
0000
0010
0000
1000
0000
0001
0100
0001
0000
1001
0000
1000
0000
,
0100
1000
0100
0000
0010
0000
0001
0000
1000
0001
1000
0000
1001
0000
0001
0000
,
0010
0100
0010
0000
0100
0000
1000
0000
0001
0100
0001
0000
1001
0000
1000
0000
,
0001
1000
0001
0000
1000
0000
0001
0000
1000
0001
1000
0000
0001
0000
0010
0000
,
0400
1000
0000
1000
0000
1000
0000
1300
0001
0000
0100
0000
0010
1000
0001
0010
,
0100
1000
0001
0010
0001
1000
0100
1000
0010
0100
0001
0100
0001
1000
0100
1000
,
0001
0010
0100
1000
0001
0100
0010
0100
0001
1000
0100
1000
0001
0010
0100
1000
,
0010
1000
0001
0100
0001
1000
0100
0010
0001
1000
0001
0010
0100
1000
0100
1000
,
0100
1000
0100
1000
0001
1000
0001
1000
0001
1000
0001
1000
0010
0000
0000
0000
,
0000
0000
0000
0000
0000
0000
0000
0000
0000
0000
0000
0000
0000
0000
0000
0000
0100
0000
0000
0000
0000
0000
0000
0000
0000
0000
0000
0000
0000
0000
0000
0000
0000
0000
0000
0000
0000
0000
0000
0000
0000
0000
0000
0000
0000
0000
0000
0000
0000
0000
0000
0000
0000
0000
0101
0000
0000
0000
0000
0000
0000
0000
0000
0000
0000
0000
0000
0000
0000
0000
0000
0000
0000
0000
0000
0000
0000
0000
0000
0000
0000
0000
0000
0000
0001
0000
0000
0000
0000
0000
0000
0000
0000
0000
0000
0000
0000
0000
0000
0000
0000
0000
0000
0000
0000
0000
0000
0000
0000
0000
0000
0000
0000
0000
0000
0000
0000
0000
0000
0000
0000
0000
0000
0000
0000
0000
0000
0000
0000
0000
0000
0000
0000
0000
0000
0000
0000
0000
0000
0000
0000
0000
0000
0000
0000
0000
0000
0000
1001
0000
0000
0000
0000
0000
0000
0000
0000
0000
0000
0000
0000
0000
0000
0000
0000
0000
0000
0000
0000
0000
0000
0000
0000
0000
0000
0000
0000
0000
0000
0000
0000
0000
0000
0000
0000
0000
0000
0000
0000
0000
0000
0000
,
0000
0000
0000
0000
0000
0000
0000
0000
0000
0000
0000
0000
0000
0000
0000
0000
0000
0000
0000
0000
0000
0000
0000
0000
0000
0000
0000
0000
0000
0000
0000
0000
0000
0000
0000
0000
0000
0000
0000
0000
0000
0000
0000
0000
0000
0000
0000
1100
0000
0000
0000
0000
0000
0000
0000
0000
0000
0000
0000
0000
0000
0000
0000
0000
0000
0000
0000
0000
0000
0000
0000
0000
0000
0000
0000
0000
0000
0000
0000
0000
0000
0000
0000
0000
0000
0000
0000
0000
0000
0000
0000
0000
0000
0000
0000
0000
0000
0000
0000
0000
0000
0000
0000
0000
0000
0000
0000
0000
0000
0000
0000
0000
0000
0000
0100
0000
0000
0000
0000
0000
0000
0000
0000
0000
0000
0000
0000
0000
0000
0000
0000
0000
0000
0000
0000
0000
0000
0000
0000
0000
0000
0000
0000
0000
0000
0000
0000
0000
0000
0000
0000
0000
0000
0000
0000
0000
0000
0000
0000
0000
0000
0000
0010
0000
0000
0000
0000
0000
0000
0000
0000
0000
0000
0000
0000
0000
0000
0000
0000
0000
0000
0000
0000
0000
0000
0000
0000
0000
0000
0000
0000
0000
,
0000
0000
0000
0000
0000
0000
0000
0000
0011
0000
0000
0000
0000
0000
0000
0000
0000
0000
0000
0000
0000
0000
0000
0000
0000
0000
0000
0000
0000
0000
0000
0000
0000
0000
0000
0000
0000
0000
0000
0000
0000
0000
0000
0000
0000
0000
0000
0000
0000
0000
0000
0000
0000
0000
0000
0000
0001
0000
0000
0000
0000
0000
0000
0000
0000
0000
0000
0000
0000
0000
0000
0000
0000
0000
0000
0000
0000
0000
0000
0000
0000
0000
0000
0000
0000
0000
0000
0000
0000
0000
0000
0000
0000
0000
0000
0000
0000
0000
0000
1001
0000
0000
0000
0000
0000
0000
0000
0000
0000
0000
0000
0000
0000
0000
0000
0000
0000
0000
0000
0000
0000
0000
0000
0000
0000
0000
0000
0000
0000
0000
0000
0000
0000
0000
0000
0000
0000
0000
0000
0000
0000
0000
0000
0000
0000
0000
0000
0000
0000
0000
0000
0000
0000
0000
0000
0000
0000
0000
0000
0000
0000
0000
0000
0000
0000
0000
0000
0000
0000
0000
0000
0000
0000
0000
0000
0000
0000
0000
0000
0000
0000
0000
0000
0000
0000
0000
0000
0000
0000
0004
0000
0000
,
0000
4000
0000
0000
0000
0000
0000
0000
0000
0000
0000
0000
0000
0000
0000
0000
,
0000
0000
0000
0000
,
0000
0000
0000
0000
,
0000
0000
0000
0000
0000
0000
0000
0000
0000
0000
0000
0000
0000
0000
0000
0000
0000
0000
0000
0000
0000
0000
0000
0000
0000
0000
0000
0000
0000
0000
0000
0000
0000
0000
0000
0000
0000
0000
0000
0000
0000
0000
0000
0000
0000
0000
0000
0000
0000
0000
0000
0000
0000
0000
0000
0000
0000
0000
0000
0000
0000
0000
0000
0000
0000
0000
0000
0000
0000
0000
0000
0000
0000
0000
0000
0000
0000
0000
0000
0000
0000
0000
0000
0000
0000
0000
0000
0000
0000
0000
0000
0000
0000
0000
0000
0000
3MM3
0000
0000
0000
0000
0000
0000
0000
0000
0000
0000
0000
0000
0000
0000
0000
0000
0000
0000
0000
0000
0000
0000
0000
0000
0000
0000
0000
0000
0000
0110
0000
0000
0000
0000
0000
0000
0000
0000
0000
0000
0000
0000
0000
0000
0000
0000
0000
0000
0000
0000
0000
0000
0000
0000
0000
0000
0000
0000
0000
0000
0000
0000
0000
0000
0000
0000
0000
0000
0000
0000
0000
0000
0000
0000
0000
0000
0000
0000
0000
0000
0000
0000
0000
0000
0000
0000
0000
1001
0000
0000
0000
0000
0000
0000
0000
,
0000
0000
0000
0000
0001
0000
0000
0000
0000
0000
1000
0000
0000
0000
0000
0000
0000
1100
0000
0000
0000
0000
0000
0000
0000
0000
0000
0000
0000
0000
0100
0000
0000
0010
0000
0000
0001
0000
0000
1000
0000
0000
0001
0000
0000
0100
0000
0000
,
0010
1000
0001
1000
0100
1000
0001
0010
0100
1000
0001
0100
0001
1000
0010
0100
,
0010
0100
0001
1000
0001
0100
0010
1000
0001
0010
0001
1000
0001
0100
0010
1000
,
0100
1000
0100
0010
0001
1000
0001
1000
0001
1000
0001
1000
0001
1000
0001
1000
,
0001
0000
0000
0000
1000
0000
0000
0000
0001
0000
0000
1000
0000
0000
0001
0000
0000
1000
0000
0000
0001
0000
0000
1000
0000
0000
0000
0000
0010
0000
0000
0000
0100
0000
0000
0000
0000
0000
0000
0000
0000
0000
0000
0000
0000
0000
0000
0000
0000
0000
0000
0000
0000
0000
0000
0000
0000
0000
0000
0000
0000
0000
0000
0000
,
0000
0000
0000
0000
2002
0000
0000
0000
0000
0000
0000
0000
0000
0000
0000
3003
;
