#TITLE:Disturbia;
#SUBTITLE:Sexuality Violation;
#ARTIST:Rihanna;
#TITLETRANSLIT:;
#SUBTITLETRANSLIT:;
#ARTISTTRANSLIT:;
#CREDIT:;
#BANNER:Disturbia-bn.png;
#BACKGROUND:Disturbia-bg.png;
#LYRICSPATH:;
#CDTITLE:GazeboCD.png;
#MUSIC:Disturbia.ogg;
#OFFSET:-0.103;
#SAMPLESTART:63.211;
#SAMPLELENGTH:23.211;
#SELECTABLE:YES;
#BPMS:0.000=250.000;
#STOPS:;
#BGCHANGES:;
// cache tags:
#FIRSTBEAT:8.000;
#LASTBEAT:971.500;
#SONGFILENAME:Songs/Sexuality Violation 2/Disturbia - [Gazebo]/Disturbia.sm;
#HASMUSIC:1;
#HASBANNER:1;
#MUSICLENGTH:235.689;
// end cache tags

//---------------dance-single - Gazebo----------------
#NOTES:
     dance-single:
     Gazebo:
     Challenge:
     19:
     1.000,1.000,0.492,0.403,1.000,1853.000,116.000,95.000,12.000,0.000:
0000
0000
0000
0000
,
0000
0000
0000
0000
,
1001
0000
1001
0000
,
1010
1000
0100
1100
,
0000
1100
0000
0001
,
0011
0000
0101
0000
,
1001
0000
1001
0000
,
0011
0001
0100
0101
,
0000
0101
0000
1000
,
1010
0000
1100
1000
,
1001
0000
1001
0000
,
0101
0001
0010
0011
,
0000
0011
0000
1000
,
1100
0000
1010
0000
,
1001
0000
1001
0000
,
1100
1000
0010
1010
,
0000
1010
0000
0001
,
0101
0000
0011
0001
,
1000
0000
0001
0100
0010
0000
1000
0010
,
1000
0000
0001
1000
0100
0000
0010
0100
,
0010
0000
0000
0000
0000
0000
0000
0000
0000
0000
0000
0000
0000
0000
0000
0000
0002
0000
0000
0000
0000
0000
0000
0000
0000
0000
0000
0000
0000
0000
0000
0003
0002
0000
0000
0000
0000
0000
0000
0000
0000
0000
0000
0000
0000
0000
0000
0000
0203
0000
0000
0000
0000
0000
0000
0000
0000
0000
0000
0000
0000
0000
0000
0000
,
0320
1030
2000
3002
,
1003
0000
0001
0010
0100
0000
1000
0100
,
1000
0000
0001
1000
0010
0000
0100
0010
,
0100
0000
0000
0000
0000
0000
0000
0000
0000
0000
0000
0000
0000
0000
0000
0000
0002
0000
0000
0000
0000
0000
0000
0000
0000
0000
0000
0000
0000
0000
0000
0003
0002
0000
0000
0000
0000
0000
0000
0000
0000
0000
0000
0000
0000
0000
0000
0000
0023
0000
0000
0000
0000
0000
0000
0000
0000
0000
0000
0000
0000
0000
0000
0000
,
0230
1300
2000
3002
,
1003
0000
0001
0100
0010
0000
1000
0010
,
1000
0000
0001
1000
0100
0000
0010
0100
,
0010
0000
0000
0000
0000
0000
0000
0000
0000
0000
0000
0000
0000
0000
0000
0000
0002
0000
0000
0000
0000
0000
0000
0000
0000
0000
0000
0000
0000
0000
0000
0003
0002
0000
0000
0000
0000
0000
0000
0000
0000
0000
0000
0000
0000
0000
0000
0000
0203
0000
0000
0000
0000
0000
0000
0000
0000
0000
0000
0000
0000
0000
0000
0000
,
0320
1030
2000
3002
,
0013
0100
1100
1000
,
0001
0100
0110
0010
,
1000
0000
0000
0000
0100
0000
0000
0000
1100
0000
0000
0000
0001
1000
0001
0100
,
0010
1000
0001
0100
0010
1000
0001
1000
0100
0010
0001
1000
0100
0010
0001
1000
,
0001
0100
0001
1000
0010
1000
0100
0010
,
0001
1000
0100
1000
0001
1000
0010
0100
,
0001
1000
0010
1000
0100
1000
0010
0100
,
0001
1000
0001
0100
0010
0100
0001
1000
0001
1000
0100
0010
0001
0010
0100
1000
,
0001
0010
0001
1000
0100
1000
0010
0100
,
0001
1000
0010
1000
0001
1000
0100
0010
,
0001
1000
0100
1000
0010
1000
0100
0010
,
0001
1000
0001
0010
0100
0010
0001
1000
0001
1000
0010
0100
0001
0100
0010
1000
,
0001
0100
0001
1000
0010
1000
0100
0010
,
0001
1000
0100
1000
0001
1000
0010
0100
,
0001
1000
0100
1000
0010
1000
0100
0010
,
0001
1000
0001
0010
0100
0010
0001
1000
0010
1000
0001
0100
0001
0100
0010
1000
,
0001
0000
0101
0000
,
0001
0000
1001
1000
,
0001
0010
0011
2000
,
0000
0000
0000
0000
0000
0000
0000
0000
0000
0000
0000
0000
0000
0000
0000
0000
3020
0000
0000
0000
0000
0000
0000
0000
0000
0000
0000
0000
0000
0000
0000
0030
0020
0000
0000
0000
0000
0000
0000
0000
0000
0000
0000
0000
0000
0000
0000
0030
0020
0000
0000
0000
0000
0000
0000
0000
0000
0000
0000
0000
0000
0000
0000
0000
,
1030
0001
0100
0001
1000
0010
1000
0001
0010
0001
0010
0100
1000
0001
1000
0001
,
0010
0100
0010
0001
1000
0100
1000
0001
1000
0100
0010
0001
1000
0100
0010
0001
,
1000
0010
1000
0001
0100
0010
1000
0010
0100
0001
1000
0001
1000
0100
0010
0100
,
1000
0001
1000
0001
0100
0010
0100
0001
1000
0010
1000
0010
0100
0001
0100
0001
,
1000
0100
0010
0001
1000
0100
1000
0001
0100
0001
0100
0010
1000
0001
1000
0001
,
0100
0010
0100
0001
1000
0010
1000
0001
1000
0010
0100
0001
1000
0010
0100
0001
,
1000
0100
1000
0001
0010
0100
1000
0100
0010
0001
1000
0001
1000
0010
0100
0010
,
1000
0001
1000
0001
0010
0100
0010
0001
1000
0100
1000
0100
0010
0001
0010
0001
,
1000
0010
0100
0001
1000
0010
1000
0001
0010
0001
0010
0100
1000
0001
1000
0001
,
0010
0100
0010
0001
1000
0100
1000
0001
1000
0100
0010
0001
1000
0100
0010
0001
,
1000
0010
1000
0001
0100
0010
1000
0010
0100
0001
1000
0001
1000
0100
0010
0100
,
1000
0001
1000
0001
0100
0010
0100
0001
1000
0010
1000
0010
0100
0001
0100
0001
,
1000
0010
1000
0001
0100
0001
1000
0010
0100
0010
1000
0001
1000
0001
0010
0100
,
1000
0001
0010
0001
1000
0100
0010
0001
1000
0010
1000
0001
0100
0001
1000
0001
,
1000
0010
0100
0001
0100
0010
1000
0001
1000
0001
0100
0001
1000
0100
0010
0100
,
1000
0001
1000
0001
0010
0100
0010
0001
1000
0100
1000
0100
0010
0001
0010
0001
,
1000
0100
0010
0001
1000
0100
0010
0001
2000
0000
0000
0000
0001
0000
0000
0000
,
3001
0100
0100
0100
,
0020
1030
0002
0023
,
0130
2000
3001
0100
,
0001
0100
0010
1000
0001
0100
0010
1000
0002
0000
0000
0000
1000
0000
0000
0000
,
1003
0100
0100
0100
,
0020
0031
2000
3020
,
0130
0002
1003
0100
,
1000
0100
0010
0001
1000
0100
0010
0001
2000
0000
0000
0000
0001
0000
0000
0000
,
3001
0100
0100
0100
,
0020
1030
0002
0023
,
0130
2000
3001
0100
,
0001
0100
0010
1000
0001
0100
0010
1000
0002
0000
0000
0000
1000
0000
0000
0000
,
1003
0100
0011
0001
,
1000
0100
0010
0001
1000
0100
0010
0001
1000
0100
1000
0001
0100
0001
1000
0100
,
1000
0001
0010
0001
0010
0100
1000
0001
1000
0000
0000
0000
1000
0000
0000
0000
,
1001
0000
1001
0000
,
0101
0001
0010
0011
,
0000
0011
0000
1000
,
1100
0000
1010
0000
,
1001
0000
1001
0000
,
1100
1000
0010
1010
,
0000
1010
0000
0001
,
0101
0000
0011
0001
,
1001
0000
1001
0000
,
1010
1000
0100
1100
,
0000
1100
0000
0001
,
0011
0000
0101
0000
,
1001
0000
1001
0000
,
0011
0001
0100
0101
,
0000
0101
0000
1000
,
1010
1000
1100
1000
,
0001
0000
1000
0010
0100
0000
0001
0100
,
0001
0000
1000
0001
0010
0000
0100
0010
,
0100
0000
0000
0000
0000
0000
0000
0000
0000
0000
0000
0000
0000
0000
0000
0000
2000
0000
0000
0000
0000
0000
0000
0000
0000
0000
0000
0000
0000
0000
0000
3000
2000
0000
0000
0000
0000
0000
0000
0000
0000
0000
0000
0000
0000
0000
0000
0000
3020
0000
0000
0000
0000
0000
0000
0000
0000
0000
0000
0000
0000
0000
0000
0000
,
0230
0301
0002
2003
,
3001
0000
1000
0100
0010
0000
0001
0010
,
0001
0000
1000
0001
0100
0000
0010
0100
,
0010
2000
3200
0320
,
0032
0000
0000
0000
0000
0000
0000
0000
0000
0000
0000
0000
0000
0000
0000
0000
2003
0000
0000
0000
0000
0000
0000
0000
0000
0000
0000
0000
0000
0000
0000
3000
2000
0000
0000
0000
0000
0000
0000
0000
0000
0000
0000
0000
0000
0000
0000
3000
2000
0000
0000
0000
0000
0000
0000
0000
0000
0000
0000
0000
0000
0000
0000
0000
,
3001
0000
1000
0010
0100
0000
0001
0100
,
0001
0000
1000
0001
0010
0000
0100
0010
,
0100
0000
1000
0001
0100
0000
0010
1000
,
0010
0000
0100
0001
1000
0000
0001
0000
,
0010
0100
1100
1000
,
0001
0100
0110
0010
,
1000
0000
0000
0000
0100
0000
0000
0000
1100
0000
0000
0000
1000
0001
1000
0100
,
0010
0001
1000
0100
1000
0001
0100
0001
1000
0010
0100
0001
0100
0010
1000
0001
,
1000
0010
1000
0001
0100
0001
0010
0100
,
1000
0001
0010
0001
1000
0001
0100
0010
,
1000
0001
0100
0001
0010
0001
0100
0010
,
1000
0001
1000
0010
0100
0010
1000
0001
1000
0001
0010
0100
1000
0100
0010
0001
,
1000
0100
1000
0001
0010
0001
0100
0010
,
1000
0001
0100
0001
1000
0001
0010
0100
,
1000
0001
0010
0001
0100
0001
0010
0100
,
1000
0001
1000
0100
0010
0100
1000
0001
1000
0001
0100
0010
1000
0010
0100
0001
,
1000
0010
1000
0001
0100
0001
0010
0100
,
1000
0001
0010
0001
1000
0001
0100
0010
,
1000
0001
0010
0001
0100
0001
0010
0100
,
1000
0001
1000
0100
0010
0100
1000
0001
0100
0001
1000
0001
1000
0100
0010
0001
,
1000
0000
0011
0000
,
0001
0000
1001
0001
,
1000
0010
1010
0002
,
0000
0000
0000
0000
0000
0000
0000
0000
0000
0000
0000
0000
0000
0000
0000
0000
0023
0000
0000
0000
0000
0000
0000
0000
0000
0000
0000
0000
0000
0000
0000
0030
0020
0000
0000
0000
0000
0000
0000
0000
0000
0000
0000
0000
0000
0000
0000
0030
0020
0000
0000
0000
0000
0000
0000
0000
0000
0000
0000
0000
0000
0000
0000
0000
,
0031
1000
0100
1000
0001
0010
0001
1000
0010
1000
0010
0100
0001
1000
0001
1000
,
0010
0100
0010
1000
0001
0100
0001
1000
0001
0100
0010
1000
0001
0100
0010
1000
,
0001
0010
0001
1000
0100
0010
0001
0010
0100
1000
0001
1000
0001
0100
0010
0100
,
0001
1000
0001
1000
0100
0010
0100
1000
0001
0010
0001
0010
0100
1000
0100
1000
,
0001
0100
0010
1000
0001
0100
0001
1000
0100
1000
0100
0010
0001
1000
0001
1000
,
0100
0010
0100
1000
0001
0010
0001
1000
0001
0010
0100
1000
0001
0010
0100
1000
,
0001
0100
0001
1000
0010
0100
0001
0100
0010
1000
0001
1000
0001
0010
0100
0010
,
0001
1000
0001
1000
0010
0100
0010
1000
0001
0100
0001
0100
0010
1000
0010
1000
,
0001
0010
0100
1000
0001
0010
0001
1000
0010
1000
0010
0100
0001
1000
0001
1000
,
0010
0100
0010
1000
0001
0100
0001
1000
0001
0100
0010
1000
0001
0100
0010
1000
,
0001
0010
0001
1000
0100
0010
0001
0010
0100
1000
0001
1000
0001
0100
0010
0100
,
0001
1000
0001
1000
0100
0010
0100
1000
0001
0010
0001
0010
0100
1000
0100
1000
,
0001
0010
0001
1000
0100
1000
0001
0010
0100
0010
0001
1000
0001
1000
0010
0100
,
0001
1000
0010
1000
0001
0100
0010
1000
0001
0010
0001
1000
0100
1000
0001
1000
,
0001
0010
0100
1000
0100
0010
0001
1000
0001
1000
0100
1000
0001
0100
0010
0100
,
0001
1000
0001
1000
0010
0100
0010
1000
0001
0100
0001
0100
0010
1000
0010
1000
,
0001
0100
0010
1000
0001
0100
0010
1000
0002
0000
0000
0000
1000
0000
0000
0000
,
1003
0100
0100
0100
,
0020
0031
2000
3020
,
0130
0002
1003
0100
,
1000
0100
0010
0001
1000
0100
0010
0001
2000
0000
0000
0000
0001
0000
0000
0000
,
3001
0100
0100
0100
,
0020
1030
0002
0023
,
0130
2000
3001
0100
,
0001
0100
0010
1000
0001
0100
0010
1000
0002
0000
0000
0000
1000
0000
0000
0000
,
1003
0100
0100
0100
,
0020
0031
2000
3020
,
0130
0002
1003
0100
,
1000
0100
0010
0001
1000
0100
0010
0001
2000
0000
0000
0000
0001
0000
0000
0000
,
3001
0100
1010
1000
,
0001
0100
0010
1000
0001
0100
0010
1000
0001
0100
0001
1000
0100
1000
0001
0100
,
0001
1000
0010
1000
0010
0100
0001
1000
0001
0000
0000
0000
0001
0000
0000
0000
,
1001
0000
1001
0000
,
1010
1000
0100
1100
,
0000
1100
0000
0001
,
0011
0000
0101
0000
,
1001
0000
1001
0000
,
0011
0001
0100
0101
,
0000
0101
0000
1000
,
1010
0000
1100
1000
,
1001
0000
1001
0000
,
0101
0001
0010
0011
,
0000
0011
0000
1000
,
1100
0000
1010
0000
,
1001
0000
1001
0000
,
1100
1000
0010
1010
,
0000
1010
0000
0001
,
0101
0001
0011
0001
,
1000
0000
0010
0100
0010
0000
1000
0100
,
1000
0000
0001
1000
0001
0000
0100
0001
,
0100
0000
0001
0010
0001
0000
1000
0100
,
0010
0001
0010
0001
1000
0000
0010
0100
,
0001
0000
0100
0010
1000
0000
0001
1000
,
0001
0000
1000
0100
0010
0000
0001
0100
,
0001
0000
1000
0010
0100
0000
0001
1000
,
0001
0000
0010
0100
1000
0000
1000
0000
,
0001
0100
0001
0100
0001
0000
1000
0100
,
0010
0001
0010
0001
1000
0000
0001
0100
,
0010
0000
0100
0010
1000
0000
0001
0010
,
0001
0000
1000
0100
1000
0000
0001
1000
,
0010
0100
0101
0001
,
1000
0100
0110
0040
,
0000
0034
0000
4003
,
0000
0000
0000
0000
0000
0000
0000
0000
0000
0000
0000
0000
0000
0000
0000
0000
3020
0000
0000
0000
0000
0000
0000
0000
0000
0000
0000
0000
0000
0000
0000
0030
0020
0000
0000
0000
0000
0000
0000
0000
0000
0000
0000
0000
0000
0000
0000
0030
0020
0000
0000
0000
0000
0000
0000
0000
0000
0000
0000
0000
0000
0000
0000
0000
,
1030
0001
0100
0001
1000
0010
1000
0001
0010
0001
0010
0100
1000
0001
1000
0001
,
0010
0100
0010
0001
1000
0100
0010
0001
1000
0100
1000
0100
0010
0001
1000
0001
,
1000
0010
0100
0001
0100
0001
1000
0010
1000
0001
0010
0001
1000
0100
0010
0100
,
1000
0001
1000
0001
0100
0010
0100
0001
1000
0010
1000
0010
0100
0001
0100
0001
,
1000
0100
1000
0001
0010
0100
1000
0001
0100
0001
0100
0010
1000
0001
1000
0001
,
0100
0010
0100
0001
1000
0010
0100
0001
1000
0010
1000
0010
0100
0001
1000
0001
,
1000
0100
0010
0001
0010
0001
1000
0100
1000
0001
0010
0001
1000
0001
0100
0010
,
1000
0010
1000
0001
0010
0100
0010
0001
1000
0100
1000
0100
0010
0001
0010
0001
,
1000
0001
0100
0001
1000
0010
1000
0001
0010
0001
0010
0100
1000
0001
1000
0001
,
0010
0100
0010
0001
1000
0100
0010
0001
1000
0100
1000
0100
0010
0001
1000
0001
,
1000
0010
0100
0001
0100
0001
1000
0010
1000
0001
0010
0001
1000
0100
0010
0100
,
1000
0001
1000
0001
0100
0010
0100
0001
1000
0010
1000
0010
0100
0001
0100
0001
,
1000
0010
1000
0001
0100
0010
1000
0001
0100
0001
0100
0010
1000
0001
1000
0001
,
0010
0100
0010
0001
1000
0100
0010
0001
1000
0100
1000
0100
0010
0001
1000
0001
,
1000
0010
0100
0001
0100
0001
1000
0010
1000
0001
0100
0001
1000
0001
0010
0100
,
1000
0001
1000
0001
0010
0100
0010
0001
1000
0100
1000
0100
0010
0001
0010
0001
,
1000
0100
0010
0001
1000
0100
0010
0001
2000
0000
0000
0000
0001
0000
0000
0000
,
3001
0100
0100
0100
,
0020
1030
0002
0023
,
0130
2000
3001
0100
,
0001
0100
0010
1000
0001
0100
0010
1000
0002
0000
0000
0000
1000
0000
0000
0000
,
1003
0100
0100
0100
,
0020
0031
2000
3020
,
0130
0002
1003
0100
,
1000
0100
0010
0001
1000
0100
0010
0001
2000
0000
0000
0000
0001
0000
0000
0000
,
3001
0100
0100
0100
,
0020
1030
0002
0023
,
0130
2000
3001
0100
,
0001
0100
0010
1000
0001
0100
0010
1000
0002
0000
0000
0000
1000
0000
0000
0000
,
1003
0100
0011
0001
,
1000
0100
0010
0001
1000
0100
0010
0001
1000
0100
1000
0001
0100
0001
1000
0100
,
1000
0001
0010
0001
0010
0100
1000
0001
1000
0000
0000
0000
1000
0000
0000
0000
,
0001
1000
0001
0010
0100
1000
0010
0100
,
0001
0000
1000
0000
0001
0000
0010
0000
0100
0000
1000
0000
0100
0000
1000
0001
,
1000
0010
0100
0010
1000
0001
1000
0100
,
1000
0000
0010
0000
1000
0000
0002
0003
0020
0030
0200
0300
2000
3000
0002
0003
,
0100
0010
1000
0010
0100
0001
1000
0100
,
0010
0000
0100
0000
1000
0000
0001
0000
0100
0000
0010
0000
1000
0001
1000
0001
,
1000
0100
0010
0100
1000
0001
1000
0010
,
0100
0000
0010
0000
0100
0000
0001
0000
0100
0000
0010
0000
1000
0001
1000
0001
,
1000
0000
0101
0000
0110
0000
0010
1000
,
0100
0000
1100
0000
1100
0000
0100
0010
,
0001
0000
0011
0000
0101
0000
0100
0010
,
1000
0000
0000
0000
1100
0000
0000
0000
1001
0000
0000
0000
0001
0100
0001
0100
,
0001
0000
0101
0000
0110
0000
0010
1000
,
0100
0000
1100
0000
1001
0000
0001
0010
,
0100
0000
0110
0000
1100
0000
0001
0100
,
0040
0030
4000
3000
0400
0300
0040
0030
0004
0003
0000
0000
M000
0000
00M0
0000
,
0M00
000M
M000
00M0
0M00
000M
0000
MMMM
;

//---------------dance-single - Gazebo----------------
#NOTES:
     dance-single:
     Gazebo:
     Hard:
     17:
     1.000,1.000,0.492,0.429,0.883,1652.000,116.000,101.000,12.000,0.000:
0000
0000
0000
0000
,
0000
0000
0000
0000
,
1001
0000
1001
0000
,
1010
1000
0100
1100
,
0000
1100
0000
0001
,
0011
0000
0101
0000
,
1001
0000
1001
0000
,
0011
0001
0100
0101
,
0000
0101
0000
1000
,
1010
0000
1100
1000
,
1001
0000
1001
0000
,
0101
0001
0010
0011
,
0000
0011
0000
1000
,
1100
0000
1010
0000
,
1001
0000
1001
0000
,
1100
1000
0010
1010
,
0000
1010
0000
0001
,
0101
0000
0011
0001
,
1000
0000
0001
0100
0010
0000
1000
0010
,
1000
0000
0001
1000
0100
0000
0010
0100
,
0010
0000
0000
0000
0000
0000
0000
0000
0000
0000
0000
0000
0000
0000
0000
0000
0002
0000
0000
0000
0000
0000
0000
0000
0000
0000
0000
0000
0000
0000
0000
0003
0002
0000
0000
0000
0000
0000
0000
0000
0000
0000
0000
0000
0000
0000
0000
0000
0203
0000
0000
0000
0000
0000
0000
0000
0000
0000
0000
0000
0000
0000
0000
0000
,
0320
1030
2000
3002
,
1003
0000
0001
0010
0100
0000
1000
0100
,
1000
0000
0001
1000
0010
0000
0100
0010
,
0100
0000
0000
0000
0000
0000
0000
0000
0000
0000
0000
0000
0000
0000
0000
0000
0002
0000
0000
0000
0000
0000
0000
0000
0000
0000
0000
0000
0000
0000
0000
0003
0002
0000
0000
0000
0000
0000
0000
0000
0000
0000
0000
0000
0000
0000
0000
0000
0023
0000
0000
0000
0000
0000
0000
0000
0000
0000
0000
0000
0000
0000
0000
0000
,
0230
1300
2000
3002
,
1003
0000
0001
0100
0010
0000
1000
0010
,
1000
0000
0001
1000
0100
0000
0010
0100
,
0010
0000
0000
0000
0000
0000
0000
0000
0000
0000
0000
0000
0000
0000
0000
0000
0002
0000
0000
0000
0000
0000
0000
0000
0000
0000
0000
0000
0000
0000
0000
0003
0002
0000
0000
0000
0000
0000
0000
0000
0000
0000
0000
0000
0000
0000
0000
0000
0203
0000
0000
0000
0000
0000
0000
0000
0000
0000
0000
0000
0000
0000
0000
0000
,
0320
1030
2000
3002
,
0013
0100
1100
1000
,
0001
0100
0110
0010
,
1000
0000
0000
0000
0100
0000
0000
0000
1100
0000
0000
0000
0001
1000
0001
0100
,
0010
1000
0001
0100
0010
1000
0001
1000
0100
0010
0001
1000
0100
0010
0001
1000
,
0001
0100
0001
1000
0010
1000
0100
0010
,
0001
1000
0100
1000
0001
1000
0010
0100
,
0001
1000
0010
1000
0100
1000
0010
0100
,
0001
1000
0001
0100
0010
0100
0001
1000
0001
1000
0100
0010
0001
0010
0100
1000
,
0001
0010
0001
1000
0100
1000
0010
0100
,
0001
1000
0010
1000
0001
1000
0100
0010
,
0001
1000
0100
1000
0010
1000
0100
0010
,
0001
1000
0001
0010
0100
0010
0001
1000
0001
1000
0010
0100
0001
0100
0010
1000
,
0001
0100
0001
1000
0010
1000
0100
0010
,
0001
1000
0100
1000
0001
1000
0010
0100
,
0001
1000
0100
1000
0010
1000
0100
0010
,
0001
1000
0001
0010
0100
0010
0001
1000
0010
1000
0001
0100
0001
0100
0010
1000
,
0001
0000
0101
0000
,
0001
0000
1001
1000
,
0001
0010
0011
2000
,
0000
0000
0000
0000
0000
0000
0000
0000
0000
0000
0000
0000
0000
0000
0000
0000
3020
0000
0000
0000
0000
0000
0000
0000
0000
0000
0000
0000
0000
0000
0000
0030
0020
0000
0000
0000
0000
0000
0000
0000
0000
0000
0000
0000
0000
0000
0000
0030
0020
0000
0000
0000
0000
0000
0000
0000
0000
0000
0000
0000
0000
0000
0000
0000
,
1030
0001
0100
0001
1000
0010
1000
0001
0010
0001
0010
0100
1000
0001
1000
0001
,
0010
0100
0010
0001
1000
0100
1000
0001
1000
0100
0010
0001
1000
0100
0010
0001
,
1000
0010
1000
0001
0100
0010
1000
0010
0100
0001
1000
0001
1000
0100
0010
0100
,
1000
0001
1000
0001
0100
0010
0100
0001
1000
0000
0000
0000
1000
0000
0000
0000
,
0001
0010
0100
1000
0001
0010
0001
1000
0010
1000
0010
0100
0001
1000
0001
1000
,
0010
0100
0010
1000
0001
0100
0001
1000
0001
0100
0010
1000
0001
0100
0010
1000
,
0001
0010
0001
1000
0100
0010
0001
0010
0100
1000
0001
1000
0001
0100
0010
0100
,
0001
1000
0001
1000
0100
0010
0100
1000
0001
0000
0000
0000
0001
0000
0000
0000
,
1000
0010
0100
0001
1000
0010
1000
0001
0010
0001
0010
0100
1000
0001
1000
0001
,
0010
0100
0010
0001
1000
0100
1000
0001
1000
0100
0010
0001
1000
0100
0010
0001
,
1000
0010
1000
0001
0100
0010
1000
0010
0100
0001
1000
0001
1000
0100
0010
0100
,
1000
0001
1000
0001
0100
0010
0100
0001
1000
0000
0000
0000
0001
0000
0000
0000
,
0001
0001
0001
0020
,
0100
0031
1000
2000
,
0010
0000
3001
0100
,
0001
1000
0001
0001
,
1000
0100
0010
0001
1000
0100
0010
0001
2000
0000
0000
0000
0001
0000
0000
0000
,
3001
0100
0100
0100
,
0020
1030
0002
0023
,
0130
2000
3001
0100
,
0001
0100
0010
1000
0001
0100
0010
1000
0002
0000
0000
0000
1000
0000
0000
0000
,
1003
0100
0100
0100
,
0020
0031
2000
3020
,
0130
0002
1003
0100
,
1000
0100
0010
0001
1000
0100
0010
0001
2000
0000
0000
0000
0001
0000
0000
0000
,
3001
0100
0100
0100
,
0020
1030
0002
0023
,
0130
2000
3001
0100
,
0001
0100
0010
1000
0001
0100
0010
1000
0002
0000
0000
0000
1000
0000
0000
0000
,
1003
0100
0011
0001
,
1000
0100
0010
0001
1000
0100
0010
0001
1000
0100
1000
0001
0100
0001
1000
0100
,
1000
0001
0010
0001
0010
0100
1000
0001
1000
0000
0000
0000
1000
0000
0000
0000
,
1001
0000
1001
0000
,
0101
0001
0010
0011
,
0000
0011
0000
1000
,
1100
0000
1010
0000
,
1001
0000
1001
0000
,
1100
1000
0010
1010
,
0000
1010
0000
0001
,
0101
0000
0011
0001
,
1001
0000
1001
0000
,
1010
1000
0100
1100
,
0000
1100
0000
0001
,
0011
0000
0101
0000
,
1001
0000
1001
0000
,
0011
0001
0100
0101
,
0000
0101
0000
1000
,
1010
1000
1100
1000
,
0001
0000
1000
0010
0100
0000
0001
0100
,
0001
0000
1000
0001
0010
0000
0100
0010
,
0100
0000
0000
0000
0000
0000
0000
0000
0000
0000
0000
0000
0000
0000
0000
0000
2000
0000
0000
0000
0000
0000
0000
0000
0000
0000
0000
0000
0000
0000
0000
3000
2000
0000
0000
0000
0000
0000
0000
0000
0000
0000
0000
0000
0000
0000
0000
0000
3020
0000
0000
0000
0000
0000
0000
0000
0000
0000
0000
0000
0000
0000
0000
0000
,
0230
0301
0002
2003
,
3001
0000
1000
0100
0010
0000
0001
0010
,
0001
0000
1000
0001
0100
0000
0010
0100
,
0010
2000
3200
0320
,
0032
0000
0000
0000
0000
0000
0000
0000
0000
0000
0000
0000
0000
0000
0000
0000
2003
0000
0000
0000
0000
0000
0000
0000
0000
0000
0000
0000
0000
0000
0000
3000
2000
0000
0000
0000
0000
0000
0000
0000
0000
0000
0000
0000
0000
0000
0000
3000
2000
0000
0000
0000
0000
0000
0000
0000
0000
0000
0000
0000
0000
0000
0000
0000
,
3001
0000
1000
0010
0100
0000
0001
0100
,
0001
0000
1000
0001
0010
0000
0100
0010
,
0100
0000
1000
0001
0100
0000
0010
1000
,
0010
0000
0100
0001
1000
0000
0001
0000
,
0010
0100
1100
1000
,
0001
0100
0110
0010
,
1000
0000
0000
0000
0100
0000
0000
0000
1100
0000
0000
0000
1000
0001
1000
0100
,
0010
0001
1000
0100
1000
0001
0100
0001
1000
0010
0100
0001
0100
0010
1000
0001
,
1000
0010
1000
0001
0100
0001
0010
0100
,
1000
0001
0010
0001
1000
0001
0100
0010
,
1000
0001
0100
0001
0010
0001
0100
0010
,
1000
0001
1000
0010
0100
0010
1000
0001
1000
0001
0010
0100
1000
0100
0010
0001
,
1000
0100
1000
0001
0010
0001
0100
0010
,
1000
0001
0100
0001
1000
0001
0010
0100
,
1000
0001
0010
0001
0100
0001
0010
0100
,
1000
0001
1000
0100
0010
0100
1000
0001
1000
0001
0100
0010
1000
0010
0100
0001
,
1000
0010
1000
0001
0100
0001
0010
0100
,
1000
0001
0010
0001
1000
0001
0100
0010
,
1000
0001
0010
0001
0100
0001
0010
0100
,
1000
0001
1000
0100
0010
0100
1000
0001
0100
0001
1000
0001
1000
0100
0010
0001
,
1000
0000
0011
0000
,
0001
0000
1001
0001
,
1000
0010
1010
0002
,
0000
0000
0000
0000
0000
0000
0000
0000
0000
0000
0000
0000
0000
0000
0000
0000
0023
0000
0000
0000
0000
0000
0000
0000
0000
0000
0000
0000
0000
0000
0000
0030
0020
0000
0000
0000
0000
0000
0000
0000
0000
0000
0000
0000
0000
0000
0000
0030
0020
0000
0000
0000
0000
0000
0000
0000
0000
0000
0000
0000
0000
0000
0000
0000
,
0031
1000
0100
1000
0001
0010
0001
1000
0010
1000
0010
0100
0001
1000
0001
1000
,
0010
0100
0010
1000
0001
0100
0001
1000
0001
0100
0010
1000
0001
0100
0010
1000
,
0001
0010
0001
1000
0100
0010
0001
0010
0100
1000
0001
1000
0001
0100
0010
0100
,
0001
1000
0001
1000
0100
0010
0100
1000
0001
0000
0000
0000
0001
0000
0000
0000
,
1000
0010
0100
0001
1000
0010
1000
0001
0010
0001
0010
0100
1000
0001
1000
0001
,
0010
0100
0010
0001
1000
0100
1000
0001
1000
0100
0010
0001
1000
0100
0010
0001
,
1000
0010
1000
0001
0100
0010
1000
0010
0100
0001
1000
0001
1000
0100
0010
0100
,
1000
0001
1000
0001
0100
0010
0100
0001
1000
0000
0000
0000
1000
0000
0000
0000
,
0001
0010
0100
1000
0001
0010
0001
1000
0010
1000
0010
0100
0001
1000
0001
1000
,
0010
0100
0010
1000
0001
0100
0001
1000
0001
0100
0010
1000
0001
0100
0010
1000
,
0001
0010
0001
1000
0100
0010
0001
0010
0100
1000
0001
1000
0001
0100
0010
0100
,
0001
1000
0001
1000
0100
0010
0100
1000
0001
0000
0000
0000
1000
0000
0000
0000
,
1000
1000
1000
0020
,
0100
1030
0001
0002
,
0010
0000
1003
0100
,
1000
0001
1000
1000
,
0001
0100
0010
1000
0001
0100
0010
1000
0002
0000
0000
0000
1000
0000
0000
0000
,
1003
0100
0100
0100
,
0020
0031
2000
3020
,
0130
0002
1003
0100
,
1000
0100
0010
0001
1000
0100
0010
0001
2000
0000
0000
0000
0001
0000
0000
0000
,
3001
0100
0100
0100
,
0020
1030
0002
0023
,
0130
2000
3001
0100
,
0001
0100
0010
1000
0001
0100
0010
1000
0002
0000
0000
0000
1000
0000
0000
0000
,
1003
0100
0100
0100
,
0020
0031
2000
3020
,
0130
0002
1003
0100
,
1000
0100
0010
0001
1000
0100
0010
0001
2000
0000
0000
0000
0001
0000
0000
0000
,
3001
0100
1010
1000
,
0001
0100
0010
1000
0001
0100
0010
1000
0001
0100
0001
1000
0100
1000
0001
0100
,
0001
1000
0010
1000
0010
0100
0001
1000
0001
0000
0000
0000
0001
0000
0000
0000
,
1001
0000
1001
0000
,
1010
1000
0100
1100
,
0000
1100
0000
0001
,
0011
0000
0101
0000
,
1001
0000
1001
0000
,
0011
0001
0100
0101
,
0000
0101
0000
1000
,
1010
0000
1100
1000
,
1001
0000
1001
0000
,
0101
0001
0010
0011
,
0000
0011
0000
1000
,
1100
0000
1010
0000
,
1001
0000
1001
0000
,
1100
1000
0010
1010
,
0000
1010
0000
0001
,
0101
0001
0011
0001
,
1000
0000
0010
0100
0010
0000
1000
0100
,
1000
0000
0001
1000
0001
0000
0100
0001
,
0100
0000
0001
0010
0001
0000
1000
0100
,
0010
0001
0010
0001
1000
0000
0010
0100
,
0001
0000
0100
0010
1000
0000
0001
1000
,
0001
0000
1000
0100
0010
0000
0001
0100
,
0001
0000
1000
0010
0100
0000
0001
1000
,
0001
0000
0010
0100
1000
0000
1000
0000
,
0001
0100
0001
0100
0001
0000
1000
0100
,
0010
0001
0010
0001
1000
0000
0001
0100
,
0010
0000
0100
0010
1000
0000
0001
0010
,
0001
0000
1000
0100
1000
0000
0001
1000
,
0010
0100
0101
0001
,
1000
0100
0110
0040
,
0000
0034
0000
4003
,
0000
0000
0000
0000
0000
0000
0000
0000
0000
0000
0000
0000
0000
0000
0000
0000
3020
0000
0000
0000
0000
0000
0000
0000
0000
0000
0000
0000
0000
0000
0000
0030
0020
0000
0000
0000
0000
0000
0000
0000
0000
0000
0000
0000
0000
0000
0000
0030
0020
0000
0000
0000
0000
0000
0000
0000
0000
0000
0000
0000
0000
0000
0000
0000
,
1030
0001
0100
0001
1000
0010
1000
0001
0010
0001
0010
0100
1000
0001
1000
0001
,
0010
0100
0010
0001
1000
0100
1000
0001
1000
0100
0010
0001
1000
0100
0010
0001
,
1000
0010
1000
0001
0100
0010
1000
0010
0100
0001
1000
0001
1000
0100
0010
0100
,
1000
0001
1000
0001
0100
0010
0100
0001
1000
0000
0000
0000
1000
0000
0000
0000
,
0001
0010
0100
1000
0001
0010
0001
1000
0010
1000
0010
0100
0001
1000
0001
1000
,
0010
0100
0010
1000
0001
0100
0001
1000
0001
0100
0010
1000
0001
0100
0010
1000
,
0001
0010
0001
1000
0100
0010
0001
0010
0100
1000
0001
1000
0001
0100
0010
0100
,
0001
1000
0001
1000
0100
0010
0100
1000
0001
0000
0000
0000
0001
0000
0000
0000
,
1000
0010
0100
0001
1000
0010
1000
0001
0010
0001
0010
0100
1000
0001
1000
0001
,
0010
0100
0010
0001
1000
0100
1000
0001
1000
0100
0010
0001
1000
0100
0010
0001
,
1000
0010
1000
0001
0100
0010
1000
0010
0100
0001
1000
0001
1000
0100
0010
0100
,
1000
0001
1000
0001
0100
0010
0100
0001
1000
0000
0000
0000
0001
0000
0000
0000
,
0001
0001
0001
0020
,
0100
0031
1000
2000
,
0010
0000
3001
0100
,
0001
1000
0001
0001
,
1000
0100
0010
0001
1000
0100
0010
0001
2000
0000
0000
0000
0001
0000
0000
0000
,
3001
0100
0100
0100
,
0020
1030
0002
0023
,
0130
2000
3001
0100
,
0001
0100
0010
1000
0001
0100
0010
1000
0002
0000
0000
0000
1000
0000
0000
0000
,
1003
0100
0100
0100
,
0020
0031
2000
3020
,
0130
0002
1003
0100
,
1000
0100
0010
0001
1000
0100
0010
0001
2000
0000
0000
0000
0001
0000
0000
0000
,
3001
0100
0100
0100
,
0020
1030
0002
0023
,
0130
2000
3001
0100
,
0001
0100
0010
1000
0001
0100
0010
1000
0002
0000
0000
0000
1000
0000
0000
0000
,
1003
0100
0011
0001
,
1000
0100
0010
0001
1000
0100
0010
0001
1000
0100
1000
0001
0100
0001
1000
0100
,
1000
0001
0010
0001
0010
0100
1000
0001
1000
0000
0000
0000
1000
0000
0000
0000
,
0001
1000
0001
0010
0100
1000
0010
0100
,
0001
0000
1000
0000
0001
0000
0010
0000
0100
0000
1000
0000
0100
0000
1000
0001
,
1000
0010
0100
0010
1000
0001
1000
0100
,
1000
0000
0010
0000
1000
0000
0002
0003
0020
0030
0200
0300
2000
3000
0002
0003
,
0100
0010
1000
0010
0100
0001
1000
0100
,
0010
0000
0100
0000
1000
0000
0001
0000
0100
0000
0010
0000
1000
0001
1000
0001
,
1000
0100
0010
0100
1000
0001
1000
0010
,
0100
0000
0010
0000
0100
0000
0001
0000
0100
0000
0010
0000
1000
0001
1000
0001
,
1000
0000
0101
0000
0110
0000
0010
1000
,
0100
0000
1100
0000
1100
0000
0100
0010
,
0001
0000
0011
0000
0101
0000
0100
0010
,
1000
0000
0000
0000
1100
0000
0000
0000
1001
0000
0000
0000
0001
0100
0001
0100
,
0001
0000
0101
0000
0110
0000
0010
1000
,
0100
0000
1100
0000
1001
0000
0001
0010
,
0100
0000
0110
0000
1100
0000
0001
0100
,
0040
0030
4000
3000
0400
0300
0040
0030
0004
0003
0000
0000
M000
0000
00M0
0000
,
0M00
000M
M000
00M0
0M00
000M
0000
MMMM
;

//---------------dance-single - Gazebo----------------
#NOTES:
     dance-single:
     Gazebo:
     Medium:
     15:
     1.000,1.000,0.479,0.149,1.000,1873.000,113.000,35.000,12.000,0.000:

0000
0000
0000
0000
,
0000
0000
0000
0000
,
1001
0000
1001
0000
,
1010
1000
0100
1100
,
0000
1100
0000
0001
,
0011
0000
0101
0000
,
1001
0000
1001
0000
,
0011
0001
0100
0101
,
0000
0101
0000
1000
,
1010
0000
1100
1000
,
1001
0000
1001
0000
,
0101
0001
0010
0011
,
0000
0011
0000
1000
,
1100
0000
1010
0000
,
1001
0000
1001
0000
,
1100
1000
0010
1010
,
0000
1010
0000
0001
,
0101
0000
0011
0001
,
1000
0000
0001
0100
0010
0000
1000
0010
,
1000
0000
0001
1000
0100
0000
0010
0100
,
0010
0000
0000
0000
0000
0000
0000
0000
0000
0000
0000
0000
0000
0000
0000
0000
0002
0000
0000
0000
0000
0000
0000
0000
0000
0000
0000
0000
0000
0000
0000
0003
0002
0000
0000
0000
0000
0000
0000
0000
0000
0000
0000
0000
0000
0000
0000
0000
0203
0000
0000
0000
0000
0000
0000
0000
0000
0000
0000
0000
0000
0000
0000
0000
,
0320
1030
2000
3002
,
1003
0000
0001
0010
0100
0000
1000
0100
,
1000
0000
0001
1000
0010
0000
0100
0010
,
0100
0000
0000
0000
0000
0000
0000
0000
0000
0000
0000
0000
0000
0000
0000
0000
0002
0000
0000
0000
0000
0000
0000
0000
0000
0000
0000
0000
0000
0000
0000
0003
0002
0000
0000
0000
0000
0000
0000
0000
0000
0000
0000
0000
0000
0000
0000
0000
0023
0000
0000
0000
0000
0000
0000
0000
0000
0000
0000
0000
0000
0000
0000
0000
,
0230
1300
2000
3002
,
1003
0000
0001
0100
0010
0000
1000
0010
,
1000
0000
0001
1000
0100
0000
0010
0100
,
0010
0000
0000
0000
0000
0000
0000
0000
0000
0000
0000
0000
0000
0000
0000
0000
0002
0000
0000
0000
0000
0000
0000
0000
0000
0000
0000
0000
0000
0000
0000
0003
0002
0000
0000
0000
0000
0000
0000
0000
0000
0000
0000
0000
0000
0000
0000
0000
0203
0000
0000
0000
0000
0000
0000
0000
0000
0000
0000
0000
0000
0000
0000
0000
,
0320
1030
2000
3002
,
0013
0100
1100
1000
,
0001
0100
0110
0010
,
1000
0000
0000
0100
0000
0000
1100
0000
0000
1000
0100
1000
,
0001
0100
0001
1000
0010
1000
0001
1000
0100
0010
0001
1000
,
0001
0100
0001
1000
0010
1000
0100
0010
,
0001
1000
0100
1000
0001
1000
0010
0100
,
0001
1000
0010
1000
0100
1000
0010
0100
,
0001
0010
0001
0010
0100
1000
0001
0100
0001
1000
0100
1000
,
0001
0010
0001
1000
0100
1000
0010
0100
,
0001
1000
0010
1000
0001
1000
0100
0010
,
0001
1000
0100
1000
0010
1000
0100
0010
,
0001
0100
0001
0100
0010
1000
0001
0010
0001
1000
0010
1000
,
0001
0100
0001
1000
0010
1000
0100
0010
,
0001
1000
0100
1000
0001
1000
0010
0100
,
0001
1000
0100
1000
0010
1000
0100
0010
,
0001
0100
0001
0100
0010
1000
0001
0010
0001
1000
0010
1000
,
0001
0000
0101
0000
,
0001
0000
1001
1000
,
0001
0010
0011
2000
,
0000
3010
0010
0010
,
1000
0100
1000
0100
0010
0001
1000
0010
0100
0001
0100
0001
,
1000
0010
1000
0001
0010
0001
1000
0100
1000
0001
0010
0001
,
0100
0010
0100
0001
0100
0010
0100
0001
1000
0100
0010
0001
,
0010
0001
1000
0010
1000
0001
0100
0001
1000
0010
1000
0001
,
1000
0100
1000
0100
0010
0001
1000
0010
0100
0001
0100
0001
,
1000
0010
1000
0001
0010
0001
1000
0100
1000
0001
0010
0001
,
0100
0010
0100
0001
0100
0010
0100
0001
1000
0100
0010
0001
,
0010
0001
1000
0010
1000
0001
0100
0001
1000
0010
1000
0001
,
1000
0100
1000
0100
0010
0001
1000
0010
0100
0001
0100
0001
,
1000
0010
1000
0001
0010
0001
1000
0100
1000
0001
0010
0001
,
0100
0010
0100
0001
0100
0010
0100
0001
1000
0100
0010
0001
,
0010
0001
1000
0010
1000
0001
0100
0001
1000
0100
0010
0001
,
1000
0100
1000
0001
0010
0001
1000
0001
1000
0010
0100
0010
,
0100
0001
1000
0100
0010
0001
0100
0001
1000
0010
0100
0010
,
1000
0010
0100
0001
1000
0001
1000
0100
0010
0001
1000
0100
,
1000
0001
0010
0001
1000
0100
1000
0010
1000
0001
0100
0001
,
1000
0100
1000
0001
1000
0100
1000
0001
0010
0001
1000
0001
,
1000
0010
1000
0001
0100
0001
1000
0100
1000
0001
0010
0001
,
1000
0010
0100
0010
0100
0001
0010
0001
1000
0100
1000
0100
,
0010
0001
1000
0010
0100
0010
1000
0100
0010
0001
1000
0010
,
1000
0100
1000
0001
1000
0100
1000
0001
0010
0001
1000
0001
,
1000
0010
1000
0001
0100
0001
1000
0100
1000
0001
0010
0001
,
1000
0010
0100
0010
0100
0001
0010
0001
1000
0100
1000
0100
,
0010
0001
1000
0010
0100
0010
1000
0100
0010
0001
1000
0010
,
1000
0100
1000
0001
1000
0100
1000
0001
0010
0001
1000
0001
,
1000
0010
1000
0001
0100
0001
1000
0100
1000
0100
0010
0001
,
1000
0010
0100
0010
0100
0001
0010
0001
1000
0100
1000
0100
,
0010
0001
1000
0010
0100
0010
1000
0100
0010
0001
1000
0010
,
1000
0100
1000
0001
1000
0100
1000
0001
0010
0001
1000
0001
,
1000
0010
1000
0001
0100
0001
1000
0001
1000
0100
0010
0001
,
1000
0010
0100
0010
1000
0010
0100
0001
1000
0100
0010
0001
,
1000
0010
1000
0001
0010
0100
1000
0000
0000
1000
0000
0000
,
1001
0000
1001
0000
,
0101
0001
0010
0011
,
0000
0011
0000
1000
,
1100
0000
1010
0000
,
1001
0000
1001
0000
,
1100
1000
0010
1010
,
0000
1010
0000
0001
,
0101
0000
0011
0001
,
1001
0000
1001
0000
,
1010
1000
0100
1100
,
0000
1100
0000
0001
,
0011
0000
0101
0000
,
1001
0000
1001
0000
,
0011
0001
0100
0101
,
0000
0101
0000
1000
,
1010
1000
1100
1000
,
0001
0000
1000
0010
0100
0000
0001
0100
,
0001
0000
1000
0001
0010
0000
0100
0010
,
0100
0000
0000
0000
0000
0000
0000
0000
0000
0000
0000
0000
0000
0000
0000
0000
2000
0000
0000
0000
0000
0000
0000
0000
0000
0000
0000
0000
0000
0000
0000
3000
2000
0000
0000
0000
0000
0000
0000
0000
0000
0000
0000
0000
0000
0000
0000
0000
3020
0000
0000
0000
0000
0000
0000
0000
0000
0000
0000
0000
0000
0000
0000
0000
,
0230
0301
0002
2003
,
3001
0000
1000
0100
0010
0000
0001
0010
,
0001
0000
1000
0001
0100
0000
0010
0100
,
0010
2000
3200
0320
,
0032
1003
1000
1000
,
0001
0000
1000
0010
0100
0000
0001
0100
,
0001
0000
1000
0001
0010
0000
0100
0010
,
0100
0000
1000
0001
0100
0000
0010
1000
,
0010
0000
0100
0001
1000
0000
0001
0000
,
0010
0100
1100
1000
,
0001
0100
0110
0010
,
1000
0000
0000
0100
0000
0000
1100
0000
0000
0001
0010
0001
,
1000
0010
1000
0001
0100
0001
1000
0001
0010
0100
1000
0001
,
1000
0010
1000
0001
0100
0001
0010
0100
,
1000
0001
0010
0001
1000
0001
0100
0010
,
1000
0001
0100
0001
0010
0001
0100
0010
,
1000
0100
1000
0100
0010
0001
1000
0010
1000
0001
0010
0001
,
1000
0100
1000
0001
0010
0001
0100
0010
,
1000
0001
0100
0001
1000
0001
0010
0100
,
1000
0001
0010
0001
0100
0001
0010
0100
,
1000
0010
1000
0010
0100
0001
1000
0100
1000
0001
0100
0001
,
1000
0010
1000
0001
0100
0001
0010
0100
,
1000
0001
0010
0001
1000
0001
0100
0010
,
1000
0001
0010
0001
0100
0001
0010
0100
,
1000
0010
1000
0010
0100
0001
1000
0100
1000
0001
0100
0001
,
1000
0000
0101
0000
,
0001
0000
1001
0001
,
1000
0100
1100
0002
,
0000
0013
0010
0010
,
0001
0100
0001
0100
0010
1000
0001
0010
0100
1000
0100
1000
,
0001
0010
0001
1000
0010
1000
0001
0100
0001
1000
0010
1000
,
0100
0010
0100
1000
0100
0010
0100
1000
0001
0100
0010
1000
,
0010
1000
0001
0010
0001
1000
0100
1000
0001
0010
0001
1000
,
0001
0100
0001
0100
0010
1000
0001
0010
0100
1000
0100
1000
,
0001
0010
0001
1000
0010
1000
0001
0100
0001
1000
0010
1000
,
0100
0010
0100
1000
0100
0010
0100
1000
0001
0100
0010
1000
,
0010
1000
0001
0010
0001
1000
0100
1000
0001
0010
0001
1000
,
0001
0100
0001
0100
0010
1000
0001
0010
0100
1000
0100
1000
,
0001
0010
0001
1000
0010
1000
0001
0100
0001
1000
0010
1000
,
0100
0010
0100
1000
0100
0010
0100
1000
0001
0100
0010
1000
,
0010
1000
0001
0010
0001
1000
0100
1000
0001
0100
0010
1000
,
0001
0100
0001
1000
0010
1000
0001
1000
0001
0010
0100
0010
,
0100
1000
0001
0100
0010
1000
0100
1000
0001
0010
0100
0010
,
0001
0010
0100
1000
0001
1000
0001
0100
0010
1000
0001
0100
,
0001
1000
0010
1000
0001
0100
0001
0010
0001
1000
0100
1000
,
0001
0100
0001
1000
0001
0100
0001
1000
0010
1000
0001
1000
,
0001
0010
0001
1000
0100
1000
0001
0100
0001
1000
0010
1000
,
0001
0010
0100
0010
0100
1000
0010
1000
0001
0100
0001
0100
,
0010
1000
0001
0010
0100
0010
0001
0100
0010
1000
0001
0010
,
0001
0100
0001
1000
0001
0100
0001
1000
0010
1000
0001
1000
,
0001
0010
0001
1000
0100
1000
0001
0100
0001
1000
0010
1000
,
0001
0010
0100
0010
0100
1000
0010
1000
0001
0100
0001
0100
,
0010
1000
0001
0010
0100
0010
0001
0100
0010
1000
0001
0010
,
0001
0100
0001
1000
0001
0100
0001
1000
0010
1000
0001
1000
,
0001
0010
0001
1000
0100
1000
0001
0100
0001
0100
0010
1000
,
0001
0010
0100
0010
0100
1000
0010
1000
0001
0100
0001
0100
,
0010
1000
0001
0010
0100
0010
0001
0100
0010
1000
0001
0010
,
0001
0100
0001
1000
0001
0100
0001
1000
0010
1000
0001
1000
,
0001
0010
0001
1000
0100
1000
0001
1000
0001
0100
0010
1000
,
0001
0010
0100
0010
0001
0010
0100
1000
0001
0100
0010
1000
,
0001
0010
0001
1000
0010
0100
0001
0000
0000
0001
0000
0000
,
1001
0000
1001
0000
,
1010
1000
0100
1100
,
0000
1100
0000
0001
,
0011
0000
0101
0000
,
1001
0000
1001
0000
,
0011
0001
0100
0101
,
0000
0101
0000
1000
,
1010
0000
1100
1000
,
1001
0000
1001
0000
,
0101
0001
0010
0011
,
0000
0011
0000
1000
,
1100
0000
1010
0000
,
1001
0000
1001
0000
,
1100
1000
0010
1010
,
0000
1010
0000
0001
,
0101
0001
0011
0001
,
1000
0000
0010
0100
0010
0000
1000
0100
,
1000
0000
0001
1000
0001
0000
0100
0001
,
0100
0000
0001
0010
0001
0000
1000
0100
,
0010
0001
0010
0001
1000
0000
0010
0100
,
0001
0000
0100
0010
1000
0000
0001
1000
,
0001
0000
1000
0100
0010
0000
0001
0100
,
0001
0000
1000
0010
0100
0000
0001
1000
,
0001
0000
0010
0100
1000
0000
1000
0000
,
0001
0100
0001
0100
0001
0000
1000
0100
,
0010
0001
0010
0001
1000
0000
0001
0100
,
0010
0000
0100
0010
1000
0000
0001
0010
,
0001
0000
1000
0100
1000
0000
0001
1000
,
0010
0100
0101
0001
,
1000
0100
0110
0040
,
0000
0034
0000
4003
,
0000
3010
0010
0010
,
1000
0100
1000
0100
0010
0001
1000
0010
0100
0001
0100
0001
,
1000
0010
1000
0001
0010
0001
1000
0100
1000
0001
0010
0001
,
0100
0010
0100
0001
0100
0010
0100
0001
1000
0100
0010
0001
,
0010
0001
1000
0010
1000
0001
0100
0001
1000
0010
1000
0001
,
1000
0100
1000
0100
0010
0001
1000
0010
0100
0001
0100
0001
,
1000
0010
1000
0001
0010
0001
1000
0100
1000
0001
0010
0001
,
0100
0010
0100
0001
0100
0010
0100
0001
1000
0100
0010
0001
,
0010
0001
1000
0010
1000
0001
0100
0001
1000
0010
1000
0001
,
1000
0100
1000
0100
0010
0001
1000
0010
0100
0001
0100
0001
,
1000
0010
1000
0001
0010
0001
1000
0100
1000
0001
0010
0001
,
0100
0010
0100
0001
0100
0010
0100
0001
1000
0100
0010
0001
,
0010
0001
1000
0010
1000
0001
0100
0001
1000
0100
0010
0001
,
1000
0100
1000
0001
0010
0001
1000
0001
1000
0010
0100
0010
,
0100
0001
1000
0100
0010
0001
0100
0001
1000
0010
0100
0010
,
1000
0010
0100
0001
1000
0001
1000
0100
0010
0001
1000
0100
,
1000
0001
0010
0001
1000
0100
1000
0010
1000
0001
0100
0001
,
1000
0100
1000
0001
1000
0100
1000
0001
0010
0001
1000
0001
,
1000
0010
1000
0001
0100
0001
1000
0100
1000
0001
0010
0001
,
1000
0010
0100
0010
0100
0001
0010
0001
1000
0100
1000
0100
,
0010
0001
1000
0010
0100
0010
1000
0100
0010
0001
1000
0010
,
1000
0100
1000
0001
1000
0100
1000
0001
0010
0001
1000
0001
,
1000
0010
1000
0001
0100
0001
1000
0100
1000
0001
0010
0001
,
1000
0010
0100
0010
0100
0001
0010
0001
1000
0100
1000
0100
,
0010
0001
1000
0010
0100
0010
1000
0100
0010
0001
1000
0010
,
1000
0100
1000
0001
1000
0100
1000
0001
0010
0001
1000
0001
,
1000
0010
1000
0001
0100
0001
1000
0100
1000
0100
0010
0001
,
1000
0010
0100
0010
0100
0001
0010
0001
1000
0100
1000
0100
,
0010
0001
1000
0010
0100
0010
1000
0100
0010
0001
1000
0010
,
1000
0100
1000
0001
1000
0100
1000
0001
0010
0001
1000
0001
,
1000
0010
1000
0001
0100
0001
1000
0001
1000
0100
0010
0001
,
1000
0010
0100
0010
1000
0010
0100
0001
1000
0100
0010
0001
,
1000
0010
1000
0001
0010
0100
1000
0000
0000
1000
0000
0000
,
0001
1000
0001
0010
0100
1000
0010
0100
,
0001
0000
1000
0000
0001
0000
0010
0000
0100
0000
1000
0000
0100
0000
1000
0001
,
1000
0010
0100
0010
1000
0001
1000
0100
,
1000
0000
0010
0000
1000
0000
0002
0003
0020
0030
0200
0300
2000
3000
0002
0003
,
0100
0010
1000
0010
0100
0001
1000
0100
,
0010
0000
0100
0000
1000
0000
0001
0000
0100
0000
0010
0000
1000
0001
1000
0001
,
1000
0100
0010
0100
1000
0001
1000
0010
,
0100
0000
0010
0000
0100
0000
0001
0000
0100
0000
0010
0000
1000
0001
1000
0001
,
1000
0000
0101
0000
0110
0000
0010
1000
,
0100
0000
1100
0000
1100
0000
0100
0010
,
0001
0000
0011
0000
0101
0000
0100
0010
,
1000
0000
0000
0000
1100
0000
0000
0000
1001
0000
0000
0000
0001
0100
0001
0100
,
0001
0000
0101
0000
0110
0000
0010
1000
,
0100
0000
1100
0000
1001
0000
0001
0010
,
0100
0000
0110
0000
1100
0000
0001
0100
,
0040
0030
4000
3000
0400
0300
0040
0030
0004
0003
0000
0000
M000
0000
00M0
0000
,
0M00
000M
M000
00M0
0M00
000M
0000
MMMM
;

//---------------dance-single - Gazebo----------------
#NOTES:
     dance-single:
     Gazebo:
     Easy:
     13:
     1.000,1.000,0.492,0.352,1.000,1585.000,116.000,83.000,12.000,0.000:
0000
0000
0000
0000
,
0000
0000
0000
0000
,
1001
0000
1001
0000
,
1010
1000
0100
1100
,
0000
1100
0000
0001
,
0011
0000
0101
0000
,
1001
0000
1001
0000
,
0011
0001
0100
0101
,
0000
0101
0000
1000
,
1010
0000
1100
1000
,
1001
0000
1001
0000
,
0101
0001
0010
0011
,
0000
0011
0000
1000
,
1100
0000
1010
0000
,
1001
0000
1001
0000
,
1100
1000
0010
1010
,
0000
1010
0000
0001
,
0101
0000
0011
0001
,
1000
0000
0001
0100
0010
0000
1000
0010
,
1000
0000
0001
1000
0100
0000
0010
0100
,
0010
0000
0000
0000
0000
0000
0000
0000
0000
0000
0000
0000
0000
0000
0000
0000
0002
0000
0000
0000
0000
0000
0000
0000
0000
0000
0000
0000
0000
0000
0000
0003
0002
0000
0000
0000
0000
0000
0000
0000
0000
0000
0000
0000
0000
0000
0000
0000
0203
0000
0000
0000
0000
0000
0000
0000
0000
0000
0000
0000
0000
0000
0000
0000
,
0320
1030
2000
3002
,
1003
0000
0001
0010
0100
0000
1000
0100
,
1000
0000
0001
1000
0010
0000
0100
0010
,
0100
0000
0000
0000
0000
0000
0000
0000
0000
0000
0000
0000
0000
0000
0000
0000
0002
0000
0000
0000
0000
0000
0000
0000
0000
0000
0000
0000
0000
0000
0000
0003
0002
0000
0000
0000
0000
0000
0000
0000
0000
0000
0000
0000
0000
0000
0000
0000
0023
0000
0000
0000
0000
0000
0000
0000
0000
0000
0000
0000
0000
0000
0000
0000
,
0230
1300
2000
3002
,
1003
0000
0001
0100
0010
0000
1000
0010
,
1000
0000
0001
1000
0100
0000
0010
0100
,
0010
0000
0000
0000
0000
0000
0000
0000
0000
0000
0000
0000
0000
0000
0000
0000
0002
0000
0000
0000
0000
0000
0000
0000
0000
0000
0000
0000
0000
0000
0000
0003
0002
0000
0000
0000
0000
0000
0000
0000
0000
0000
0000
0000
0000
0000
0000
0000
0203
0000
0000
0000
0000
0000
0000
0000
0000
0000
0000
0000
0000
0000
0000
0000
,
0320
1030
2000
3002
,
0013
0100
1100
1000
,
0001
0100
0110
0010
,
1000
0000
0000
0100
0000
0000
1100
0000
0000
1000
0100
1000
,
0001
0100
0001
1000
0010
1000
0001
1000
0100
0010
0001
1000
,
0001
0100
0001
1000
0010
1000
0100
0010
,
0001
1000
0100
1000
0001
1000
0010
0100
,
0001
1000
0010
1000
0100
1000
0010
0100
,
0001
0010
0001
0010
0100
1000
0001
0100
0001
1000
0100
1000
,
0001
0010
0001
1000
0100
1000
0010
0100
,
0001
1000
0010
1000
0001
1000
0100
0010
,
0001
1000
0100
1000
0010
1000
0100
0010
,
0001
0100
0001
0100
0010
1000
0001
0010
0001
1000
0010
1000
,
0001
0100
0001
1000
0010
1000
0100
0010
,
0001
1000
0100
1000
0001
1000
0010
0100
,
0001
1000
0100
1000
0010
1000
0100
0010
,
0001
0100
0001
0100
0010
1000
0001
0010
0001
1000
0010
1000
,
0001
0000
0101
0000
,
0001
0000
1001
1000
,
0001
0010
0011
2000
,
0000
3010
0010
0010
,
1000
0100
1000
0100
0010
0001
1000
0010
0100
0001
0100
0001
,
1000
0010
1000
0001
0010
0001
1000
0100
1000
0001
0010
0001
,
0100
0010
0100
0001
0100
0010
0100
0001
1000
0100
0010
0001
,
0010
0001
1000
0010
1000
0001
0100
0001
1000
0010
1000
0001
,
1000
0100
1000
0100
0010
0001
1000
0010
0100
0001
0100
0001
,
1000
0010
1000
0001
0010
0001
1000
0100
1000
0001
0010
0001
,
0100
0010
0100
0001
0100
0010
0100
0001
1000
0100
0010
0001
,
0010
0001
1000
0010
1000
0001
0100
0001
1000
0010
1000
0001
,
1000
0100
1000
0100
0010
0001
1000
0010
0100
0001
0100
0001
,
1000
0010
1000
0001
0010
0001
1000
0100
1000
0001
0010
0001
,
0100
0010
0100
0001
0100
0010
0100
0001
1000
0100
0010
0001
,
0010
0001
1000
0010
1000
0001
0100
0001
1000
0100
0010
0001
,
1000
0100
1000
0001
0010
0001
1000
0001
1000
0010
0100
0010
,
0100
0001
1000
0100
0010
0001
0100
0001
1000
0010
0100
0010
,
1000
0010
0100
0001
1000
0001
1000
0100
0010
0001
1000
0100
,
1000
0001
0010
0001
1000
0100
1000
0010
1000
0001
0100
0001
,
1000
0100
1000
0001
1000
0100
2000
0000
0000
0001
0000
0000
,
3001
0100
0100
0100
,
0020
1030
0002
0023
,
0130
2000
3001
0100
,
0001
0100
0001
1000
0001
0100
0002
0000
0000
1000
0000
0000
,
1003
0100
0100
0100
,
0020
0031
2000
3020
,
0130
0002
1003
0100
,
1000
0100
1000
0001
1000
0100
2000
0000
0000
0001
0000
0000
,
3001
0100
0100
0100
,
0020
1030
0002
0023
,
0130
2000
3001
0100
,
0001
0100
0001
1000
0001
0100
0002
0000
0000
1000
0000
0000
,
1003
0100
0011
0001
,
1000
0100
1000
0001
1000
0010
0100
0001
1000
0001
0100
0001
,
0010
0100
0010
0001
1000
0001
0100
0000
0000
0100
0000
0000
,
1001
0000
1001
0000
,
0101
0001
0010
0011
,
0000
0011
0000
1000
,
1100
0000
1010
0000
,
1001
0000
1001
0000
,
1100
1000
0010
1010
,
0000
1010
0000
0001
,
0101
0000
0011
0001
,
1001
0000
1001
0000
,
1010
1000
0100
1100
,
0000
1100
0000
0001
,
0011
0000
0101
0000
,
1001
0000
1001
0000
,
0011
0001
0100
0101
,
0000
0101
0000
1000
,
1010
1000
1100
1000
,
0001
0000
1000
0010
0100
0000
0001
0100
,
0001
0000
1000
0001
0010
0000
0100
0010
,
0100
0000
0000
0000
0000
0000
0000
0000
0000
0000
0000
0000
0000
0000
0000
0000
2000
0000
0000
0000
0000
0000
0000
0000
0000
0000
0000
0000
0000
0000
0000
3000
2000
0000
0000
0000
0000
0000
0000
0000
0000
0000
0000
0000
0000
0000
0000
0000
3020
0000
0000
0000
0000
0000
0000
0000
0000
0000
0000
0000
0000
0000
0000
0000
,
0230
0301
0002
2003
,
3001
0000
1000
0100
0010
0000
0001
0010
,
0001
0000
1000
0001
0100
0000
0010
0100
,
0010
2000
3200
0320
,
0032
1003
1000
1000
,
0001
0000
1000
0010
0100
0000
0001
0100
,
0001
0000
1000
0001
0010
0000
0100
0010
,
0100
0000
1000
0001
0100
0000
0010
1000
,
0010
0000
0100
0001
1000
0000
0001
0000
,
0010
0100
1100
1000
,
0001
0100
0110
0010
,
1000
0000
0000
0100
0000
0000
1100
0000
0000
0001
0010
0001
,
1000
0010
1000
0001
0100
0001
1000
0001
0010
0100
1000
0001
,
1000
0010
1000
0001
0100
0001
0010
0100
,
1000
0001
0010
0001
1000
0001
0100
0010
,
1000
0001
0100
0001
0010
0001
0100
0010
,
1000
0100
1000
0100
0010
0001
1000
0010
1000
0001
0010
0001
,
1000
0100
1000
0001
0010
0001
0100
0010
,
1000
0001
0100
0001
1000
0001
0010
0100
,
1000
0001
0010
0001
0100
0001
0010
0100
,
1000
0010
1000
0010
0100
0001
1000
0100
1000
0001
0100
0001
,
1000
0010
1000
0001
0100
0001
0010
0100
,
1000
0001
0010
0001
1000
0001
0100
0010
,
1000
0001
0010
0001
0100
0001
0010
0100
,
1000
0010
1000
0010
0100
0001
1000
0100
1000
0001
0100
0001
,
1000
0000
0101
0000
,
0001
0000
1001
0001
,
1000
0100
1100
0002
,
0000
0013
0010
0010
,
0001
0100
0001
0100
0010
1000
0001
0010
0100
1000
0100
1000
,
0001
0010
0001
1000
0010
1000
0001
0100
0001
1000
0010
1000
,
0100
0010
0100
1000
0100
0010
0100
1000
0001
0100
0010
1000
,
0010
1000
0001
0010
0001
1000
0100
1000
0001
0010
0001
1000
,
0001
0100
0001
0100
0010
1000
0001
0010
0100
1000
0100
1000
,
0001
0010
0001
1000
0010
1000
0001
0100
0001
1000
0010
1000
,
0100
0010
0100
1000
0100
0010
0100
1000
0001
0100
0010
1000
,
0010
1000
0001
0010
0001
1000
0100
1000
0001
0010
0001
1000
,
0001
0100
0001
0100
0010
1000
0001
0010
0100
1000
0100
1000
,
0001
0010
0001
1000
0010
1000
0001
0100
0001
1000
0010
1000
,
0100
0010
0100
1000
0100
0010
0100
1000
0001
0100
0010
1000
,
0010
1000
0001
0010
0001
1000
0100
1000
0001
0100
0010
1000
,
0001
0100
0001
1000
0010
1000
0001
1000
0001
0010
0100
0010
,
0100
1000
0001
0100
0010
1000
0100
1000
0001
0010
0100
0010
,
0001
0010
0100
1000
0001
1000
0001
0100
0010
1000
0001
0100
,
0001
1000
0010
1000
0001
0100
0001
0010
0001
1000
0100
1000
,
0001
0100
0001
1000
0001
0100
0002
0000
0000
1000
0000
0000
,
1003
0100
0100
0100
,
0020
0031
2000
3020
,
0130
0002
1003
0100
,
1000
0100
1000
0001
1000
0100
2000
0000
0000
0001
0000
0000
,
3001
0100
0100
0100
,
0020
1030
0002
0023
,
0130
2000
3001
0100
,
0001
0100
0001
1000
0001
0100
0002
0000
0000
1000
0000
0000
,
1003
0100
0100
0100
,
0020
0031
2000
3020
,
0130
0002
1003
0100
,
1000
0100
1000
0001
1000
0100
2000
0000
0000
0001
0000
0000
,
3001
0100
1010
1000
,
0001
0100
0001
1000
0001
0010
0100
1000
0001
1000
0100
1000
,
0010
0100
0010
1000
0001
1000
0100
0000
0000
0100
0000
0000
,
1001
0000
1001
0000
,
1010
1000
0100
1100
,
0000
1100
0000
0001
,
0011
0000
0101
0000
,
1001
0000
1001
0000
,
0011
0001
0100
0101
,
0000
0101
0000
1000
,
1010
0000
1100
1000
,
1001
0000
1001
0000
,
0101
0001
0010
0011
,
0000
0011
0000
1000
,
1100
0000
1010
0000
,
1001
0000
1001
0000
,
1100
1000
0010
1010
,
0000
1010
0000
0001
,
0101
0001
0011
0001
,
1000
0000
0010
0100
0010
0000
1000
0100
,
1000
0000
0001
1000
0001
0000
0100
0001
,
0100
0000
0001
0010
0001
0000
1000
0100
,
0010
0001
0010
0001
1000
0000
0010
0100
,
0001
0000
0100
0010
1000
0000
0001
1000
,
0001
0000
1000
0100
0010
0000
0001
0100
,
0001
0000
1000
0010
0100
0000
0001
1000
,
0001
0000
0010
0100
1000
0000
1000
0000
,
0001
0100
0001
0100
0001
0000
1000
0100
,
0010
0001
0010
0001
1000
0000
0001
0100
,
0010
0000
0100
0010
1000
0000
0001
0010
,
0001
0000
1000
0100
1000
0000
0001
1000
,
0010
0100
0101
0001
,
1000
0100
0110
0040
,
0000
0034
0000
4003
,
0000
3010
0010
0010
,
1000
0100
1000
0100
0010
0001
1000
0010
0100
0001
0100
0001
,
1000
0010
1000
0001
0010
0001
1000
0100
1000
0001
0010
0001
,
0100
0010
0100
0001
0100
0010
0100
0001
1000
0100
0010
0001
,
0010
0001
1000
0010
1000
0001
0100
0001
1000
0010
1000
0001
,
1000
0100
1000
0100
0010
0001
1000
0010
0100
0001
0100
0001
,
1000
0010
1000
0001
0010
0001
1000
0100
1000
0001
0010
0001
,
0100
0010
0100
0001
0100
0010
0100
0001
1000
0100
0010
0001
,
0010
0001
1000
0010
1000
0001
0100
0001
1000
0010
1000
0001
,
1000
0100
1000
0100
0010
0001
1000
0010
0100
0001
0100
0001
,
1000
0010
1000
0001
0010
0001
1000
0100
1000
0001
0010
0001
,
0100
0010
0100
0001
0100
0010
0100
0001
1000
0100
0010
0001
,
0010
0001
1000
0010
1000
0001
0100
0001
1000
0100
0010
0001
,
1000
0100
1000
0001
0010
0001
1000
0001
1000
0010
0100
0010
,
0100
0001
1000
0100
0010
0001
0100
0001
1000
0010
0100
0010
,
1000
0010
0100
0001
1000
0001
1000
0100
0010
0001
1000
0100
,
1000
0001
0010
0001
1000
0100
1000
0010
1000
0001
0100
0001
,
1000
0100
1000
0001
1000
0100
2000
0000
0000
0001
0000
0000
,
3001
0100
0100
0100
,
0020
1030
0002
0023
,
0130
2000
3001
0100
,
0001
0100
0001
1000
0001
0100
0002
0000
0000
1000
0000
0000
,
1003
0100
0100
0100
,
0020
0031
2000
3020
,
0130
0002
1003
0100
,
1000
0100
1000
0001
1000
0100
2000
0000
0000
0001
0000
0000
,
3001
0100
0100
0100
,
0020
1030
0002
0023
,
0130
2000
3001
0100
,
0001
0100
0001
1000
0001
0100
0002
0000
0000
1000
0000
0000
,
1003
0100
0011
0001
,
1000
0100
1000
0001
1000
0010
0100
0001
1000
0001
0100
0001
,
0010
0100
0010
0001
1000
0001
0100
0000
0000
0100
0000
0000
,
0001
1000
0001
0010
0100
1000
0010
0100
,
0001
0000
1000
0000
0001
0000
0010
0000
0100
0000
1000
0000
0100
0000
1000
0001
,
1000
0010
0100
0010
1000
0001
1000
0100
,
1000
0000
0010
0000
1000
0000
0002
0003
0020
0030
0200
0300
2000
3000
0002
0003
,
0100
0010
1000
0010
0100
0001
1000
0100
,
0010
0000
0100
0000
1000
0000
0001
0000
0100
0000
0010
0000
1000
0001
1000
0001
,
1000
0100
0010
0100
1000
0001
1000
0010
,
0100
0000
0010
0000
0100
0000
0001
0000
0100
0000
0010
0000
1000
0001
1000
0001
,
1000
0000
0101
0000
0110
0000
0010
1000
,
0100
0000
1100
0000
1100
0000
0100
0010
,
0001
0000
0011
0000
0101
0000
0100
0010
,
1000
0000
0000
0000
1100
0000
0000
0000
1001
0000
0000
0000
0001
0100
0001
0100
,
0001
0000
0101
0000
0110
0000
0010
1000
,
0100
0000
1100
0000
1001
0000
0001
0010
,
0100
0000
0110
0000
1100
0000
0001
0100
,
0040
0030
4000
3000
0400
0300
0040
0030
0004
0003
0000
0000
M000
0000
00M0
0000
,
0M00
000M
M000
00M0
0M00
000M
0000
MMMM
;
