#TITLE:Token of Time;
#SUBTITLE:Ensiferum (2001);
#ARTIST:Ensiferum;
#TITLETRANSLIT:;
#SUBTITLETRANSLIT:;
#ARTISTTRANSLIT:;
#CREDIT:;
#BANNER:BN.png;
#BACKGROUND:BG.png;
#LYRICSPATH:;
#CDTITLE:Authority.png;
#MUSIC:Ensiferum - Token of Time.mp3;
#OFFSET:-0.200;
#SAMPLESTART:76.000;
#SAMPLELENGTH:16.000;
#SELECTABLE:YES;
#BPMS:0.000=124.920,505.000=116.000,506.000=109.000,507.000=102.000,508.000=95.000,509.000=88.000,842.000=120.000;
#STOPS:;
#BGCHANGES:;
// cache tags:
#FIRSTBEAT:0.000;
#LASTBEAT:515.000;
#SONGFILENAME:Songs/Astronomic Metal Collection 2/(Authority) Token of Time/Token of Time.sm;
#HASMUSIC:1;
#HASBANNER:1;
#MUSICLENGTH:255.973;
// end cache tags

//---------------dance-single - Blank----------------
#NOTES:
     dance-single:
     Blank:
     Hard:
     11:
     1.000,0.981,0.867,0.969,0.977,1386.000,222.000,248.000,0.000,0.000:

2000
0000
0000
0000
3010
0000
0001
1000
0001
0000
0010
0000
0100
0000
0010
1000
,
0010
0000
0000
0000
0000
0000
0100
0000
0000
0000
0000
0000
0001
0000
0000
0000
0000
0000
0010
0000
0000
1000
0000
0000
0001
0000
0010
0000
0100
0000
1000
0000
0000
0000
0000
0000
0010
0000
0000
0000
0000
0000
0100
0000
0000
0001
0000
0000
,
0200
0000
0000
0000
0310
0000
1000
0100
1000
0000
0010
0000
0100
0000
0010
1000
,
0100
0000
0000
0000
0000
0000
0010
0000
0000
0000
0000
0000
0001
0000
0000
0000
0000
0000
0010
0000
0000
0100
0000
0000
1000
0000
0100
0000
0010
0000
0001
0000
0000
0000
0000
0000
0010
0000
0000
0000
0000
0000
1000
0000
0000
0100
0000
0000
,
0020
0000
0000
0000
0031
0000
0100
0001
0100
0000
0010
0000
1000
0000
0100
0010
,
0100
0000
0000
0000
0000
0000
0001
0000
0000
0000
0000
0000
0010
0000
0000
0000
0000
0000
1000
0000
0000
0100
0000
0000
0010
0000
0100
0000
1000
0000
0001
0000
0000
0000
0000
0000
0010
0000
0000
0000
0000
0000
1000
0000
0000
0100
0000
0000
,
0020
0000
0000
0000
1030
0000
0100
1000
0100
0000
0010
0000
0100
0000
0001
0010
,
0001
0000
0000
0000
0000
0000
0100
0000
0000
0000
0000
0000
0010
0000
0000
0000
0000
0000
0001
0000
0000
0100
0000
0000
0010
0000
1000
0000
0001
0000
0100
0000
0000
0000
0000
0000
0010
0000
0000
0000
0000
0000
0100
0000
0000
0010
0000
0000
,
2002
0000
3003
0000
0110
0000
0001
0010
0001
0000
1100
0000
0101
0000
0010
1000
,
0100
0000
0000
0000
0000
0000
0011
0000
0000
0000
0000
0000
1010
0000
0000
0000
0000
0000
0001
0000
0000
0100
0000
0000
0010
0000
0001
0000
0010
0000
0100
0000
0000
0000
0000
0000
1010
0000
0000
0000
0000
0000
0001
0000
0000
0100
0000
0000
,
0022
0000
0033
0000
1010
0000
0100
0010
0001
0000
0110
0000
1100
0000
0010
0100
,
1000
0000
0000
0000
0000
0000
0011
0000
0000
0000
0000
0000
1010
0000
0000
0000
0000
0000
0100
0000
0000
0010
0000
0000
0001
0000
0010
0000
0100
0000
1000
0000
0000
0000
0000
0000
0110
0000
0000
0000
0000
0000
0001
0000
0000
0010
0000
0000
,
2200
0000
3300
0000
1001
0000
0010
0100
1000
0000
0110
0000
0101
0000
0010
0001
,
0010
0000
0000
0000
0000
0000
1100
0000
0000
0000
0000
0000
0110
0000
0000
0000
0000
0000
0010
0000
0000
1000
0000
0000
0100
0000
0010
0000
0001
0000
1000
0000
0000
0000
0000
0000
0110
0000
0000
0000
0000
0000
0001
0000
0000
0010
0000
0000
,
0202
0000
0303
0000
1100
0000
0010
0100
0010
0000
1100
0000
0110
0000
0001
0010
,
0100
0000
0000
0000
0000
0000
1001
0000
0000
0000
0000
0000
0101
0000
0000
0000
0000
0000
0010
0000
0000
0100
0000
0000
0001
0000
0010
0000
0100
0000
0010
0000
0000
0000
0000
0000
1100
0000
0000
0000
0000
0000
0010
0000
0000
0100
0000
0000
,
0001
0010
0100
1000
0010
0100
0001
0010
0001
1000
0100
0010
0100
1000
0010
0100
,
0001
0010
0100
1000
0010
0100
0001
0100
0010
1000
0100
0010
0001
1000
0010
1000
,
0001
0100
0001
1000
0100
0010
0100
1000
0001
0010
0100
0010
0001
1000
0001
1000
,
0010
0100
0010
1000
0100
1000
0010
0100
0001
0010
0100
1000
0010
0100
0001
1000
,
0010
0100
0010
1000
0100
0010
0100
1000
0010
0100
0001
0010
0100
0010
0001
1000
,
0100
1000
0001
0010
0001
1000
0100
0010
0001
0010
0100
1000
0010
0100
0010
1000
,
0100
1000
0001
0010
0100
1000
0100
0010
0100
1000
0001
1000
0010
0100
0010
1000
,
0001
0000
0000
0000
0000
0000
0010
0000
0100
0000
1000
0000
0020
0000
0000
0030
0000
0000
1000
0000
0010
0000
0100
0000
0002
0000
0000
0000
0000
0000
0003
0000
0000
0000
0000
0000
2200
0000
0000
0000
0000
0000
3300
0000
0000
0000
0000
0000
,
0011
0011
0000
1100
0011
1100
0000
0011
,
1010
0000
0000
0000
0000
0000
0100
0000
0000
0000
0000
0000
0001
0000
0000
0000
0000
0000
0010
0000
0000
0100
0000
0000
0001
0000
0010
0000
0100
0000
1000
0000
0000
0000
0000
0000
0010
0000
0000
0000
0000
0000
0100
0000
0000
0001
0000
0000
,
2000
0000
0000
0000
3010
0000
0001
0010
1100
0000
0011
0000
0000
0000
0000
0000
,
1010
0000
0000
0000
0000
0000
0001
0000
0000
0000
0000
0000
0010
0000
0000
0000
0000
0000
0100
0000
0000
0010
0000
0000
0001
0000
0010
0000
0100
0000
0010
0000
0000
0000
0000
0000
0001
0000
0000
0000
0000
0000
0010
0000
0000
0100
0000
0000
,
0002
0003
0010
0101
1100
0110
0000
0000
,
0101
0000
0000
0000
0000
0000
0011
0110
1100
0000
0011
0000
0000
0000
1010
0000
,
0110
0101
0000
0011
2200
3300
0000
0000
,
2002
0000
0000
0000
0000
3003
0202
0303
,
1010
0100
0010
0001
1000
0100
1000
0010
0200
0300
0001
0010
0200
0000
0300
0000
,
0001
0010
0100
1000
0000
0000
0010
0000
0000
0100
1000
0010
0100
0000
0000
0011
0000
0000
2200
0000
0000
3300
0000
0000
,
0101
0000
0000
0010
0200
0000
0300
0001
0200
0300
0001
0001
1000
0000
0010
0001
,
1000
0000
0100
0000
1000
0000
0010
0000
0000
0000
0000
0000
0100
0000
0000
0000
0000
0000
0001
0000
0010
0000
0100
0000
1000
0000
0000
0000
0000
0000
0011
0000
0000
0000
0000
0000
0101
0000
0000
1000
0000
0000
0100
0000
0000
0000
0000
0000
,
2010
0000
3000
0001
0010
0010
0100
0100
1000
0000
0001
0010
1000
0000
0001
0010
,
0100
1000
0010
0100
0000
0000
0001
0000
0000
1000
0100
0010
0001
0000
0000
0110
0000
0000
2200
0000
0000
3300
0000
0000
,
0210
0000
0300
0001
0020
0000
0030
0100
2000
3000
0010
0001
0100
0000
0010
0100
,
1000
0000
0100
0000
0010
0000
0002
0000
0000
0003
0000
0000
0100
0000
0010
0000
0100
0000
0002
0000
0000
0003
0000
0000
2200
0000
0000
0000
0000
0000
3300
0000
0000
0000
0000
0000
0022
0000
0000
0000
0000
0000
0033
0000
0000
0000
0000
0000
,
1001
0000
0010
0000
0100
0000
2000
0000
0000
3000
0000
0000
0020
0000
0000
0030
0000
0000
1000
0000
0000
0100
0000
0000
0010
0000
0100
0000
1000
0000
0002
0000
0000
0003
0000
0000
2000
0000
0000
3000
0000
0000
0000
0000
0000
0000
0000
0000
,
0001
0000
0010
0000
0100
0000
0010
0000
0000
0000
0000
0000
0002
0000
0000
0003
0000
0000
1000
0000
0000
0100
0000
0000
2000
0000
0000
3000
0000
0000
0010
0000
0000
0100
0000
0000
0002
0000
0000
0003
0000
0000
1000
0000
0010
0000
0100
0000
,
0001
0000
0000
0010
0000
0000
0200
0000
0000
0300
0000
0000
0010
0000
0000
0001
0000
0000
0200
0000
0000
0300
0000
0000
0001
0000
0010
0000
0001
0000
2000
0000
0000
3000
0000
0000
0020
0000
0000
0030
0000
0000
1000
0000
0000
0100
0000
0000
,
0020
0030
0001
0010
0002
0003
1000
0010
0200
0300
1010
0000
2020
0000
3030
0000
,
1001
0000
0100
0000
0010
0000
0200
0000
0000
0300
0000
0000
0002
0000
0000
0003
0000
0000
0010
0000
0000
1000
0000
0000
0100
0000
0010
0000
0100
0000
0002
0000
0000
0003
0000
0000
0020
0000
0000
0030
0000
0000
0100
0000
0000
0010
0000
0000
,
1000
0000
0100
0000
0010
0000
0002
0000
0000
0003
0000
0000
0020
0000
0000
0030
0000
0000
0100
0000
0000
1000
0000
0000
0002
0000
0000
0003
0000
0000
0010
0000
0000
1000
0000
0000
0002
0000
0000
0003
0000
0000
0010
0000
0000
1000
0000
0000
,
0001
0000
1000
0000
0010
0000
0200
0000
0000
0300
0000
0000
0001
0000
0000
0010
0000
0000
0200
0000
0000
0300
0000
0000
1000
0000
0100
0000
0010
0000
0002
0000
0000
0003
0000
0000
2000
0000
0000
3000
0000
0000
0001
0000
0000
0010
0000
0000
,
1100
0000
0000
1001
0100
0010
0001
0000
0000
0011
0000
0000
2020
0000
0000
0000
0000
0000
0000
0000
0000
3030
0000
0000
,
0011
0000
0000
1010
0101
1100
0000
0000
,
0011
0000
0000
0000
0000
0000
0100
0000
0000
0000
0000
0000
1000
0000
0000
0000
0000
0000
0001
0000
0000
0010
0000
0000
0100
0000
0001
0000
0100
0000
0010
0000
0000
0000
0000
0000
1000
0000
0000
0000
0000
0000
0010
0000
0000
0100
0000
0000
,
0002
0000
0000
0000
0103
0000
1010
0110
0101
0000
0000
0000
0000
0000
1010
0000
,
0101
0010
1000
0000
0001
1000
0010
0100
0001
0000
0000
1000
0100
0010
0001
0010
,
2100
0000
3010
0011
1010
0000
0000
0101
,
0011
0000
0000
0000
0000
0000
1000
0000
0000
0000
0000
0000
0100
0000
0000
0000
0000
0000
1000
0000
0000
0010
0000
0000
0100
0000
0010
0000
0001
0000
1000
0000
0000
0000
0000
0000
0010
0000
0000
0000
0000
0000
1100
0000
0000
0000
0000
0000
,
0101
1010
0000
0110
0101
0000
0000
1100
,
2020
0000
0000
0000
0000
3030
0011
1100
,
1001
0000
0100
0000
0010
0000
0002
0000
0000
0003
0000
0000
0200
0000
0000
0300
0000
0000
1000
0000
0000
0001
0000
0000
0010
0000
0100
0000
1000
0000
0002
0000
0000
0003
0000
0000
0200
0000
0000
0300
0000
0000
0000
0000
0000
0000
0000
0000
,
1000
0000
0100
0000
0010
0000
0200
0000
0000
0300
0000
0000
0002
0000
0000
0003
0000
0000
0100
0000
0000
0010
0000
0000
2000
0000
0000
3000
0000
0000
0001
0000
0000
0100
0000
0000
0020
0000
0000
0030
0000
0000
0001
0000
0010
0000
0100
0000
,
1000
0000
0000
0001
0000
0000
0200
0000
0000
0300
0000
0000
0010
0000
0000
0001
0000
0000
0200
0000
0000
0300
0000
0000
1000
0000
0010
0000
0100
0000
0020
0000
0000
0030
0000
0000
0002
0000
0000
0003
0000
0000
1000
0000
0000
0010
0000
0000
,
0002
0003
0100
0010
0002
0003
0100
0010
0200
0300
0011
0000
0022
0000
0033
0000
,
0011
0000
0100
0000
0010
0000
2000
0000
0000
3000
0000
0000
0002
0000
0000
0003
0000
0000
0010
0000
0000
0001
0000
0000
0100
0000
0010
0000
0001
0000
2000
0000
0000
3000
0000
0000
0002
0000
0000
0003
0000
0000
1000
0000
0000
0010
0000
0000
,
1000
0000
0100
0000
0010
0000
0002
0000
0000
0003
0000
0000
0020
0000
0000
0030
0000
0000
0001
0000
0000
1000
0000
0000
0200
0000
0000
0300
0000
0000
0010
0000
0000
0100
0000
0000
0002
0000
0000
0003
0000
0000
0010
0000
0000
0100
0000
0000
,
1000
0000
0100
0000
0010
0000
0002
0000
0000
0003
0000
0000
1000
0000
0000
0010
0000
0000
0200
0000
0000
0300
0000
0000
1000
0000
0100
0000
1000
0000
0002
0000
0000
0003
0000
0000
0200
0000
0000
0300
0000
0000
0001
0000
0000
0100
0000
0000
,
0011
0000
0000
1001
0010
0100
1000
0000
0000
0110
0000
0000
2200
0000
0000
0000
0000
0000
0000
0000
0000
3300
0000
0000
,
1010
0000
0000
0000
0000
0000
1010
0000
0000
0000
0000
0000
0002
0000
0000
0003
0000
0000
0010
0000
0000
1000
0000
0000
0010
0000
0000
0000
0000
0000
1000
0000
0100
0000
0010
0000
0002
0000
0000
0003
0000
0000
0010
0000
0000
0100
0000
0000
,
1000
0000
0000
0000
0000
0000
0001
0000
0010
0000
0001
0000
1000
0000
0000
0000
0000
0000
0010
0000
0000
0100
0000
0000
0020
0000
0000
0030
0000
0000
0100
0000
0000
0000
0000
0000
0200
0000
0000
0000
0000
0000
0300
0000
0000
0000
0000
0000
,
1010
0000
0000
0000
0000
0000
1010
0000
0000
0000
0000
0000
0002
0000
0000
0000
0000
0000
0103
0000
0000
1000
0000
0000
0100
0000
0000
0000
0000
0000
0010
0000
0001
0000
0010
0000
0100
0000
0000
0000
0000
0000
1000
0000
0000
0100
0000
0000
,
0010
0000
0000
0000
0000
0000
0001
0000
1000
0000
0010
0000
0100
0000
0000
0000
0000
0000
0001
0000
0000
1000
0000
0000
0010
0000
0000
0000
0000
0000
0110
0000
0000
0000
0000
0000
0220
0000
0000
0000
0000
0000
0330
0000
0000
0000
0000
0000
,
2002
0000
3003
0100
0010
0001
1000
0010
,
0100
1000
0010
0100
0001
0000
0100
0000
0020
0000
0000
0000
0000
0000
0030
0000
,
2000
3000
0100
0100
0100
0000
0010
0000
0001
0000
0100
0000
0001
0000
1000
0000
,
0001
0010
0100
0010
0001
0000
1000
0000
0020
0000
0000
0000
0000
0000
0030
0000
,
2000
0000
0000
0000
0000
0000
3000
0000
0000
0000
0000
0000
0010
0000
0100
0000
1000
0000
0100
0000
0000
0000
0000
0000
0002
0000
0000
0003
0000
0000
0010
0000
0000
0010
0000
0000
1000
0000
0100
0000
0010
0000
0001
0000
0000
0000
0000
0000
,
0020
0000
0000
0030
0000
0000
1000
0000
0000
1000
0000
0000
0001
0000
0100
0000
0010
0000
1000
0000
0000
0000
0000
0000
0020
0000
0000
0000
0000
0000
0000
0000
0000
0000
0000
0000
0000
0000
0000
0000
0000
0000
0030
0000
0000
0000
0000
0000
,
1100
1100
0110
0110
0011
0011
2002
3003
,
1010
1010
0101
0101
0220
0330
0011
1001
,
0220
0330
0101
1010
0110
0011
0000
1010
,
0101
1000
0100
0010
0001
0000
1100
0000
0220
0000
0000
0000
0000
0000
0330
0000
,
0000
0000
0110
1100
1001
0011
0000
0011
,
0110
0001
1000
0010
0100
0000
0011
0000
2020
0000
0000
0000
0000
0000
3030
0000
,
0101
0000
0000
0000
0000
0000
0100
0000
0000
1000
0000
0000
0001
0000
0010
0000
0100
0000
0010
0000
0000
0000
0000
0000
1100
0000
0000
0000
0000
0000
0010
0000
0000
0100
0000
0000
1000
0000
0100
0000
0010
0000
0001
0000
0000
0000
0000
0000
,
1010
0000
0000
0000
0000
0000
1000
0000
0000
0100
0000
0000
0010
0000
0100
0000
1000
0000
0100
0000
0000
0000
0000
0000
0022
0000
0000
0000
0000
0000
0033
0000
0000
0000
0000
0000
1010
0000
0000
0000
0000
0000
0000
0000
0000
0000
0000
0000
,
0011
0000
0022
0033
0100
0010
1100
0000
0110
0000
0011
0000
0202
0000
0303
0000
,
1100
0000
0101
0000
0011
0000
0110
0000
2200
3300
0010
0001
0000
0001
0010
0000
,
0110
0000
0220
0330
0001
0010
1100
0000
1001
0000
0011
0000
0220
0000
0330
0000
,
1001
0000
0011
0000
0110
0000
1100
0000
0110
0001
0010
0001
0010
0001
0010
0001
,
0010
0100
1000
0010
0100
0001
0010
0001
1000
0010
0100
0001
0100
0010
1000
0100
,
1000
0010
0100
0001
0010
0100
1000
0100
0010
0001
0010
0100
0010
0001
1000
0100
,
0010
0100
1000
0001
1000
0001
0100
0010
0100
0001
0010
0001
1000
0010
1000
0001
,
0100
0001
0010
0100
1000
0010
0100
0001
0010
0100
1000
0100
0010
0001
1000
0010
,
1100
0000
0000
0000
0000
0000
1000
0000
0000
0100
0000
0000
0010
0000
0001
0000
0010
0000
0100
0000
0000
0000
0000
0000
1100
0000
0000
0000
0000
0000
0010
0000
0000
0100
0000
0000
1000
0000
0001
0000
0010
0000
0100
0000
0000
0000
0000
0000
,
1100
0000
0000
0000
0000
0000
0001
0000
0000
1000
0000
0000
0100
0000
1000
0000
0001
0000
0010
0000
0000
0000
0000
0000
1100
0000
0000
0000
0000
0000
0000
0000
0000
0000
0000
0000
2002
0000
0000
0000
0000
0000
3003
0000
0000
0000
0000
0000
,
0110
1100
0011
0110
0101
0011
0110
1100
,
0202
0303
0011
0110
2200
3300
0202
0303
,
1010
2020
3030
0011
0110
1100
1001
0011
,
0110
0101
0011
1100
0202
0303
2020
3030
,
0002
0000
0000
0003
0000
0000
1000
0000
0100
0000
0010
0000
0002
0000
0000
0003
0000
0000
2000
0000
0000
3000
0000
0000
0002
0000
0000
0003
0000
0000
1000
0000
0100
0000
0010
0000
0200
0000
0000
0300
0000
0000
0001
0000
0010
0000
0001
0000
,
0200
0000
0000
0300
0000
0000
0000
0000
0010
0000
1000
0000
0200
0000
0000
0300
0000
0000
0002
0000
0000
0003
0000
0000
1000
0000
0000
0010
0000
0000
0200
0000
0000
0300
0000
0000
0001
0000
0000
0010
0000
0000
1000
0000
0000
0100
0000
0000
,
0002
0000
0000
0003
0000
0000
0010
0000
0100
0000
1000
0000
0002
0000
0000
0003
0000
0000
0020
0000
0000
0030
0000
0000
1000
0000
0100
0000
0010
0000
0100
0000
0010
0000
0001
0000
1000
0000
0000
0010
0000
0000
0100
0000
0000
0010
0000
0000
,
1000
0000
0000
0100
0000
0000
0010
0000
0001
0000
0010
0000
0100
0000
0010
0000
0001
0000
1000
0000
0010
0000
0100
0000
0020
0000
0000
0000
0000
0000
0000
0000
0000
0000
0000
0000
0000
0000
0000
0000
0000
0000
0030
0000
0000
0000
0000
0000
,
0000
0000
0000
0000
1000
0100
1000
0010
0100
0001
0010
0001
1000
0100
0010
0100
1000
0001
0010
0100
0010
0001
1000
0010
,
0200
0000
0000
0300
0010
0100
0001
1000
0010
0100
0010
1000
0100
1000
0010
0100
0001
0010
0002
0000
0000
0003
0000
0000
,
1000
0010
0100
0001
0010
0001
1000
0010
1000
0001
0010
0100
1000
0100
0010
0001
1000
0100
1000
0100
0010
0001
0010
0001
,
1000
0010
0100
0001
0010
0001
1000
0100
0010
0100
1000
0010
0200
0000
0000
0000
0000
0000
0000
0000
0000
0300
0000
0000
,
0002
0000
0000
0000
0103
0000
0010
1000
0010
0000
0001
0000
0100
0000
0001
0010
,
0100
0000
0000
0000
0000
0000
1000
0000
0000
0000
0000
0000
0010
0000
0000
0000
0000
0000
1000
0000
0000
0100
0000
0000
0010
0000
1000
0000
0001
0000
0100
0000
0000
0000
0000
0000
0010
0000
0000
0000
0000
0000
1000
0000
0000
0100
0000
0000
,
2000
0000
0000
0000
3010
0000
0100
1000
0100
0000
0010
0000
0100
0000
0001
0010
,
0001
0000
0000
0000
0000
0000
0100
0000
0000
0000
0000
0000
0010
0000
0000
0000
0000
0000
0001
0000
0000
1000
0000
0000
0010
0000
0100
0000
0001
0000
1000
0000
0000
0000
0000
0000
0010
0000
0000
0000
0000
0000
0100
0000
0000
1000
0000
0000
,
0022
0000
0033
0000
2020
3030
0001
0100
0001
0000
0010
0000
0100
0000
0010
1000
,
0100
0000
0010
0000
0100
0000
1000
0000
0000
0000
0000
0000
0001
0000
0000
0000
0000
0000
0100
0000
0000
0000
0000
0000
1000
0000
0000
0000
0000
0000
0100
0000
0000
0010
0000
0000
0001
0000
0000
0000
0000
0000
1000
0000
0100
0000
0010
0000
,
0002
0000
0003
0000
0200
0000
0310
0001
0010
0000
1000
0000
0100
0000
0000
0000
,
0001
0010
0100
1000
0000
0000
1000
0000
0000
0001
0000
0000
2200
0000
0000
3300
0000
0000
0220
0000
0000
0330
0000
0000
,
0011
0000
0100
0000
0010
0000
0200
0000
0000
0300
0000
0000
0020
0000
0000
0030
0000
0000
0100
0000
0000
0001
0000
0000
1000
0000
0010
0000
0100
0000
0002
0000
0000
0003
0000
0000
0020
0000
0000
0030
0000
0000
0000
0000
0000
0000
0000
0000
,
0001
0000
0010
0000
0100
0000
2000
0000
0000
3000
0000
0000
0020
0000
0000
0030
0000
0000
0100
0000
0000
0001
0000
0000
2000
0000
0000
3000
0000
0000
0010
0000
0000
0100
0000
0000
0020
0000
0000
0030
0000
0000
0100
0000
0010
0000
0100
0000
,
1000
0000
0000
0010
0000
0000
2000
0000
0000
3000
0000
0000
0010
0000
0000
0100
0000
0000
0002
0000
0000
0003
0000
0000
1000
0000
0010
0000
0100
0000
0002
0000
0000
0003
0000
0000
0200
0000
0000
0300
0000
0000
1000
0000
0000
0100
0000
0000
,
0020
0030
0100
0010
0002
0003
0010
1000
0001
0000
1010
0000
2020
0000
3030
0000
,
1010
0000
0100
0000
0010
0000
0002
0000
0000
0003
0000
0000
2000
0000
0000
3000
0000
0000
0100
0000
0000
0001
0000
0000
0010
0000
0100
0000
1000
0000
0002
0000
0000
0003
0000
0000
0200
0000
0000
0300
0000
0000
0001
0000
0000
0010
0000
0000
,
0001
0000
0010
0000
0100
0000
2000
0000
0000
3000
0000
0000
0020
0000
0000
0030
0000
0000
0001
0000
0000
1000
0000
0000
0020
0000
0000
0030
0000
0000
1000
0000
0000
0001
0000
0000
0200
0000
0000
0300
0000
0000
0010
0000
0000
0001
0000
0000
,
0100
0000
0010
0000
0100
0000
0002
0000
0000
0003
0000
0000
0100
0000
0000
0010
0000
0000
0200
0000
0000
0300
0000
0000
1000
0000
0100
0000
1000
0000
0020
0000
0000
0030
0000
0000
2000
0000
0000
3000
0000
0000
0010
0000
0000
0001
0000
0000
,
1010
0000
0000
1100
0010
0001
0010
0000
0000
0110
0000
0000
0202
0000
0000
0000
0000
0000
0000
0000
0000
0303
0000
0000
,
0101
0000
0010
0000
0100
0000
2000
0000
0000
3000
0000
0000
0020
0000
0000
0030
0000
0000
0100
0000
0000
0001
0000
0000
0010
0000
0100
0000
1000
0000
0002
0000
0000
0003
0000
0000
0020
0000
0000
0030
0000
0000
0000
0000
0000
0000
0000
0000
,
0001
0000
0100
0000
0010
0000
2000
0000
0000
3000
0000
0000
0200
0000
0000
0300
0000
0000
0001
0000
0000
1000
0000
0000
0020
0000
0000
0030
0000
0000
1000
0000
0000
0100
0000
0000
0020
0000
0000
0030
0000
0000
1000
0000
0100
0000
0010
0000
,
0100
0000
0000
1000
0000
0000
0002
0000
0000
0003
0000
0000
0100
0000
0000
0001
0000
0000
0200
0000
0000
0300
0000
0000
1000
0000
0010
0000
0100
0000
0020
0000
0000
0030
0000
0000
0200
0000
0000
0300
0000
0000
0001
0000
0000
1000
0000
0000
,
0002
0003
0100
1000
0200
0300
0001
0010
0200
0300
1001
0000
2002
0000
3003
0000
,
0110
0000
0001
0000
1000
0000
0020
0000
0000
0030
0000
0000
0200
0000
0000
0300
0000
0000
1000
0000
0000
0010
0000
0000
0100
0000
0010
0000
0001
0000
0020
0000
0000
0030
0000
0000
2000
0000
0000
3000
0000
0000
0001
0000
0000
0010
0000
0000
,
0100
0000
1000
0000
0100
0000
0020
0000
0000
0030
0000
0000
0200
0000
0000
0300
0000
0000
0010
0000
0000
1000
0000
0000
0200
0000
0000
0300
0000
0000
1000
0000
0000
0010
0000
0000
0002
0000
0000
0003
0000
0000
0100
0000
0000
0010
0000
0000
,
1000
0000
0100
0000
1000
0000
0002
0000
0000
0003
0000
0000
0100
0000
0000
0010
0000
0000
2000
0000
0000
3000
0000
0000
0010
0000
0100
0000
1000
0000
0002
0000
0000
0003
0000
0000
0020
0000
0000
0030
0000
0000
0001
0000
0000
1000
0000
0000
,
0110
0000
0000
1001
0010
0100
1000
0000
0000
0110
0000
0000
0022
0000
0000
0000
0000
0000
0000
0000
0000
0000
0000
0000
,
0000
0000
0000
0033
;
