#TITLE:ENRAPTURED SOULZ;
#SUBTITLE:;
#ARTIST:INVADER;
#TITLETRANSLIT:;
#SUBTITLETRANSLIT:;
#ARTISTTRANSLIT:;
#CREDIT:;
#BANNER:ENRAPTURED SOULZ-bn.png;
#BACKGROUND:ENRAPTURED SOULZ-bg.png;
#LYRICSPATH:;
#CDTITLE:!ExigeTitle.png;
#MUSIC:ENRAPTURED SOULZ.mp3;
#OFFSET:-5.614;
#SAMPLESTART:40.229;
#SAMPLELENGTH:15.500;
#SELECTABLE:YES;
#BPMS:0.000=172.540;
#STOPS:;
#BGCHANGES:;
// cache tags:
#FIRSTBEAT:0.000;
#LASTBEAT:276.000;
#SONGFILENAME:Songs/Keyboard Collaboration II/Exige - ENRAPTURED SOULZ/ENRAPTURED SOULZ.sm;
#HASMUSIC:1;
#HASBANNER:1;
#MUSICLENGTH:103.288;
// end cache tags

//---------------dance-single - ----------------
#NOTES:
     dance-single:
     :
     Hard:
     12:
     1.000,1.000,1.000,0.668,1.000,742.000,281.000,69.000,0.000,7.000:  // measure 1
0110
0000
0000
1001
0000
0000
0101
0000
0000
1100
0000
0000
0011
0000
1010
0000
,  // measure 2
1100
0000
0000
1001
0000
0000
0110
0000
0000
1010
0000
0000
0011
0000
1001
0000
,  // measure 3
1000
0010
0001
1000
0001
0010
0100
0010
1000
0100
0010
1000
0100
0001
1000
0100
,  // measure 4
0011
0000
0000
0000
0000
0000
1001
0000
0000
0000
0000
0000
0011
0000
0000
0000
0000
0000
1010
0000
0000
0000
0000
0000
0100
0000
1000
0000
0001
0010
0100
1000
,  // measure 5
0011
0100
0000
0100
0011
0000
1100
0010
0000
0010
1100
0000
1000
0100
0001
0100
,  // measure 6
0011
1000
0000
0001
0110
0000
1100
0010
0000
1000
0101
0000
1000
0100
0001
0100
,  // measure 7
1001
0010
0000
0100
1010
0000
0011
1000
0000
0001
1100
0000
0001
0010
0100
0010
,  // measure 8
1100
0010
0000
0100
1010
0000
0010
1001
0000
0010
1100
0000
0010
1000
0100
0001
,  // measure 9
1010
0100
0000
0010
1001
0000
0011
1000
0000
0010
1100
0000
1000
0010
0100
0010
,  // measure 10
1001
0010
0000
0010
0101
0000
1001
0100
0000
1000
0101
0000
0001
0100
0010
0001
,  // measure 11
0110
1000
0000
0100
1001
0000
1100
0001
0000
0100
1001
0000
0001
0100
1000
0010
,  // measure 12
1001
0100
0000
0010
0101
0000
0010
1100
0000
0001
1010
0000
0001
0010
0100
1000
,  // measure 13
0011
0100
0000
0010
1001
0000
0001
1010
0000
1001
0100
0000
0100
1000
0010
0100
,  // measure 14
1001
0100
0000
0010
1001
0000
0101
1000
0000
0001
1010
0000
0100
1000
0001
0010
,  // measure 15
1100
0010
0000
0001
0110
0000
0100
1001
0000
1000
0101
0000
0001
0010
1000
0001
,  // measure 16
1010
0001
0000
0100
1001
0000
0010
1001
0000
1000
0110
0000
1000
0100
0001
0100
,  // measure 17
1010
0001
0000
1000
0101
0000
1010
0100
0000
0001
0110
0000
0010
0100
0010
1000
,  // measure 18
0011
0100
0000
0010
0101
0000
0001
0110
0000
0100
0011
0000
1000
0001
0100
0001
,  // measure 19
0110
1000
0000
0100
1001
0000
1000
0011
0000
1000
0101
0000
0010
0100
0001
0010
,  // measure 20
1000
0000
0000
0000
0000
0000
0000
0000
0000
0000
0000
0000
0100
0000
0000
0000
0000
0000
0000
0000
0000
0000
0000
0000
0010
0000
0000
0000
0000
0000
0000
0000
0000
0000
0000
0000
0001
0000
0000
0000
0000
0000
0000
0000
0000
0000
0000
0000
1000
0000
0000
0000
0000
0000
0000
0000
0100
0000
0000
0000
0000
0000
0000
0000
0010
0000
0000
0000
0000
0000
0000
0000
0001
0000
0000
0000
0000
0000
0000
0000
1000
0000
0000
0000
0000
0000
0000
0000
0100
0000
0000
0000
0000
0000
0000
0000
0010
0000
0000
0000
0000
0000
0001
0000
0000
0000
0000
0000
1000
0000
0000
0000
0000
0000
0100
0000
0000
0000
0000
0000
0010
0000
0000
0000
0000
0000
0001
0000
0000
0000
0000
0000
1000
0000
0000
0000
0000
0000
0100
0000
0000
0000
0000
0000
0010
0000
0000
0000
0000
0000
0001
0000
0000
0000
0000
0000
1000
0000
0000
0000
0000
0000
0100
0000
0000
0000
0000
0000
0010
0000
0000
0000
0000
0000
0001
0000
0000
0000
0000
0000
1000
0000
0000
0000
0000
0000
0100
0000
0000
0000
0000
0000
,  // measure 21
0011
0000
0000
0101
0000
0000
0011
0000
1001
0000
0000
0011
0000
0110
1001
0000
,  // measure 22
1100
0000
1010
0000
1001
0000
0011
0100
0000
0100
0011
0000
1001
0100
1010
0001
,  // measure 23
1100
0000
1010
0000
0101
0000
1010
0001
0000
0001
1100
0001
1010
0100
0011
1000
,  // measure 24
0110
0000
0101
0010
0000
0010
1100
0000
1100
0010
0000
0010
1100
0010
0101
1000
,  // measure 25
0110
0000
1100
0010
0000
0000
0101
0000
0101
0010
0000
1000
0101
0010
1001
0010
,  // measure 26
1100
0000
1100
0010
0000
0001
0110
0000
1001
0100
0000
0010
1001
0010
0101
0010
,  // measure 27
0102
0000
0000
0000
1023
0000
0000
0000
0231
0000
0000
0000
0000
2301
0000
0000
,  // measure 28
3021
0000
0000
0000
0000
0000
1032
0000
0000
2103
0000
0000
0000
3201
0000
0300
,  // measure 29
1001
0000
0000
0011
0000
0000
1100
0000
1010
0000
0000
1001
0000
0010
1100
0000
,  // measure 30
0011
0000
1001
0000
0011
0000
1100
0010
0000
0010
1001
0000
0110
1000
0101
0010
,  // measure 31
1001
0000
0011
0000
0101
0000
0011
0100
0000
0101
0000
0100
1000
0010
0101
1000
,  // measure 32
0011
0000
0110
0001
0000
1000
0110
0000
1010
0001
0000
0010
1100
0010
1001
0010
,  // measure 33
0101
0000
1100
0010
0000
1000
0101
0000
0011
0100
0000
0100
1001
0010
0101
1000
,  // measure 34
0011
0000
1001
0010
0000
0010
1100
0000
0110
0001
0000
0100
1001
0010
0101
0010
,  // measure 35
0001
0000
0000
0000
0000
0000
0000
0000
0000
0000
0000
0000
0010
0000
0000
0000
0000
0000
0000
0000
0000
0000
0000
0000
0100
0000
0000
0000
0000
0000
0000
0000
0000
0000
0000
0000
1000
0000
0000
0000
0000
0000
0000
0000
0000
0000
0000
0000
0001
0000
0000
0000
0000
0000
0000
0000
0010
0000
0000
0000
0000
0000
0000
0000
0100
0000
0000
0000
0000
0000
0000
0000
1000
0000
0000
0000
0000
0000
0000
0000
0001
0000
0000
0000
0000
0000
0000
0000
0010
0000
0000
0000
0000
0000
0000
0000
0100
0000
0000
0000
0000
0000
0000
0000
1000
0000
0000
0000
0000
0000
0000
0000
0001
0000
0000
0000
0000
0000
0000
0000
0010
0000
0000
0000
0000
0000
0000
0000
0100
0000
0000
0000
0000
0000
0000
0000
1000
0000
0000
0000
0000
0000
0000
0000
0001
0000
0000
0000
0000
0000
0010
0000
0000
0000
0000
0000
0100
0000
0000
0000
0000
0000
1000
0000
0000
0000
0000
0000
0001
0000
0000
0000
0000
0000
0010
0000
0000
0000
0000
0000
0100
0000
0000
0000
0000
0000
1000
0000
0000
0000
0000
0000
,  // measure 36
0002
0000
2000
0000
,  // measure 37
3003
0000
0220
0000
0000
0330
2020
0000
0000
3030
0022
0000
0000
0033
2020
0000
,  // measure 38
0000
3030
0220
0000
0000
0330
2020
0000
0000
3030
0202
0000
0000
0303
2002
0000
,  // measure 39
0000
3003
0202
0000
0000
0303
2200
0000
0000
3300
0022
0000
0000
0033
0202
0000
,  // measure 40
0000
0303
0022
0000
0000
0033
2020
0000
0000
3030
0022
0000
0000
0033
2020
0000
,  // measure 41
0000
3030
0202
0000
0000
0303
2200
0000
0000
3300
0022
0000
0000
0033
0202
0000
,  // measure 42
0000
0303
2020
0000
0000
3030
0022
0000
0000
0033
2200
0000
0000
3300
2002
0000
,  // measure 43
0000
3003
0202
0000
0000
0303
2020
0000
0000
3030
2200
0000
0000
3300
0101
0000
,  // measure 44
2001
0100
0020
0000
0000
0000
0000
3030
,  // measure 45
1001
0100
0001
1000
0100
1000
0100
0010
0001
0010
0001
1000
0100
0010
0001
1000
,  // measure 46
0001
0010
0100
0010
1000
0010
0100
1000
0001
0100
0010
0001
1000
0100
0001
1000
,  // measure 47
0100
0001
0100
0010
0001
0010
1000
0010
0001
1000
0100
1000
0001
0100
0010
1000
,  // measure 48
0100
0010
0001
0010
0100
0010
1000
0100
0001
1000
0010
1000
0100
0001
1000
0001
,  // measure 49
0010
1000
0010
0100
0001
0100
0010
1000
0010
0001
1000
0100
0010
0100
0001
0010
,  // measure 50
1000
0001
0100
1000
0001
1000
0100
1000
0010
0001
0100
1000
0100
1000
0001
0010
,  // measure 51
0100
0010
0100
1000
0001
0100
1000
0100
0010
1000
0010
0100
0001
1000
0001
0010
,  // measure 52
1002
0010
2000
0000
0000
0000
0000
3003
,  // measure 53
1100
0010
0000
0101
0000
0000
0110
0001
1100
0010
0000
1010
0000
0100
0011
0100
,  // measure 54
1010
0001
0000
0101
0000
0000
1100
0010
1001
0010
1100
0001
0000
0000
0011
0100
,  // measure 55
1010
0100
0000
0011
0000
0000
0011
0100
1010
0001
0000
0110
0000
0010
0101
1000
,  // measure 56
0011
0100
0000
0110
0000
0000
1100
0001
0110
1000
0101
1000
0000
0000
0011
0100
,  // measure 57
1010
0100
0000
0101
0000
0000
0011
1000
0101
0010
0000
1010
0000
0010
1100
0001
,  // measure 58
0110
1000
0000
0110
0000
0000
0011
1000
0101
0010
1001
0100
0000
0000
0101
1000
,  // measure 59
0011
1000
0000
0011
0000
0000
0110
1000
0011
0100
0000
0110
0000
0010
1100
0010
,  // measure 60
1001
0100
0000
1100
0000
0000
0101
1000
0011
1000
0011
1000
0100
0010
0101
1000
,  // measure 61
0101
1000
0000
1100
0000
0000
0011
0100
1010
0001
0000
1010
0000
0001
1100
0010
,  // measure 62
1001
0100
0000
0011
0000
0000
0110
0001
1010
0100
0011
1000
0000
0000
0110
0001
,  // measure 63
1010
0001
0000
0110
0000
0000
1100
0001
1010
0001
0000
1100
0000
0100
0011
0100
,  // measure 64
1001
0010
0000
1100
0000
0000
0110
0001
1010
0001
0110
0001
0000
1000
0011
0100
,  // measure 65
1010
0100
0000
0011
0000
0000
0011
0100
1010
0001
0000
1100
0000
0010
0101
0010
,  // measure 66
1001
0100
0000
1001
0000
0000
0110
0001
1010
0100
1001
0100
0000
0000
0011
1000
,  // measure 67
0101
1000
0000
1010
0000
0000
0110
1000
0011
0100
0000
1010
0000
0001
1100
0001
,  // measure 68
1000
0000
0000
0100
0000
0000
0001
0000
0000
0010
0000
0000
0100
0000
0000
1000
0000
0000
0010
0000
0000
0100
0000
0000
0010
0000
0000
1000
0000
0000
0100
0000
0010
0000
0001
0000
0010
0000
0100
0000
1000
0000
0001
0000
0010
0000
0100
0000
,  // measure 69
2000
0000
0000
0000
,  // measure 70
3000
0000
0000
0000
;
