#TITLE:CRT;
#SUBTITLE:;
#ARTIST:The Quick Brown Fox;
#TITLETRANSLIT:;
#SUBTITLETRANSLIT:;
#ARTISTTRANSLIT:;
#CREDIT:owenviau1;
#BANNER:../BN.png;
#BACKGROUND:;
#LYRICSPATH:;
#CDTITLE:../CDTitleOV1.png;
#MUSIC:The Quick Brown Fox - WANDERLUST - 05 CRT.ogg;
#OFFSET:0.121;
#SAMPLESTART:28.458;
#SAMPLELENGTH:29.999;
#SELECTABLE:YES;
#BPMS:0.000=90.053,35.000=180.106,51.000=360.212,179.000=180.106,323.000=360.212,451.000=90.053;
#STOPS:;
#BGCHANGES:;
// cache tags:
#FIRSTBEAT:0.250;
#LASTBEAT:480.750;
#SONGFILENAME:Songs/owenviau1 Simfiles 07_final/CRT - [owenviau1] v1.1.6/CRT.sm;
#HASMUSIC:1;
#HASBANNER:1;
#MUSICLENGTH:151.118;
// end cache tags

//---------------dance-single - owenviau1----------------
#NOTES:
     dance-single:
     owenviau1:
     Challenge:
     17:
     0.956,1.000,0.000,0.344,0.807,959.000,0.000,52.000,6.000,1.000:

0000
0002
0000
0000
0000
0000
0000
0000
0000
0000
0000
0000
0000
0000
0000
0000
,
0000
0000
0000
0000
,
0000
0000
0000
0000
,
0000
0000
0000
0000
,
0000
0000
0000
0000
,
0000
0000
0000
0000
,
0000
0000
0000
0000
,
0000
0000
0000
0000
,
0000
0000
0000
0000
0000
0000
0000
0000
0000
0000
0000
0000
2003
3100
0010
0001
,
1M00
0010
0100
0001
0100
0010
1000
0001
0100
0001
0010
0100
20M0
3001
0010
0001
,
0100
0010
1000
0001
0100
0001
1000
0010
0100
0001
0100
0010
2M00
3001
0010
0100
,
1000
0001
0010
0001
0100
0010
0100
0001
1000
0100
0010
0001
M020
0130
1000
0001
,
02M0
0000
0301
0000
1000
0000
0100
0000
M020
0000
0031
0000
1000
0000
0010
0000
0100
0000
0001
1000
0001
1000
0001
1000
0001
0000
0000
0000
0010
0000
0000
0000
,
0100
1000
0001
0100
0010
0100
0001
1000
,
0010
1000
0001
0100
0010
0100
0001
1000
,
0100
0010
0001
1000
0100
1000
0001
0100
,
0010
0000
1000
0000
0001
0100
0001
0000
1000
0000
0100
0000
0010
0000
0001
0000
,
1000
0100
1000
0001
0100
0010
1000
0001
,
0100
0001
0010
0100
1000
0001
0010
0001
,
1000
0100
1000
0010
0100
0001
1000
0100
,
0010
0000
0001
0000
1000
0010
1000
0010
1000
0000
0001
0000
0100
0000
0010
0000
,
0100
0001
1000
0100
1000
0001
0100
0010
,
1000
0010
0100
0001
1000
0001
0010
0100
,
1000
0001
0100
0001
1000
0010
0100
0010
,
1000
0000
0001
0000
0010
0000
0100
1000
0100
1000
0100
0000
0010
0000
0001
0000
,
1000
0010
0100
0010
1000
0001
1000
0010
,
0100
0001
1000
0100
0010
0001
1000
0010
,
0100
0010
1000
0001
0100
0001
1000
0100
,
0010
0000
0001
0000
1000
0100
1000
0100
1000
0000
0010
0000
0100
0000
0010
0000
,
1000
0001
1000
0100
0010
0001
0100
0001
,
1000
0010
1000
0001
0100
0010
0100
0001
,
1000
0001
0010
0100
1000
0001
0100
0010
,
1000
0000
0010
0000
0100
0001
0100
0000
0010
0000
1000
0000
0001
0000
1000
0000
,
0100
0010
0001
1000
0100
1000
0001
0010
,
0001
0100
0010
1000
0010
0100
0001
1000
,
0001
0010
0100
1000
0001
0010
0001
1000
,
0010
0000
0100
0000
0001
1000
0001
1000
0001
0000
0100
0000
0010
0000
0100
0000
,
0001
1000
0001
0010
0100
1000
0001
0100
,
0010
1000
0001
1000
0100
0010
0001
0100
,
0010
0100
0001
1000
0010
0100
0010
1000
,
0001
0000
1000
0000
0100
0000
0010
0001
0010
0001
0010
0000
0100
0000
1000
0000
,
0001
0100
0010
0100
0001
1000
0001
0010
,
0100
1000
0001
0100
0001
1000
0100
1000
,
0001
0100
0010
0100
0001
1000
0010
1000
,
0001
0000
0100
0000
0001
1000
0001
1000
0001
0000
0010
0000
0200
0000
0000
0000
,
0000
0000
0000
2300
,
0000
0000
0000
3002
,
0000
0000
0000
0203
,
0000
0000
0000
0320
,
0000
0000
0000
0230
,
0000
0000
0000
0302
,
0000
0000
0000
2003
,
0000
0000
0000
3200
,
0000
0320
0000
0032
,
0000
0000
0000
0000
0003
0000
0000
0000
0000
0000
1000
0010
0200
0000
0000
0000
,
0300
0002
0000
0003
2000
0000
3200
0000
,
0000
0320
0000
0032
,
0000
0000
0003
0200
,
0000
0000
0000
0000
0320
0000
0000
0000
0000
0000
1030
0001
2000
0000
0000
0000
,
0000
0000
3000
0002
,
0000
0000
0000
0023
,
0000
0000
0030
0200
,
0000
2300
0000
3020
,
0030
0200
0000
0300
0020
0000
2000
0000
,
0030
0000
0000
0000
0000
0000
0000
0000
0000
0000
0000
0000
3001
0100
0001
0010
,
0100
1000
0001
0100
0010
0100
0001
1000
0010
1000
0100
0010
0001
1000
0100
1000
,
0010
0100
0001
0100
0010
1000
0001
1000
0100
0010
0001
0100
0001
1000
0010
0100
,
0010
1000
0001
0010
0001
0100
0010
0100
0001
1000
0100
1000
0010
0100
0001
0100
,
0010
1000
0001
0010
0100
1000
0001
0010
0001
0100
0010
1000
0010
0100
0001
1000
,
0001
0100
0010
0100
0001
1000
0100
0010
0001
1000
0100
1000
0010
0100
0010
1000
,
0001
0100
0001
0010
0100
1000
0001
0010
0001
0100
0010
0100
0001
1000
0010
1000
,
0100
0010
0001
1000
0100
1000
0001
0100
0010
0100
0001
1000
0010
1000
0100
0010
,
0001
0100
0010
0100
0001
1000
0100
1000
0010
0100
0001
0100
0010
1000
0001
0010
,
0100
1000
0001
0010
0001
0100
0010
1000
0010
0100
0001
1000
0100
1000
0010
0100
,
0010
1000
0001
0010
0001
0100
0010
0100
0001
1000
0100
0010
0001
1000
0100
1000
,
0010
0100
0001
0100
0010
1000
0001
1000
0010
0100
0010
1000
0001
0100
0001
0010
,
0100
1000
0001
0010
0001
0100
0010
0100
0001
1000
0010
1000
0100
0010
0001
1000
,
0010
0100
0001
0100
0010
1000
0001
1000
0100
0010
0001
1000
0100
1000
0001
0100
,
0010
1000
0010
0100
0001
1000
0001
0010
0100
1000
0001
0010
0001
0100
0010
1000
,
0010
0100
0001
1000
0001
0100
0010
0100
0001
1000
0100
1000
0010
0100
0001
1000
,
0100
0000
1000
0000
0001
0000
0010
0000
0100
0000
1000
0000
0001
0000
1000
0000
0020
0000
0000
0000
0000
0000
0000
0030
1000
0000
0000
0000
0100
0000
0000
0000
,
0010
0000
0001
0000
1000
0000
0010
0000
0100
0000
0001
1000
0001
0000
0100
0010
,
0100
0000
0001
0000
0100
0000
0010
1000
0010
0000
0100
0000
0001
0000
0100
0000
,
0010
0000
1000
0000
0001
0000
0100
0010
0100
0000
0001
0000
1000
0010
1000
0001
,
0100
0001
1000
0010
1000
0000
0001
0000
0100
0000
0010
0000
1000
0000
0001
0000
,
1000
0000
0100
0000
0010
0000
0001
0000
1000
0100
1000
0000
0010
0000
0100
0000
,
0001
0000
1000
0000
0010
0000
0100
0001
0100
0000
0010
0000
1000
0000
0100
0000
,
0010
0000
0001
0000
0010
0000
0100
0000
1000
0010
1000
0010
1000
0000
0001
0000
,
0100
0010
0100
0000
0001
1000
0001
1000
0001
0000
0100
0000
0010
0000
1000
0000
,
0100
0000
0010
0000
0001
0000
0100
0000
0010
0000
1000
0001
1000
0000
0010
0100
,
0010
0000
1000
0000
0001
0000
1000
0010
1000
0000
0001
0000
0010
0000
0001
0000
,
0100
0000
0010
0000
1000
0000
0010
0100
0010
0000
1000
0000
0001
0010
0001
0000
,
1000
0100
1000
0000
0001
0000
0100
0000
0010
1000
0010
1000
0010
0000
0100
0000
,
0001
0000
1000
0000
0100
0000
0010
0000
0001
0100
0001
0000
1000
0000
0010
0000
,
0100
0000
0001
0000
0100
0000
0010
1000
0010
0000
0100
0000
0001
0000
1000
0000
,
0100
0000
0010
0000
0001
0000
0100
0000
0010
1000
0010
1000
0010
0000
0100
0000
,
0001
0010
0001
0000
1000
0001
1000
0001
1000
0100
0010
0001
1000
0000
0010
0000
,
0100
0000
0001
0000
1000
0000
0100
0000
0010
0000
0001
1000
0001
0000
0100
0010
,
0100
0000
0001
0000
0100
0000
0010
1000
0010
0000
0100
0000
0001
0000
0100
0000
,
0010
0000
1000
0000
0001
0000
0100
0010
0100
0000
0001
0000
1000
0100
0010
0001
,
1000
0001
0100
0010
1000
0000
0001
0000
0100
0000
0010
0000
1000
0000
0001
0000
,
1000
0000
0100
0000
0010
0000
0001
0000
1000
0100
1000
0000
0010
0000
0100
0000
,
0001
0000
1000
0000
0010
0000
0100
0001
0100
0000
0010
0000
1000
0000
0100
0000
,
0010
0000
0001
0000
0010
0000
0100
0000
1000
0010
1000
0010
1000
0000
0001
0000
,
0100
0010
0100
0000
0001
1000
0001
1000
0001
0000
0100
0000
0010
0000
1000
0000
,
0100
0000
0010
0000
0001
0000
0100
0000
0010
0000
1000
0001
1000
0000
0010
0100
,
0010
0000
1000
0000
0001
0000
1000
0010
1000
0000
0001
0000
0010
0000
0001
0000
,
0100
0000
0010
0000
1000
0000
0010
0100
0010
0000
1000
0000
0001
0010
0001
0000
,
1000
0100
1000
0000
0001
0000
0100
0000
0010
1000
0010
1000
0010
0000
0100
0000
,
0001
0000
1000
0000
0100
0000
0010
0000
0001
0100
0001
0000
1000
0000
0010
0000
,
0100
0000
0001
0000
0100
0000
0010
1000
0010
0000
0100
0000
0001
0000
1000
0000
,
0100
0000
0010
0000
0001
0000
0100
0000
0010
1000
0010
1000
0010
0000
0100
0000
,
0001
0010
0001
0000
1000
0001
1000
0001
1000
0100
0010
0001
2000
0000
0000
0000
,
0000
0000
0000
0000
0000
3000
0000
0000
0020
0000
0000
0000
0000
0000
0000
0000
0000
0000
0000
0000
0030
0000
0000
0000
0200
0000
0000
0000
0000
0000
0000
0000
,
0000
0300
0000
0002
,
0000
0000
0000
0000
0000
0003
0000
0000
2000
0000
0000
0000
0000
0000
0000
0000
0020
0000
0000
0000
0000
0000
3030
0000
0200
0000
0000
0000
0000
0000
0000
0000
,
0000
0000
0000
0300
0000
0000
0000
0000
0000
0000
0000
0000
0020
0000
0000
0000
,
0000
0030
0200
0000
0000
0300
0002
0000
,
0000
0003
0000
0200
,
0000
0000
0000
0000
0000
0000
0300
0000
0020
0000
0000
0000
0000
0000
0000
0000
2000
0000
0000
0000
0000
0000
3030
0000
0002
0000
0000
0000
0000
0200
0000
0000
,
0000
0020
0000
0333
0000
0000
0000
0000
0000
0000
0000
0000
0000
0000
0000
0000
;

//---------------dance-single - Braeden47----------------
#NOTES:
     dance-single:
     Braeden47:
     Edit:
     18:
     0.960,1.000,0.026,0.371,0.979,956.000,4.000,56.000,120.000,2.000:

0000
MMMM
0000
M000
0000
M000
0000
MMMM
0000
000M
0000
000M
0000
MMMM
0000
0000
,
0000
MMMM
0000
M00M
0000
MMMM
0000
M000
0000
M000
0000
0000
0000
MMMM
0000
M000
,
0000
MMM0
0000
M000
0000
MMMM
0000
0000
0000
MMMM
0000
M000
0000
MMM0
0000
M000
,
0000
MMMM
0000
0000
0000
MMM0
0000
M00M
0000
M00M
0000
M00M
0000
MMM0
0000
0000
,
0000
MMMM
0000
M000
0000
M000
0000
M000
0000
MMMM
0000
0000
0000
MMMM
0000
M00M
,
0000
M00M
0000
M00M
0000
MMMM
0000
0000
0000
MMMM
0000
M00M
0000
MMMM
0000
M0M0
,
0000
M00M
0000
M00M
0000
0000
0000
MMMM
0000
M000
0000
MMM0
0000
M000
0000
MMMM
,
0000
0000
0000
0000
,
0000
0000
0000
0000
0000
0000
0000
0000
0000
0000
0000
0000
1000
0100
0010
0001
,
0010
0100
1000
0001
0100
0010
1000
0100
0010
0100
1000
0001
0100
0010
1000
0100
,
0010
0100
1000
0001
0100
0010
1000
0100
0010
0001
0010
0100
1000
0001
0100
0010
,
1000
0100
0010
0100
1000
0010
0100
0010
1000
0100
0010
0001
0100
0010
1000
0100
,
0010
0000
0001
0000
0100
0000
0010
0000
1000
0000
0100
0000
0010
0000
0001
0000
1000
0100
0010
0001
0010
0100
1000
0001
0100
0000
0000
0000
0010
0000
0000
0000
,
1000
0100
0010
0001
0010
0100
1000
0001
,
0100
0010
1000
0100
0010
0100
1000
0001
,
0100
0010
1000
0100
0010
0001
0100
0010
,
1000
0000
0010
0000
1000
0001
0100
0010
1000
0000
0100
0000
0010
0000
0100
0000
,
1000
0001
0100
0010
1000
0100
0010
0100
,
1000
0001
0010
0100
1000
0100
0010
0001
,
0100
0010
1000
0010
0100
0010
1000
0100
,
0010
0000
0001
0000
1000
0001
0100
0010
1000
0000
0001
0000
0100
0000
0010
0000
,
1000
0100
0010
0100
1000
0001
0100
0010
,
1000
0001
0100
0010
1000
0100
0010
0100
,
1000
0001
0100
0010
1000
0001
0100
0010
,
1000
0000
1000
0000
0100
0010
0001
0010
0100
0000
1000
0000
0100
0000
0010
0000
,
0002
0013
0100
2000
3100
0010
0002
0023
,
0130
2000
3100
0010
0001
0100
0010
1000
,
0100
0010
0100
1000
0001
0100
0010
1000
,
0100
0000
1000
0000
0001
0100
0010
1000
0001
0000
0100
0000
0010
0000
1000
0000
,
0100
0010
0100
1000
0001
0010
0100
1000
,
0100
0010
0001
0100
0010
1000
0100
0010
,
0001
0100
0010
1000
0100
0010
0100
1000
,
0001
0000
0100
0000
0010
1000
0010
0000
0100
0000
0001
0000
0100
0000
0010
0000
,
2000
3010
0100
0002
0103
0010
2000
3002
,
0103
0020
1030
0100
0010
0001
0100
0010
,
1000
0100
0010
0001
0100
0010
1000
0100
,
0010
0000
0100
0000
1000
0010
0100
0001
1000
0000
0010
0000
0100
0000
0001
0000
,
0010
0001
1000
0100
0010
0001
0010
0100
,
1000
0001
0100
0010
1000
0100
0010
0001
,
0100
0010
1000
0001
0100
0010
1000
0100
,
0010
0000
0001
0000
0100
0010
1000
0001
0100
0000
0010
0000
1000
0000
0001
0000
,
0200
0310
1000
0200
0310
0001
0200
0302
,
1003
0020
0130
0001
0100
0010
1000
0100
,
0010
0001
0100
0010
1000
0010
0100
0001
,
0100
0000
0010
0000
1000
0010
0100
0000
0001
0000
0100
0000
0020
0000
0000
0000
,
0000
0000
0000
2030
,
0000
0000
0000
3002
,
0000
0000
0000
0203
,
0000
0000
0000
0320
,
0000
0000
0000
2030
,
0000
0000
0000
3002
,
0000
0000
0000
0203
,
0000
0000
0000
1302
,
0000
0203
0000
0320
,
0000
0000
0000
0000
0000
0000
0000
0000
0030
0000
1000
0010
2000
0000
0000
0000
,
0000
3020
0000
0000
0130
0000
0000
0000
,
0000
0002
0000
0203
,
0000
0000
0000
0320
,
0000
0000
0000
0000
2030
0000
0000
0000
3000
0000
0001
0100
0020
0000
0000
0000
,
0000
0000
0000
2030
,
0000
0000
0000
3002
,
0000
0000
0000
0203
,
0000
0320
0000
2030
,
0000
3200
0000
0000
1300
0000
0002
0000
,
0000
0000
0000
0000
0000
0000
0000
0000
0003
0000
0000
0000
1000
0001
0100
0010
,
1000
0100
0010
0001
0010
0100
1000
0001
0100
0010
1000
0100
1000
0001
0100
0010
,
1000
0100
0010
0001
0010
0100
1000
0001
0100
0010
1000
0100
0010
0001
0010
0100
,
1000
0001
0100
0010
1000
0100
0010
0001
0010
0100
1000
0001
0100
0010
1000
0100
,
0010
0001
0010
0100
1000
0001
0100
0010
1000
0100
0010
0100
1000
0001
0100
0010
,
1000
0100
0010
0001
0010
0100
1000
0001
0100
0010
1000
0100
0010
0100
1000
0001
,
0010
0001
0100
0010
1000
0100
0010
0001
0010
0100
1000
0001
0100
0010
1000
0100
,
0010
0001
0010
0100
1000
0001
0100
0010
1000
0100
0010
0001
0010
0100
1000
0001
,
0100
0010
1000
0100
0010
0100
1000
0001
0100
0010
1000
0100
0010
0001
0100
0010
,
1000
0100
0010
0001
0100
0010
1000
0001
0010
0001
1000
0100
0010
0001
0010
0100
,
1000
0001
0100
0010
0100
0001
0100
0010
1000
0100
0010
0001
0010
0100
1000
0001
,
0100
0010
1000
0100
0010
0001
0010
0100
1000
0001
0100
0010
1000
0100
1000
0001
,
0100
0010
1000
0100
0010
0001
0010
0100
1000
0001
0100
0010
1000
0100
0010
0001
,
0010
0100
1000
0001
0100
0010
1000
0100
0010
0001
0010
0100
1000
0001
0100
0010
,
1000
0100
0010
0001
0010
0100
1000
0001
0100
0010
1000
0100
0010
0001
0010
0100
,
1000
0010
0100
0001
0100
0010
1000
0100
0010
0100
1000
0001
0100
0010
1000
0100
,
0010
0100
1000
0010
0100
0010
1000
0100
0010
0000
0000
0000
1000
0000
0001
0000
,
0100
0000
0010
0000
1000
0000
0001
0000
0100
0000
0001
0100
0010
0000
1000
0010
,
0100
0000
0001
0000
0100
0000
0010
1000
0001
0000
0100
0000
0001
0000
0100
0000
,
0010
0000
1000
0000
0001
0000
0010
0100
1000
0000
0001
0000
1000
0100
0010
0001
,
1000
0010
0100
0001
1000
0000
0010
0000
0100
0000
0001
0000
0100
0000
0010
0000
,
1000
0000
0100
0000
0010
0000
0001
0000
0010
0100
1000
0000
0010
0000
0100
0000
,
0001
0000
1000
0000
0010
0000
0100
0001
0100
0000
0010
0000
1000
0000
0100
0000
,
0010
0000
0001
0000
0010
0000
0100
0000
1000
0010
0100
0001
0100
0000
0010
0000
,
1000
0100
0010
0001
1000
0000
0000
0000
0100
0000
0010
0000
0001
0000
0100
0000
0001
0000
0000
0000
0100
0000
0000
0000
0010
0000
0000
0000
1000
0000
0000
0000
,
0100
0000
0010
0000
0001
0000
0100
0000
0010
0000
1000
0001
0100
0000
0010
1000
,
0001
0000
0100
0000
0010
0000
1000
0001
0100
0000
0010
0000
0100
0000
0001
0000
,
0100
0000
0010
0000
1000
0000
0010
0100
0010
0000
1000
0000
0100
0010
0001
0000
,
0010
0000
0100
0000
1000
0000
0000
0000
0001
0000
0000
0000
0100
0000
0000
0000
0010
1000
0001
0100
0010
0000
0100
0000
0001
0000
0000
0000
0100
0000
0000
0000
,
0010
0000
1000
0000
0100
0000
0010
0000
0001
0100
0010
0000
1000
0000
0010
0000
,
0100
0000
0001
0000
0100
0000
0010
1000
0001
0000
0100
0000
0010
0000
1000
0000
,
0100
0000
0010
0000
0001
0000
0100
0000
0010
1000
0001
0100
0010
0000
0100
0000
,
0001
0100
0010
0000
1000
0001
0100
0010
4000
0000
0000
0000
3001
0000
0100
0000
,
0001
0000
0100
0000
0010
0000
1000
0000
0001
0000
0100
0010
1000
0000
0001
0100
,
0010
0000
1000
0000
0001
0000
0100
0010
1000
0000
0001
0000
0100
0000
0010
0000
,
1000
0000
0100
0000
0010
0000
0001
0100
0010
0000
1000
0000
0001
0100
0010
1000
,
0100
0010
0001
0100
0010
0000
1000
0000
0100
0000
0010
0000
0001
0000
0100
0000
,
0010
0000
1000
0000
0001
0000
0100
0000
0010
1000
0001
0000
0100
0000
0010
0000
,
1000
0000
0100
0000
0010
0000
0001
0100
0010
0000
1000
0000
0001
0000
0100
0000
,
0010
0000
1000
0000
0100
0000
0010
0000
0001
0100
0010
1000
0001
0000
0100
0000
,
0040
0000
1030
0000
0001
0100
0010
1000
0100
0000
0010
0000
0001
0000
0100
0000
,
0010
0000
1000
0000
0001
0000
0100
0000
0010
0000
1000
0001
0100
0000
0010
1000
,
0001
0000
0100
0000
0010
0000
1000
0001
1000
0000
0010
0000
0100
0000
0000
0000
,
0100
0000
0010
0000
0000
0000
1000
0001
0100
0000
0010
0000
1000
0001
0100
0000
,
0010
1000
0001
0000
0100
0000
0100
0000
0040
0000
1030
0001
0100
0000
0010
0000
,
1000
0000
0100
0000
0010
0000
0001
0000
0100
0010
1000
0000
0001
0000
0100
0000
,
0010
0000
1000
0000
0001
0000
0100
0010
0100
0000
0001
0000
0100
0000
0010
0000
,
1000
0000
0100
0000
0010
0000
0001
0000
0100
0010
1000
0001
0100
0000
0010
0000
,
1000
0000
0001
0000
0100
0000
0000
0000
0010
0000
1000
0000
0001
0000
0100
0000
0010
1000
0001
0010
0100
1000
0001
0010
2000
0000
0000
0000
0000
0000
0000
0000
,
0000
0000
0000
0000
0000
3000
0000
0000
0020
0000
0000
0000
0000
0000
0000
0000
0000
0000
0000
0000
0030
0000
0000
0000
0200
0000
0000
0000
0000
0000
0000
0000
,
0000
0300
0000
0002
,
0000
0000
0000
0000
0000
0003
0000
0000
2000
0000
0000
0000
0000
0000
0000
0000
0020
0000
0000
0000
0000
0000
3030
0000
0200
0000
0000
0000
0000
0000
0000
0000
,
0000
0000
0000
0300
0000
0000
0000
0000
0000
0000
0000
0000
0020
0000
0000
0000
,
0000
0030
0200
0000
0000
0300
0002
0000
,
0000
0003
0000
0200
,
0000
0000
0000
0000
0000
0000
0300
0000
0020
0000
0000
0000
0000
0000
0000
0000
2000
0000
0000
0000
0000
0000
3030
0000
0002
0000
0000
0000
0000
0200
0000
0000
,
0000
0020
0000
0333
0000
0000
0000
0000
0000
0000
0000
0000
0000
0000
0000
0000
;
