#TITLE:Love Hurts;
#SUBTITLE:(Lonely Mix);
#ARTIST:Ryuno;
#TITLETRANSLIT:;
#SUBTITLETRANSLIT:;
#ARTISTTRANSLIT:;
#CREDIT:Mad Matt;
#BANNER:../Tachyon Spectrum-bn.png;
#BACKGROUND:../Tachyon Spectrum-bg.png;
#LYRICSPATH:;
#CDTITLE:;
#MUSIC:love hurts.OGG;
#OFFSET:-0.050;
#SAMPLESTART:62.212;
#SAMPLELENGTH:12.000;
#SELECTABLE:YES;
#DISPLAYBPM:240.000;
#BPMS:0.000=30.000,1.000=240.000,321.000=120.000,352.000=120.300,356.000=120.200,360.000=120.100,368.000=119.980,372.000=119.890,377.000=120.000,381.000=120.200,383.000=120.300,384.500=114.500,385.000=240.000;
#STOPS:;
#BGCHANGES:;
// cache tags:
#FIRSTBEAT:1.000;
#LASTBEAT:448.500;
#SONGFILENAME:Songs/Tachyon Spectrum/Love Hurts (Lonely Mix) - [Mad Matt]/love hurts.SM;
#HASMUSIC:1;
#HASBANNER:1;
#MUSICLENGTH:130.080;
// end cache tags

//---------------dance-single - Tachyon Beta----------------
#NOTES:
     dance-single:
     Tachyon Beta:
     Easy:
     17:
     1.000,1.000,0.200,0.623,1.000,1120.000,26.000,81.000,25.000,0.000:











0000
0000
1100
0100
0010
0001
0010
0001
,
0000
0001
0010
0000
0001
1000
0010
1000
,
0002
0000
0103
0100
0010
1000
0010
1000
,
0000
1000
0010
0000
1000
0001
0010
0100
,
2000
0000
3100
0100
1000
0001
1000
0001
,
0000
0001
0100
0000
0004
1000
0000
0013
,
0200
0000
1300
1000
0010
1000
0010
0100
,
0000
0000
0000
0000
0000
0000
0001
0000
0000
0000
0000
0000
0010
0000
0000
0000
0000
0000
0000
0000
0000
0100
0000
0000
1000
0000
0000
0100
0000
0000
0000
0000
0000
1000
0000
0100
0000
1000
0000
0000
0000
0000
0000
0000
0000
0001
0000
0010
,
0000
0001
0000
0000
0000
0000
0000
0000
0000
0000
0000
0000
1001
0000
0000
0000
0000
0000
0001
0000
0000
0000
0000
0000
0200
0000
0000
0000
0000
0000
0320
0000
0000
0000
0000
0000
2030
0000
0000
0000
0000
0000
3010
0000
0000
0000
0000
0000
,
0000
0002
0013
0000
2000
3020
0230
0302
,
2003
3000
0110
0200
0302
0203
0302
0013
,
0000
2000
3100
0000
0002
2003
3020
0230
,
0302
0003
0101
0001
0020
0230
0320
0130
,
0000
0002
0103
0000
2000
3020
0230
0302
,
2003
3000
1001
1000
0002
0023
0230
0310
,
0000
2000
3010
0000
1020
0030
1002
0003
,
4200
0000
3300
0000
0100
1000
0001
1000
0010
0100
0001
0100
0010
1000
0001
1000
,
0001
0010
0100
1000
0001
0010
0001
1000
0100
0010
0100
1000
0001
1000
0010
1000
,
0001
0100
0001
0100
0010
1000
0001
0100
0010
1000
0001
1000
0100
0010
0001
1000
,
0001
1000
0010
1000
0001
0100
0010
0100
0001
1000
0010
1000
0001
0010
0100
0010
,
0001
1000
0010
0100
00M1
0000
00M1
0000
1000
0100
1000
0001
0010
0100
0010
0001
,
1000
0010
0100
0001
0100
0001
1000
0100
1000
0001
0010
0001
1000
0010
1000
0001
,
0100
0010
0100
0001
1000
0001
1000
0001
0010
0100
0010
0001
1000
0010
1000
0001
,
1000
0100
0010
0001
1000
0100
1000
0001
0100
0000
0000
0000
00M1
0000
00M1
0000
,
00M1
0000
00M1
0000
0100
0001
1000
0001
0100
0010
1000
0001
0100
0001
1000
0010
,
1000
0001
0010
0100
0010
0001
1000
0100
1000
0001
0010
0001
1000
0010
1000
0001
,
0010
0001
1000
0010
0100
0010
1000
0001
0100
0001
1000
0100
0010
0001
0010
0100
,
1000
0001
0100
0010
1000
0001
1000
0100
1000
0001
0010
0001
1000
0010
1000
0010
,
0100
0001
0100
0001
10M0
0000
10M0
0000
0001
0100
0001
0100
0010
1000
0001
1000
,
0100
1000
0001
0010
0100
1000
0100
0010
0001
1000
0001
1000
0010
0100
0001
1000
,
0100
1000
0100
0010
0001
0010
0100
1000
0001
0100
0001
1000
0010
1000
0001
0010
,
0100
0010
0001
1000
0001
0100
0010
1000
0001
0010
0100
1000
0100
0000
0000
0000
,
1100
0011
0001
0010
0100
1000
0040
0000
,
0130
0040
0000
0130
0001
0100
0040
0000
,
1030
0001
1001
1000
0010
1000
0400
0000
,
1300
0400
0000
0310
0001
1000
0400
0000
,
0310
0001
1001
1000
0001
0100
0040
0000
,
1030
0040
0000
0130
0001
1000
0040
0000
,
1030
0004
0023
0100
0130
1000
0020
0100
,
0130
0000
0001
0000
2000
0000
0001
0000
0001
0000
3001
0000
1000
0001
1000
0001
,
1000
0001
1000
0001
1000
0000
0000
0000
0100
0010
0100
0000
0010
0001
0010
0000
,
0100
1000
0100
0000
1000
0000
0000
0000
0010
0100
0010
0000
1000
0010
1000
0000
,
0001
0100
0001
0000
0010
0000
0000
0000
0100
0010
0100
0000
1000
0001
1000
0000
,
0010
0100
0010
0000
0100
0000
0000
0000
0001
0100
0001
0000
1000
0001
1000
0000
,
0001
0100
0001
0000
1000
0000
0000
0000
0001
1000
0001
0000
1000
0100
1000
0000
,
0001
0010
0001
0000
1000
0000
0000
0000
0001
1000
0001
0000
1000
0010
1000
0000
,
0001
0100
0001
0000
2000
0000
0000
0000
0000
0000
0000
0000
0000
0000
0000
0000
,
0000
0200
0000
0000
,
0000
0000
0000
0000
3300
0000
0000
0000
1000
0100
1000
0000
0100
0010
0100
0000
,
0010
0001
0010
0000
0001
0000
0000
0000
0100
0010
0100
0000
0001
0100
0001
0000
,
1000
0010
1000
0000
0100
0000
0000
0000
0010
0100
0010
0000
0001
1000
0001
0000
,
0100
0010
0100
0000
0010
0000
0000
0000
1000
0010
1000
0000
0001
1000
0001
0000
,
0010
0100
0010
0000
0001
0000
0000
0000
1000
0001
1000
0000
0100
0010
0100
0000
,
1000
0001
1000
0000
0001
0000
0000
0000
1000
0001
1000
0000
0001
0100
0001
0000
,
1000
0010
1000
0000
0002
0000
0000
0000
0000
0000
0000
0000
0000
0000
0000
0000
,
0000
0200
0000
0000
,
M303
0000
0001
0020
0130
2000
3001
0200
,
0301
0020
0130
2000
3001
0200
0301
0000
,
0001
0000
0001
0020
0031
0020
0030
0020
,
0130
2000
3001
0002
0003
0100
0001
0001
,
0001
0000
1000
0200
0310
0002
1003
0020
,
0130
0002
1003
0200
0310
0002
1003
0000
,
1000
0004
0000
0000
,
0000
0000
0000
0000
4003
0100
0000
0100
0000
0100
0000
0100
0000
0100
0000
0100
,
0000
0100
0000
3100
0010
0001
1000
0001
0100
0010
1000
0010
0100
0001
1000
0010
,
0100
0001
0100
0010
1000
0001
1000
0001
0010
0100
0010
0001
1000
0100
1000
0001
,
0100
0010
1000
0001
0010
0001
1000
0100
1000
0001
0100
0001
0100
0010
1000
0001
,
1000
0001
0010
0001
1000
0010
0100
0010
1000
0001
0100
0001
1000
0100
1000
0100
,
0010
0001
0100
0001
10M0
0000
10M0
0000
0001
0010
0001
1000
0010
0100
0010
1000
,
0001
0010
0100
0010
0001
1000
0100
1000
0001
0010
0001
1000
0100
0010
0100
1000
,
0001
0100
0010
0100
0001
1000
0001
1000
0100
0010
0100
1000
0001
0100
0001
1000
,
0001
0010
0100
1000
0001
1000
0010
1000
0001
0000
0000
0000
1M00
0000
1M00
0000
,
1M00
0000
1M00
0000
0010
1000
0001
1000
0010
0100
0001
1000
0010
1000
0001
0100
,
0001
1000
0100
0010
0100
1000
0001
1000
0010
0100
0010
1000
0001
1000
0100
0010
,
0001
0010
0001
1000
0100
1000
0001
1000
0010
1000
0001
0100
0010
1000
0010
0100
,
0001
1000
0001
1000
0100
1000
0001
0010
0001
1000
0100
1000
0001
0100
0001
0100
,
0010
1000
0010
1000
0M01
0000
0M01
0000
1000
0010
1000
0010
0100
0001
1000
0001
,
0010
0100
1000
0100
0010
0001
1000
0010
0100
0001
0100
0001
1000
0100
1000
0001
,
0010
0001
0010
0100
1000
0001
1000
0001
0100
0010
0100
0010
1000
0001
1000
0001
,
0010
0100
1000
0001
1000
0010
1000
0001
0010
0001
0010
0001
1000
0000
0000
0000
,
1010
0100
0002
0000
0000
0000
0000
0000
,
0000
0023
0000
0000
,
0000
0230
0000
0000
,
0000
2300
0000
0000
,
0000
3020
0000
0000
,
0000
0230
0000
0000
,
0000
0302
0000
0000
,
0000
2003
0010
0001
,
0200
0000
3000
0300
1000
0000
0100
0000
0010
0000
1000
0000
0001
0000
0100
0000
,
0010
1000
0001
0100
0001
1000
0010
0100
,
0001
1000
0020
1000
0100
0032
0203
0001
,
0010
2300
3001
0010
0100
0001
0010
1000
,
0001
0100
1000
0001
0100
1000
0001
0010
,
0100
1000
0001
0010
0100
0010
0001
1000
,
0100
1000
0002
0100
1000
0013
2000
0100
,
0001
3010
2000
3020
0230
0302
1003
0001
,
1000
0000
1000
0000
0001
1000
0001
1000
0100
1000
0001
0100
0010
1000
0001
1000
,
0100
1000
0001
0010
0001
1000
0001
1000
0100
0010
0100
1000
0001
1000
0010
1000
,
0001
0100
0001
0100
0010
1000
0001
0100
0010
1000
0001
1000
0100
0010
0001
1000
,
0001
1000
0010
1000
0001
0100
0010
0100
0001
1000
0010
1000
0001
0010
0001
0010
,
0100
1000
0010
1000
0M01
0000
0M01
0000
1000
0100
1000
0001
0010
0100
0010
0001
,
1000
0010
0100
0001
0100
0001
1000
0100
1000
0001
0010
0001
1000
0010
1000
0001
,
0100
0010
0100
0001
1000
0100
1000
0001
0010
0100
0010
0001
1000
0010
1000
0001
,
1000
0100
0010
0001
1000
0100
1000
0100
0010
0000
0000
0000
00M1
0000
00M1
0000
,
00M1
0000
00M1
0000
0100
0001
1000
0001
0100
0010
0100
0001
1000
0100
1000
0001
,
0010
0001
1000
0010
0100
0010
1000
0001
0010
0100
1000
0010
1000
0001
0010
0100
,
1000
0001
1000
0010
0100
0010
1000
0001
0100
0001
1000
0010
0100
0001
0100
0010
,
1000
0001
0010
0100
1000
0001
0010
0001
1000
0010
1000
0001
0010
0001
1000
0010
,
0100
0001
0100
0001
10M0
0000
10M0
0000
0001
0100
0010
0100
0001
1000
0100
0010
,
0100
1000
0001
1000
0001
0010
0100
0010
0001
1000
0001
1000
0010
0100
0001
1000
,
0100
1000
0100
0010
0001
1000
0001
1000
0010
0100
0010
0100
0001
1000
0100
0010
,
0100
1000
0001
0010
0001
0100
0010
1000
0010
0100
0001
1000
0100
0000
0000
0000
,
1100
0011
0000
0000
0000
0000
0000
0000
;

//---------------dance-single - Mad Matt----------------
#NOTES:
     dance-single:
     Mad Matt:
     Medium:
     17:
     1.000,1.000,0.192,0.623,1.000,1128.000,25.000,81.000,1.000,0.000:






0000
0000
1100
0100
0010
0001
0010
0001
,
0000
0001
0010
0000
0001
1000
0010
1000
,
0002
0000
0103
0100
0010
1000
0010
1000
,
0000
1000
0010
0000
1000
0001
0010
0100
,
2000
0000
3100
0100
1000
0001
1000
0001
,
0000
0001
0100
0000
0004
1000
0000
0013
,
0200
0000
1300
1000
0010
1000
0010
0100
,
0000
0000
0001
0000
0010
0000
0000
0100
1000
0100
0000
1000
0100
1000
0000
0001
,
0010
0001
0000
0000
1001
0000
0001
0000
0200
0000
0320
0000
2030
0000
3010
0000
,
0000
0002
0013
0000
2000
3020
0230
0302
,
2003
3000
0110
0200
0302
0203
0302
0013
,
0000
2000
3100
0000
0002
2003
3020
0230
,
0302
0003
0101
0001
0020
0230
0320
0130
,
0000
0002
0103
0000
2000
3020
0230
0302
,
2003
3000
1001
1000
0002
0023
0230
0310
,
0000
2000
3010
0000
1020
0030
1002
0003
,
4200
0000
3300
0000
0100
1000
0001
1000
0010
0100
0001
0100
0010
1000
0001
1000
,
0001
0010
0100
1000
0001
0010
0001
1000
0100
0010
0100
1000
0001
1000
0010
1000
,
0001
0100
0001
0100
0010
1000
0001
0100
0010
1000
0001
1000
0100
0010
0001
1000
,
0001
1000
0010
1000
0001
0100
0010
0100
0001
1000
0010
1000
0001
0010
0100
0010
,
0001
1000
0010
0100
0001
0000
1000
0000
0001
0010
0001
1000
0100
0010
0100
1000
,
0001
0100
0010
1000
0010
1000
0001
0010
0001
1000
0100
1000
0001
0100
0001
1000
,
0010
0100
0010
1000
0001
1000
0001
1000
0100
0010
0100
1000
0001
0100
0001
1000
,
0001
0010
0100
1000
0001
0010
0001
1000
0010
0000
0000
0000
0100
0000
0010
0000
,
0100
0000
0010
0000
0100
0001
1000
0001
0100
0010
1000
0001
0100
0001
1000
0010
,
1000
0001
0010
0100
0010
0001
1000
0100
1000
0001
0010
0001
1000
0010
1000
0001
,
0010
0001
1000
0010
0100
0010
1000
0001
0100
0001
1000
0100
0010
0001
0010
0100
,
1000
0001
0100
0010
1000
0001
1000
0100
1000
0001
0010
0001
1000
0010
1000
0010
,
0100
0001
0100
0001
1000
0000
0001
0000
1000
0010
1000
0010
0100
0001
1000
0001
,
0010
0001
1000
0100
0010
0001
0010
0100
1000
0001
1000
0001
0100
0010
1000
0001
,
0010
0001
0010
0100
1000
0100
0010
0001
1000
0010
1000
0001
0100
0001
1000
0100
,
0010
0100
1000
0001
1000
0010
0100
0001
1000
0100
0010
0001
1000
0000
0000
0000
,
1100
1000
0001
0010
0100
1000
0040
0000
,
0130
0040
0000
0130
0001
0100
0040
0000
,
1030
0001
1001
1000
0010
1000
0400
0000
,
1300
0400
0000
0310
0001
1000
0400
0000
,
0310
0001
1001
1000
0001
0100
0040
0000
,
1030
0040
0000
0130
0001
1000
0040
0000
,
1030
0004
0023
0100
0130
1000
0020
0100
,
0130
0000
0001
0000
2000
0000
0001
0000
0001
0000
3001
0000
1000
0001
1000
0001
,
1000
0001
1000
0001
1000
0000
0000
0000
0100
0010
0100
0000
0010
0001
0010
0000
,
0100
1000
0100
0000
1000
0000
0000
0000
0010
0100
0010
0000
1000
0010
1000
0000
,
0001
0100
0001
0000
0010
0000
0000
0000
0100
0010
0100
0000
1000
0001
1000
0000
,
0010
0100
0010
0000
0100
0000
0000
0000
0001
0100
0001
0000
1000
0001
1000
0000
,
0001
0100
0001
0000
1000
0000
0000
0000
0001
1000
0001
0000
1000
0100
1000
0000
,
0001
0010
0001
0000
1000
0000
0000
0000
0001
1000
0001
0000
1000
0010
1000
0000
,
0001
0100
0001
0000
2000
0000
0000
0000
0000
0000
0000
0000
0000
0000
0000
0000
,
0000
0200
0000
0000
,
0000
0000
0000
0000
3300
0000
0000
0000
1000
0100
1000
0000
0100
0010
0100
0000
,
0010
0001
0010
0000
0001
0000
0000
0000
0100
0010
0100
0000
0001
0100
0001
0000
,
1000
0010
1000
0000
0100
0000
0000
0000
0010
0100
0010
0000
0001
1000
0001
0000
,
0100
0010
0100
0000
0010
0000
0000
0000
1000
0010
1000
0000
0001
1000
0001
0000
,
0010
0100
0010
0000
0001
0000
0000
0000
1000
0001
1000
0000
0100
0010
0100
0000
,
1000
0001
1000
0000
0001
0000
0000
0000
1000
0001
1000
0000
0001
0100
0001
0000
,
1000
0010
1000
0000
0002
0000
0000
0000
0000
0000
0000
0000
0000
0000
0000
0000
,
0000
0200
0000
0000
,
M303
0000
0001
0020
0130
2000
3001
0200
,
0301
0020
0130
2000
3001
0200
0301
0000
,
0001
0000
0001
0020
0031
0020
0030
0020
,
0130
2000
3001
0002
0003
0100
0001
0001
,
0001
0000
1000
0200
0310
0002
1003
0020
,
0130
0002
1003
0200
0310
0002
1003
0000
,
1000
0004
0000
0000
,
0000
0000
0000
0000
1003
0100
1000
0001
1000
0100
0010
0100
1000
0001
0010
0100
,
1000
0100
1000
0001
0100
0001
1000
0001
0100
0010
1000
0010
0100
0001
1000
0010
,
0100
0001
0100
0010
1000
0001
1000
0001
0010
0100
0010
0001
1000
0100
1000
0001
,
0100
0010
1000
0001
0010
0001
1000
0100
1000
0001
0100
0001
0100
0010
1000
0001
,
1000
0001
0010
0001
1000
0010
0100
0010
1000
0001
0100
0001
1000
0100
1000
0100
,
0010
0001
0100
0001
1000
0000
0001
0000
1000
0100
1000
0001
0100
0010
0100
0001
,
1000
0100
0010
0100
1000
0001
0010
0001
1000
0100
1000
0001
0010
0100
0010
0001
,
1000
0010
0100
0010
1000
0001
1000
0001
0010
0100
0010
0001
1000
0010
1000
0001
,
1000
0100
0010
0100
1000
0001
1000
0010
0100
0000
0000
0000
0010
0000
0100
0000
,
0010
0000
0100
0000
0010
1000
0001
1000
0010
0100
0001
1000
0010
1000
0001
0100
,
0001
1000
0100
0010
0100
1000
0001
1000
0010
0100
0010
1000
0001
1000
0100
0010
,
0001
0010
0001
1000
0100
1000
0001
1000
0010
1000
0001
0100
0010
1000
0010
0100
,
0001
1000
0001
1000
0100
1000
0001
0010
0001
1000
0100
1000
0001
0100
0001
0100
,
0010
1000
0010
1000
0001
0000
1000
0000
0001
0100
0001
0100
0010
1000
0001
1000
,
0100
0010
0001
0010
0100
1000
0001
0100
0010
1000
0010
1000
0001
0010
0001
1000
,
0100
1000
0100
0010
0001
1000
0001
1000
0010
0100
0010
0100
0001
1000
0001
1000
,
0100
0010
0001
1000
0001
0100
0001
1000
0100
1000
0100
1000
0001
0000
0000
0000
,
1010
0100
0002
0000
0000
0000
0000
0000
,
0000
0023
0000
0000
,
0000
0230
0000
0000
,
0000
2300
0000
0000
,
0000
3020
0000
0000
,
0000
0230
0000
0000
,
0000
0302
0000
0000
,
0000
2003
0010
0001
,
0200
0000
3000
0300
1000
0000
0100
0000
0010
0000
0001
0000
1000
0000
0010
0000
,
0100
0001
1000
0100
0010
0001
1000
0010
,
0100
0001
0020
0001
0100
0032
0203
0001
,
0010
0302
1003
0010
0100
0001
0010
0001
,
1000
0100
1000
0001
0100
0001
1000
0010
,
0100
0001
1000
0010
0100
0010
1000
0001
,
0100
0001
2000
0010
0001
3100
0002
0010
,
1000
0103
0002
0203
0320
2030
3001
1000
,
0001
0000
1000
0000
0001
1000
0001
1000
0100
1000
0001
0100
0010
1000
0001
1000
,
0100
1000
0001
0010
0001
1000
0001
1000
0100
0010
0100
1000
0001
1000
0010
1000
,
0001
0100
0001
0100
0010
1000
0001
0100
0010
1000
0001
1000
0100
0010
0001
1000
,
0001
1000
0010
1000
0001
0100
0010
0100
0001
1000
0010
1000
0001
0010
0001
0010
,
0100
1000
0010
1000
0001
0000
1000
0000
0001
0010
0001
1000
0100
0010
0100
1000
,
0001
0100
0010
1000
0010
1000
0001
0010
0001
1000
0100
1000
0001
0100
0001
1000
,
0010
0100
0010
1000
0001
0010
0001
1000
0100
0010
0100
1000
0001
0100
0001
1000
,
0001
0010
0100
1000
0001
0010
0001
0010
0100
0000
0000
0000
0010
0000
0100
0000
,
0010
0000
0100
0000
0010
0001
1000
0001
0100
0010
0100
0001
1000
0100
1000
0001
,
0010
0001
1000
0010
0100
0010
1000
0001
0010
0100
1000
0010
1000
0001
0010
0100
,
1000
0001
1000
0010
0100
0010
1000
0001
0100
0001
1000
0010
0100
0001
0100
0010
,
1000
0001
0010
0100
1000
0001
0010
0001
1000
0010
1000
0001
0010
0001
1000
0010
,
0100
0001
0100
0001
1000
0000
0001
0000
1000
0010
0100
0010
1000
0001
0010
0100
,
0010
0001
1000
0001
1000
0100
0010
0100
1000
0001
1000
0001
0100
0010
1000
0001
,
0010
0001
0010
0100
1000
0001
1000
0001
0100
0010
0100
0010
1000
0001
0010
0100
,
0010
0001
1000
0100
1000
0010
0100
0001
0100
0010
1000
0001
0010
0000
0000
0000
,
1100
0011
0000
0000
0000
0000
0000
0000
;

//---------------dance-single - Mad Matt----------------
#NOTES:
     dance-single:
     Mad Matt:
     Hard:
     17:
     1.000,1.000,0.185,0.623,1.000,1161.000,24.000,81.000,1.000,0.000:



0000
0000
1100
0100
0010
0001
0010
0001
,
0000
0001
0010
0000
0001
1000
0010
1000
,
0002
0000
0103
0100
0010
1000
0010
1000
,
0000
1000
0010
0000
1000
0001
0010
0100
,
2000
0000
3100
0100
1000
0001
1000
0001
,
0000
0001
0100
0000
0004
1000
0000
0013
,
0200
0000
1300
1000
0010
1000
0010
0100
,
0000
0000
0001
0000
0010
0000
0000
0100
1000
0100
0000
1000
0100
1000
0000
0001
,
0010
0001
0000
0000
1001
0000
0001
0000
0200
0000
0320
0000
2030
0000
3010
0000
,
0000
0002
0013
0000
2000
3020
0230
0302
,
2003
3000
0110
0200
0302
0203
0302
0013
,
0000
2000
3100
0000
0002
2003
3020
0230
,
0302
0003
0101
0001
0020
0230
0320
0130
,
0000
0002
0103
0000
2000
3020
0230
0302
,
2003
3000
1001
1000
0002
0023
0230
0310
,
0000
2000
3010
0000
1020
0030
1002
0003
,
4200
0000
3300
0000
0001
0100
0010
0100
0001
1000
0010
1000
0001
1000
0100
0010
,
0100
1000
0001
0010
0001
1000
0001
0100
0010
0100
0001
1000
0100
1000
0001
0100
,
0010
0100
0001
1000
0001
0010
0100
0010
0001
1000
0100
1000
0001
1000
0010
0100
,
0010
1000
0001
0100
0001
1000
0001
0010
0100
0010
0001
1000
0010
1000
0001
0010
,
0100
0010
0001
1000
0001
0100
0001
1000
0010
0100
0001
1000
0001
0100
0001
1000
,
0010
1000
0001
0010
0100
0010
0001
1000
0100
1000
0001
0100
0010
0100
0001
1000
,
0100
1000
0001
0100
0010
1000
0001
1000
0100
0010
0001
1000
0001
0010
0001
1000
,
0100
1000
0001
0100
0010
1000
0001
1000
0100
0010
0001
1000
0010
1000
0001
0010
,
0001
1000
0100
1000
0001
0100
0010
0100
0001
1000
0010
1000
0001
1000
0100
0010
,
0100
1000
0001
0010
0001
1000
0001
0100
0010
0100
0001
1000
0100
1000
0001
0100
,
0010
0100
0001
1000
0001
0010
0100
0010
0001
1000
0100
1000
0001
1000
0010
0100
,
0010
1000
0001
0100
0001
1000
0001
0010
0100
0010
0001
1000
0010
1000
0001
0010
,
0100
0010
0001
1000
0001
0100
0001
1000
0010
0100
0001
1000
0001
0100
0001
1000
,
0010
1000
0001
0010
0100
0010
0001
1000
0100
1000
0001
0100
0010
0100
0001
1000
,
0100
1000
0001
0100
0010
1000
0001
1000
0100
0010
0001
1000
0001
0010
0001
1000
,
0100
1000
0001
0100
0010
0100
0001
1000
0010
1000
0001
1000
0100
0000
0000
0000
,
1100
1000
0001
0010
0100
1000
0040
0000
,
0130
0040
0000
0130
0001
0100
0040
0000
,
1030
0001
1001
1000
0010
1000
0400
0000
,
1300
0400
0000
0310
0001
1000
0400
0000
,
0310
0001
1001
1000
0001
0100
0040
0000
,
1030
0040
0000
0130
0001
1000
0040
0000
,
1030
0004
0023
0100
0130
1000
0020
0100
,
0130
0000
0001
0000
2000
0000
0001
0000
0001
0000
3001
0000
1000
0001
1000
0001
,
1000
0001
1000
0001
1000
0000
0000
0000
0100
0010
0100
0000
0010
0001
0010
0000
,
0100
1000
0100
0000
1000
0000
0000
0000
0010
0100
0010
0000
1000
0010
1000
0000
,
0001
0100
0001
0000
0010
0000
0000
0000
0100
0010
0100
0000
1000
0001
1000
0000
,
0010
0100
0010
0000
0100
0000
0000
0000
0001
0100
0001
0000
1000
0001
1000
0000
,
0001
0100
0001
0000
1000
0000
0000
0000
0001
1000
0001
0000
1000
0100
1000
0000
,
0001
0010
0001
0000
1000
0000
0000
0000
0001
1000
0001
0000
1000
0010
1000
0000
,
0001
0100
0001
0000
2000
0000
0000
0000
0000
0000
0000
0000
0000
0000
0000
0000
,
0000
0200
0000
0000
,
0000
0000
0000
0000
3300
0000
0000
0000
1000
0100
1000
0000
0100
0010
0100
0000
,
0010
0001
0010
0000
0001
0000
0000
0000
0100
0010
0100
0000
0001
0100
0001
0000
,
1000
0010
1000
0000
0100
0000
0000
0000
0010
0100
0010
0000
0001
1000
0001
0000
,
0100
0010
0100
0000
0010
0000
0000
0000
1000
0010
1000
0000
0001
1000
0001
0000
,
0010
0100
0010
0000
0001
0000
0000
0000
1000
0001
1000
0000
0100
0010
0100
0000
,
1000
0001
1000
0000
0001
0000
0000
0000
1000
0001
1000
0000
0001
0100
0001
0000
,
1000
0010
1000
0000
0002
0000
0000
0000
0000
0000
0000
0000
0000
0000
0000
0000
,
0000
0200
0000
0000
,
M303
0000
0001
0020
0130
2000
3001
0200
,
0301
0020
0130
2000
3001
0200
0301
0000
,
0001
0000
0001
0020
0031
0020
0030
0020
,
0130
2000
3001
0002
0003
0100
0001
0001
,
0001
0000
1000
0200
0310
0002
1003
0020
,
0130
0002
1003
0200
0310
0002
1003
0000
,
1000
0004
0000
0000
,
0000
0000
0000
0000
1003
0100
1000
0001
1000
0100
0010
0100
1000
0001
0010
0100
,
1000
0100
1000
0001
1000
0010
0100
0010
1000
0001
0100
0001
1000
0001
0010
0100
,
0010
0001
1000
0100
1000
0001
1000
0010
0100
0010
1000
0001
0010
0001
1000
0010
,
0100
0010
1000
0001
1000
0100
0010
0100
1000
0001
0010
0001
1000
0001
0100
0010
,
0100
0001
1000
0010
1000
0001
1000
0100
0010
0100
1000
0001
0100
0001
1000
0100
,
0010
0100
1000
0001
1000
0010
1000
0001
0100
0010
1000
0001
1000
0010
1000
0001
,
0100
0001
1000
0100
0010
0100
1000
0001
0010
0001
1000
0010
0100
0010
1000
0001
,
0010
0001
1000
0010
0100
0001
1000
0001
0010
0100
1000
0001
1000
0100
1000
0001
,
0010
0001
1000
0010
0100
0001
1000
0001
0010
0100
1000
0001
0100
0001
1000
0100
,
1000
0001
0010
0001
1000
0010
0100
0010
1000
0001
0100
0001
1000
0001
0010
0100
,
0010
0001
1000
0100
1000
0001
1000
0010
0100
0010
1000
0001
0010
0001
1000
0010
,
0100
0010
1000
0001
1000
0100
0010
0100
1000
0001
0010
0001
1000
0001
0100
0010
,
0100
0001
1000
0010
1000
0001
1000
0100
0010
0100
1000
0001
0100
0001
1000
0100
,
0010
0100
1000
0001
1000
0010
1000
0001
0100
0010
1000
0001
1000
0010
1000
0001
,
0100
0001
1000
0100
0010
0100
1000
0001
0010
0001
1000
0010
0100
0010
1000
0001
,
0010
0001
1000
0010
0100
0001
1000
0001
0010
0100
1000
0001
1000
0100
1000
0001
,
0010
0001
1000
0010
0100
0010
1000
0001
0100
0001
1000
0001
0010
0000
0000
0000
,
0011
0001
2000
0000
0000
0000
0000
0000
,
0000
3200
0000
0000
,
0000
0320
0000
0000
,
0000
0032
0000
0000
,
0000
0203
0000
0000
,
0000
0320
0000
0000
,
0000
2030
0000
0000
,
0000
3002
0100
1000
,
0020
0000
0003
0030
0001
0000
0010
0000
0100
0000
1000
0000
0001
0000
0100
0000
,
0010
1000
0001
0010
0100
1000
0001
0100
,
0010
1000
0200
1000
0010
2300
3020
1000
,
0100
2030
3001
0100
0010
1000
0100
1000
,
0001
0010
0001
1000
0010
1000
0001
0100
,
0010
1000
0001
0100
0010
0100
0001
1000
,
0010
1000
0002
0100
1000
0013
2000
0100
,
0001
3010
2000
3020
0230
0302
1003
0001
,
1000
0000
0001
0000
1000
0100
0010
0100
1000
0001
0010
0001
1000
0001
0100
0010
,
0100
0001
1000
0010
1000
0001
1000
0100
0010
0100
1000
0001
0100
0001
1000
0100
,
0010
0100
1000
0001
1000
0010
0100
0010
1000
0001
0100
0001
1000
0001
0010
0100
,
0010
0001
1000
0100
1000
0001
1000
0010
0100
0010
1000
0001
0010
0001
1000
0010
,
0100
0010
1000
0001
1000
0100
1000
0001
0010
0100
1000
0001
1000
0100
1000
0001
,
0010
0001
1000
0010
0100
0010
1000
0001
0100
0001
1000
0100
0010
0100
1000
0001
,
0100
0001
1000
0100
0010
0001
1000
0001
0100
0010
1000
0001
1000
0010
1000
0001
,
0100
0001
1000
0100
0010
0001
1000
0001
0100
0010
1000
0001
0010
0001
1000
0010
,
1000
0001
0100
0001
1000
0100
0010
0100
1000
0001
0010
0001
1000
0001
0100
0010
,
0100
0001
1000
0010
1000
0001
1000
0100
0010
0100
1000
0001
0100
0001
1000
0100
,
0010
0100
1000
0001
1000
0010
0100
0010
1000
0001
0100
0001
1000
0001
0010
0100
,
0010
0001
1000
0100
1000
0001
1000
0010
0100
0010
1000
0001
0010
0001
1000
0010
,
0100
0010
1000
0001
1000
0100
1000
0001
0010
0100
1000
0001
1000
0100
1000
0001
,
0010
0001
1000
0010
0100
0010
1000
0001
0100
0001
1000
0100
0010
0100
1000
0001
,
0100
0001
1000
0100
0010
0001
1000
0001
0100
0010
1000
0001
1000
0010
1000
0001
,
0100
0001
1000
0100
0010
0100
1000
0001
0010
0001
1000
0001
0100
0000
0000
0000
,
0101
0001
0000
0000
0000
0000
0000
0000
;

//---------------dance-single - Mad Matt----------------
#NOTES:
     dance-single:
     Mad Matt:
     Challenge:
     18:
     1.000,1.000,0.185,0.623,1.000,1161.000,24.000,81.000,1.000,0.000:

0000
0000
1100
0100
0010
0001
0010
0001
,
0000
0001
0010
0000
0001
1000
0010
1000
,
0002
0000
0103
0100
0010
1000
0010
1000
,
0000
1000
0010
0000
1000
0001
0010
0100
,
2000
0000
3100
0100
1000
0001
1000
0001
,
0000
0001
0100
0000
0004
1000
0000
0013
,
0200
0000
1300
1000
0010
1000
0010
0100
,
0000
0000
0001
0000
0010
0000
0000
0100
1000
0100
0000
1000
0100
1000
0000
0001
,
0010
0001
0000
0000
1001
0000
0001
0000
0200
0000
0320
0000
2030
0000
3010
0000
,
0000
0002
0013
0000
2000
3020
0230
0302
,
2003
3000
0110
0200
0302
0203
0302
0013
,
0000
2000
3100
0000
0002
2003
3020
0230
,
0302
0003
0101
0001
0020
0230
0320
0130
,
0000
0002
0103
0000
2000
3020
0230
0302
,
2003
3000
1001
1000
0002
0023
0230
0310
,
0000
2000
3010
0000
1020
0030
1002
0003
,
4200
0000
3300
0000
0001
0100
0010
1000
0100
0010
0001
0100
0001
1000
0100
0010
,
0001
0100
0010
0100
0010
1000
0100
0010
0001
0010
0100
1000
0010
0100
0010
0100
,
0001
1000
0100
1000
0010
0100
0001
0010
0100
1000
0010
1000
0001
0010
0100
1000
,
0010
0100
0010
0100
0001
0010
0100
1000
0100
0010
0001
0100
0010
0100
0010
1000
,
0100
0010
0001
1000
0001
0010
0100
1000
0010
0100
0001
0010
0001
1000
0010
0100
,
0001
0010
0100
0010
0100
1000
0010
0100
0001
0100
0010
1000
0100
0010
0100
0010
,
0001
1000
0010
1000
0100
0010
0001
0100
0010
1000
0100
1000
0001
0100
0010
1000
,
0100
0010
0100
0010
0001
0100
0010
1000
0010
0100
0001
0010
0100
1000
0010
0100
,
0001
0010
0100
1000
0001
0100
0010
1000
0100
0010
0001
0100
0001
1000
0100
0010
,
0001
0100
0010
0100
0010
1000
0100
0010
0001
0010
0100
1000
0010
0100
0010
0100
,
0001
1000
0100
1000
0010
0100
0001
0010
0100
1000
0010
1000
0001
0010
0100
1000
,
0010
0100
0010
0100
0001
0010
0100
1000
0100
0010
0001
0100
0010
0100
0010
1000
,
0100
0010
0001
1000
0001
0010
0100
1000
0010
0100
0001
0010
0001
1000
0010
0100
,
0001
0010
0100
0010
0100
1000
0010
0100
0001
0100
0010
1000
0100
0010
0100
0010
,
0001
1000
0010
1000
0100
0010
0001
0100
0010
1000
0100
1000
0001
0100
0010
1000
,
0100
0010
0100
0010
0001
0100
0010
1000
0010
0100
0001
1000
0100
0000
0000
0000
,
1100
1000
0001
0010
0100
1000
0040
0000
,
0130
0040
0000
0130
0001
0100
0040
0000
,
1030
0001
1001
1000
0010
1000
0400
0000
,
1300
0400
0000
0310
0001
1000
0400
0000
,
0310
0001
1001
1000
0001
0100
0040
0000
,
1030
0040
0000
0130
0001
1000
0040
0000
,
1030
0004
0023
0100
0130
1000
0020
0100
,
0130
0000
0001
0000
2000
0000
0001
0000
0001
0000
3001
0000
1000
0001
1000
0001
,
1000
0001
1000
0001
1000
0000
0000
0000
0100
0010
0100
0000
0010
0001
0010
0000
,
0100
1000
0100
0000
1000
0000
0000
0000
0010
0100
0010
0000
1000
0010
1000
0000
,
0001
0100
0001
0000
0010
0000
0000
0000
0100
0010
0100
0000
1000
0001
1000
0000
,
0010
0100
0010
0000
0100
0000
0000
0000
0001
0100
0001
0000
1000
0001
1000
0000
,
0001
0100
0001
0000
1000
0000
0000
0000
0001
1000
0001
0000
1000
0100
1000
0000
,
0001
0010
0001
0000
1000
0000
0000
0000
0001
1000
0001
0000
1000
0010
1000
0000
,
0001
0100
0001
0000
2000
0000
0000
0000
0000
0000
0000
0000
0000
0000
0000
0000
,
0000
0200
0000
0000
,
0000
0000
0000
0000
3300
0000
0000
0000
1000
0100
1000
0000
0100
0010
0100
0000
,
0010
0001
0010
0000
0001
0000
0000
0000
0100
0010
0100
0000
0001
0100
0001
0000
,
1000
0010
1000
0000
0100
0000
0000
0000
0010
0100
0010
0000
0001
1000
0001
0000
,
0100
0010
0100
0000
0010
0000
0000
0000
1000
0010
1000
0000
0001
1000
0001
0000
,
0010
0100
0010
0000
0001
0000
0000
0000
1000
0001
1000
0000
0100
0010
0100
0000
,
1000
0001
1000
0000
0001
0000
0000
0000
1000
0001
1000
0000
0001
0100
0001
0000
,
1000
0010
1000
0000
0002
0000
0000
0000
0000
0000
0000
0000
0000
0000
0000
0000
,
0000
0200
0000
0000
,
M303
0000
0001
0020
0130
2000
3001
0200
,
0301
0020
0130
2000
3001
0200
0301
0000
,
0001
0000
0001
0020
0031
0020
0030
0020
,
0130
2000
3001
0002
0003
0100
0001
0001
,
0001
0000
1000
0200
0310
0002
1003
0020
,
0130
0002
1003
0200
0310
0002
1003
0000
,
1000
0004
0000
0000
,
0000
0000
0000
0000
1003
0100
1000
0001
1000
0100
0010
0100
1000
0001
0010
0100
,
1000
0100
1000
0001
1000
0100
0010
0001
0100
0010
1000
0100
1000
0001
0100
0010
,
1000
0100
0010
0100
0010
0001
0100
0010
1000
0010
0100
0001
0010
0100
0010
0100
,
1000
0001
0100
0001
0010
0100
1000
0010
0100
0001
0010
0001
1000
0010
0100
0001
,
0010
0100
0010
0100
1000
0010
0100
0001
0100
0010
1000
0100
0010
0100
0010
0001
,
0100
0010
1000
0001
1000
0010
0100
0001
0010
0100
1000
0010
1000
0001
0010
0100
,
1000
0010
0100
0010
0100
0001
0010
0100
1000
0100
0010
0001
0100
0010
0100
0010
,
1000
0001
0010
0001
0100
0010
1000
0100
0010
0001
0100
0001
1000
0100
0010
0001
,
0100
0010
0100
0010
1000
0100
0010
0001
0010
0100
1000
0010
0100
0001
0010
0100
,
1000
0010
0100
0001
1000
0100
0010
0001
0100
0010
1000
0100
1000
0001
0100
0010
,
1000
0100
0010
0100
0010
0001
0100
0010
1000
0010
0100
0001
0010
0100
0010
0100
,
1000
0001
0100
0001
0010
0100
1000
0010
0100
0001
0010
0001
1000
0010
0100
0001
,
0010
0100
0010
0100
1000
0010
0100
0001
0100
0010
1000
0100
0010
0100
0010
0001
,
0100
0010
1000
0001
1000
0010
0100
0001
0010
0100
1000
0010
1000
0001
0010
0100
,
1000
0010
0100
0010
0100
0001
0010
0100
1000
0100
0010
0001
0100
0010
0100
0010
,
1000
0001
0010
0001
0100
0010
1000
0100
0010
0001
0100
0001
1000
0100
0010
0001
,
0100
0010
0100
0010
1000
0100
0010
0001
0010
0100
1000
0001
0100
0000
0000
0000
,
0101
0001
2000
0000
0000
0000
0000
0000
,
0000
3200
0000
0000
,
0000
0320
0000
0000
,
0000
0032
0000
0000
,
0000
0203
0000
0000
,
0000
0320
0000
0000
,
0000
2030
0000
0000
,
0000
3002
0100
1000
,
0020
0000
0003
0030
0001
0000
0010
0000
0100
0000
1000
0000
0001
0000
0100
0000
,
0010
1000
0001
0010
0100
1000
0001
0100
,
0010
1000
0200
1000
0010
2300
3020
1000
,
0100
2030
3001
0100
0010
1000
0100
1000
,
0001
0010
0001
1000
0010
1000
0001
0100
,
0010
1000
0001
0100
0010
0100
0001
1000
,
0010
1000
0002
0100
1000
0013
2000
0100
,
0001
3010
2000
3020
0230
0302
1003
0001
,
1000
0000
0001
0000
1000
0010
0100
0001
0010
0100
1000
0010
1000
0001
0010
0100
,
1000
0010
0100
0010
0100
0001
0010
0100
1000
0100
0010
0001
0100
0010
0100
0010
,
1000
0001
0010
0001
0100
0010
1000
0100
0010
0001
0100
0001
1000
0100
0010
0001
,
0100
0010
0100
0010
1000
0100
0010
0001
0010
0100
1000
0010
0100
0010
0100
0001
,
0010
0100
1000
0001
1000
0100
0010
0001
0100
0010
1000
0100
1000
0001
0100
0010
,
1000
0100
0010
0100
0010
0001
0100
0010
1000
0010
0100
0001
0010
0100
0010
0100
,
1000
0001
0100
0001
0010
0100
1000
0010
0100
0001
0010
0001
1000
0010
0100
0001
,
0010
0100
0010
0100
1000
0010
0100
0001
0100
0010
1000
0100
0010
0001
0100
0010
,
1000
0100
0010
0001
1000
0010
0100
0001
0010
0100
1000
0010
1000
0001
0010
0100
,
1000
0010
0100
0010
0100
0001
0010
0100
1000
0100
0010
0001
0100
0010
0100
0010
,
1000
0001
0010
0001
0100
0010
1000
0100
0010
0001
0100
0001
1000
0100
0010
0001
,
0100
0010
0100
0010
1000
0100
0010
0001
0010
0100
1000
0010
0100
0010
0100
0001
,
0010
0100
1000
0001
1000
0100
0010
0001
0100
0010
1000
0100
1000
0001
0100
0010
,
1000
0100
0010
0100
0010
0001
0100
0010
1000
0010
0100
0001
0010
0100
0010
0100
,
1000
0001
0100
0001
0010
0100
1000
0010
0100
0001
0010
0001
1000
0010
0100
0001
,
0010
0100
0010
0100
1000
0010
0100
0001
0100
0010
1000
0001
0010
0000
0000
0000
,
0011
0001
0000
0000
0000
0000
0000
0000
;
