#TITLE:Mochi pounding of BPM1000;
#SUBTITLE:;
#ARTIST:Dustboxxxx feat. じーく;
#TITLETRANSLIT:;
#SUBTITLETRANSLIT:;
#ARTISTTRANSLIT:Dustboxxxx feat. Zeke;
#CREDIT:Fraxtil;
#BANNER:Mochi pounding of BPM1000 - bn.png;
#BACKGROUND:Mochi pounding of BPM1000 - bg.png;
#LYRICSPATH:;
#CDTITLE:;
#MUSIC:Mochi pounding of BPM1000.ogg;
#OFFSET:0.009;
#SAMPLESTART:67.585;
#SAMPLELENGTH:15.360;
#SELECTABLE:YES;
#DISPLAYBPM:250.000;
#BPMS:0.000=250.000,162.000=155.000,178.000=152.000,180.000=150.000,182.000=148.000,186.000=142.000,187.000=134.000,188.000=127.000,189.000=120.000,190.000=113.950,194.000=250.000,531.000=245.000,532.000=244.000,533.000=243.000,534.000=238.500,535.000=237.000,536.000=238.000,537.000=229.200,538.000=230.100,539.000=228.000,540.000=226.000,541.000=223.000,542.000=220.000,543.000=218.000,544.000=215.000,546.000=211.300,547.000=209.000,549.000=203.000,550.000=202.000,551.000=200.000,552.000=197.000,553.000=195.000,554.000=192.300,555.000=191.000,556.000=187.000,557.000=186.000,558.000=185.000,559.000=180.000,560.000=177.700,561.000=176.500,562.000=174.350,563.000=175.000;
#STOPS:;
#BGCHANGES:;
// cache tags:
#FIRSTBEAT:18.000;
#LASTBEAT:577.000;
#SONGFILENAME:Songs/SPEEEDCOOOORE 4/Mochi pounding of BPM1000 - [Fraxtil]/Mochi pounding of BPM1000.sm;
#HASMUSIC:1;
#HASBANNER:1;
#MUSICLENGTH:149.000;
// end cache tags

//---------------dance-single - Fraxtil----------------
#NOTES:
     dance-single:
     Fraxtil:
     Challenge:
     16:
     1.000,1.000,0.631,0.128,0.711,1057.000,94.000,19.000,33.000,0.000:
0000
0000
0000
0000
,
0000
0000
0000
0000
,
0000
0000
0000
0000
,
0000
0000
0000
0000
,
0000
0000
0000
0000
0000
0000
0000
0000
1001
0000
0001
0000
0100
0010
0100
0010
,
1000
0000
0001
0000
0010
0000
0100
0000
1000
0001
1000
0001
0100
0000
0010
0000
,
1000
0100
1000
0100
0010
0001
0100
0001
,
1000
0010
0100
0001
0010
0100
1000
0010
,
1000
0000
0001
0000
0100
0000
0001
0000
1000
0000
0001
0000
0010
0100
0010
0100
,
4000
0000
0000
0000
3001
0000
0100
0000
0010
1000
0010
1000
0001
0000
0010
0000
,
0100
1000
0010
1000
0001
0010
0001
0100
,
0010
0100
0001
1000
0100
0010
0001
0100
,
0010
0000
1000
0000
0100
0000
0010
0000
0011
0000
0001
0000
0100
0010
0100
0010
,
1000
0000
0001
0000
0010
0000
0100
0000
1000
0001
1000
0001
0100
0000
0010
0000
,
1000
0100
1000
0100
0010
0001
0100
0001
,
1000
0010
0100
0001
0010
0100
1000
0010
,
1000
0001
0100
0001
1000
0100
1000
0010
,
0100
0001
0010
0001
1000
0010
1000
0100
,
0010
0000
0001
0000
0100
0000
0001
0000
1000
0100
1000
0001
0010
0100
1000
0001
,
0100
0001
1000
0010
1000
0001
0010
0100
1000
0000
0001
0000
0100
0000
0001
0000
,
1000
0100
0010
0001
1M01
0000
00M0
M000
,
0000
0000
0000
0000
000M
0000
0000
0000
0000
00M0
0000
M000
0000
000M
0000
0000
,
0M00
0000
0M00
0000
0M00
0000
0M00
0000
0M00
0000
0M00
0000
0M00
0000
0M00
0000
0M00
0000
0M00
0000
0M00
0000
0M00
0000
1000
0000
0000
0001
0000
0000
1000
0000
0000
0010
0000
0000
0100
0000
0000
0001
0000
0000
1000
0000
0000
0001
0000
0000
,
0010
0100
0010
0001
1000
0001
0100
0001
1000
0000
0100
0000
0010
0000
0001
0000
,
1000
0000
0010
0000
0100
0000
0001
0000
0010
0100
1000
0001
0100
0000
0010
0000
,
1000
0001
0010
0100
1000
0000
0001
0000
0100
0000
0100
0000
0001
0000
0001
0000
,
1000
0000
0400
0000
1300
0000
0400
0000
0310
0001
0010
0100
1000
0001
0100
0001
,
1000
0010
0100
0001
1000
0001
0010
0100
1000
0000
0001
0000
0100
0000
0010
0000
,
1000
0000
0100
0000
0010
0000
0100
0000
1000
0001
0100
0001
1000
0000
0100
0000
,
0010
0001
1000
0001
0010
0000
0100
0000
1000
0000
1000
0000
0001
0000
0001
0000
,
0100
0000
0040
0000
0130
0000
0040
0000
1030
0000
0001
0010
0100
0000
0010
0000
,
0001
0000
0001
0000
1000
0000
0010
0000
0100
0000
0001
1000
0100
0000
0010
0000
,
0001
0010
0100
1000
0010
0100
0001
1000
,
0100
1000
0010
0100
0001
0010
0100
1000
,
0010
0000
0400
0000
0310
0000
0400
0000
0301
1000
0001
1000
0100
0010
0100
1000
,
0001
0100
0001
0100
0010
1000
0010
0100
0001
0000
1000
0100
0010
0000
0001
0000
,
0100
0010
1000
0001
1000
0100
1000
0010
,
0100
0001
1000
0001
0010
0100
1000
0010
,
0100
0001
0010
0001
1001
0000
0000
0000
,
0000
0000
MMMM
0000
,
0000
0000
1000
0000
,
0010
0000
0100
0010
1000
0000
0100
0000
,
1000
0000
0001
0001
,
0100
0001
0010
0000
,
0000
0000
0100
0000
,
1000
0000
0001
1000
0010
0000
0100
0000
,
0010
0010
1000
1000
,
0001
0000
0000
0000
0010
0000
0000
0000
0100
0000
0000
0000
0000
0000
0000
M000
,
0000
00M0
0000
0000
0M00
0000
000M
0000
1000
0010
0100
0001
1000
0001
0010
0100
,
1000
0001
0100
0001
1000
0100
0010
0100
1000
0001
0100
0010
1000
0001
0100
0001
,
1000
0001
0010
0100
1000
0100
0010
0001
1000
0010
0100
0010
1000
0001
0010
0001
,
1000
0100
1000
0001
1000
0010
0100
0001
0100
0010
1000
0001
0010
0100
0010
0001
,
1000
0010
0100
0001
0010
0001
0100
0010
1000
0100
0010
0001
1000
0001
0100
0010
,
1000
0001
0010
0001
1000
0010
0100
0010
1000
0001
0010
0100
1000
0001
0010
0001
,
1000
0001
0100
0010
1000
0010
0100
0001
1000
0100
0010
0100
1000
0001
0100
0001
,
1000
0010
1000
0001
1000
0100
0010
0001
0010
0100
1000
0001
0100
0010
0100
0001
,
1000
0000
0000
0000
0001
0100
0001
0010
,
0400
0000
1300
0000
0010
0000
1000
0001
0010
0000
0400
0000
0310
0000
0004
0000
,
0203
0000
0000
0000
0300
0000
0004
0003
1000
0000
0001
0000
0040
0000
0130
0000
,
1000
0000
0010
1000
0004
0000
0013
0000
0100
0010
0100
1000
0001
0000
0100
0000
,
0010
0000
0000
0000
1000
0000
0004
0000
1003
0100
0010
0001
1000
0000
0001
0000
,
0100
0000
0040
0000
1030
0000
0001
0010
0100
0000
0040
0000
0031
0000
0400
0000
,
0310
0000
1000
0000
0001
0000
0010
0000
0100
0010
0004
0000
1003
0010
0400
0000
,
0310
0000
1000
0001
0010
0000
0100
0010
0001
0000
4000
0000
3010
0000
0400
0000
,
0301
0040
0430
4300
3001
0010
0001
0100
,
0040
0000
1030
0000
0100
0000
1000
0001
0100
0000
0040
0000
0130
0000
0004
0000
,
0023
0000
0000
0000
0030
0000
0400
0300
1000
0000
0001
0000
0400
0000
0310
0000
,
1000
0000
0100
1000
0004
0000
0103
0000
0010
0100
0010
1000
0001
0000
0010
0000
,
0100
0000
0000
0000
1000
0000
0004
0000
1003
0010
0100
0001
1000
0000
0001
0000
,
0010
0000
0400
0000
1300
0000
0001
0100
0010
0000
0400
0000
0301
0000
0040
0000
,
0130
0000
1000
0000
0001
0000
0100
0000
0010
0100
0004
0000
1003
0100
0040
0000
,
0130
0000
1000
0001
0100
0000
0010
0100
0001
0000
4000
0000
3100
0000
0040
0000
,
0031
0400
0340
4030
3001
0100
0001
1000
,
0100
0010
0001
1000
0010
0100
0010
1000
,
0100
0000
0010
0000
0001
0000
0100
0001
1000
0000
0100
0000
1000
0000
0010
0000
,
0100
0001
1000
0001
0010
0100
1000
0100
,
0010
0000
0001
0000
0100
0000
0010
0000
1010
0000
0000
1000
0000
0000
0001
0000
,
0010
0100
1000
0001
0100
0001
0010
0100
,
1000
0000
0010
0000
1000
0000
0100
0010
0001
0000
0000
1000
0000
0000
0010
0000
,
0000
0100
0000
0000
0001
0000
1000
0000
0001
0000
0040
0000
0000
0000
0130
0000
,
0000
1000
0000
0000
0001
0000
0100
0000
0110
0000
0040
0000
1030
0000
0000
0001
,
0000
0000
0000
0000
0000
0000
0010
0000
0000
0000
0000
0000
0100
0000
0000
1000
0000
0000
0100
0000
0000
0000
0000
0000
0010
0000
0000
0000
0001
0000
0000
0000
1000
0000
0000
0000
0010
0000
0000
0000
0000
0000
0000
0000
0000
0100
0000
0000
,
0000
0000
0004
0000
1003
0000
0100
0000
0010
0100
1000
0000
0000
0001
0000
0000
,
0400
0000
0310
0000
4000
0000
3100
0000
0010
0000
0000
0001
0000
0000
0100
0000
,
0000
0010
0000
1000
0001
0000
0010
0100
1000
0000
0040
0000
0130
0000
0000
0001
,
0000
0000
0000
0000
0000
0000
1000
0000
0000
0000
0000
0000
0100
0000
0000
0010
0000
0000
0001
0000
0000
0000
0000
0000
1000
0000
0000
0000
0010
0000
0000
0000
0100
0000
0000
0000
0001
0000
0000
0000
0000
0000
0000
0000
0000
0010
0000
0000
,
0000
0000
0400
0000
0310
0000
0001
0000
1000
0000
0000
0010
0000
0000
0100
0000
,
0000
0001
0000
0000
0010
0000
0100
0000
1000
0000
0004
0000
0000
0000
0103
0000
,
0000
0010
0000
0000
1000
0000
0100
0000
0010
0000
0400
0000
1300
0000
0000
0001
,
0000
0000
0000
0000
0000
0000
0100
0000
0000
0000
0000
0000
0010
0000
0000
1000
0000
0000
0001
0000
0000
0000
0000
0000
1000
0000
0000
0000
0100
0000
0000
0000
0010
0000
0000
0000
0001
0000
0000
0000
0000
0000
0000
0000
0000
1000
0000
0000
,
0000
0000
0040
0000
1030
0000
0001
0000
0010
0100
1000
0000
0000
0001
0000
0000
,
0400
0000
0310
0000
4000
0000
3100
0000
0010
0000
0000
0001
0000
0000
1000
0000
,
00M0
0000
0000
0000
0000
0000
0M00
0000
1000
0000
0004
0000
0103
0000
0000
0010
,
0000
0000
0000
0000
0000
0000
1000
0000
0000
0000
0000
0000
0100
0000
0000
0010
0000
0000
0001
0000
0000
0000
0000
0000
1000
0000
0000
0000
0010
0000
0000
0000
0100
0000
0000
0000
0001
0000
0000
0000
0000
0000
0000
0000
0000
0010
0000
0000
,
0000
0400
0310
0001
1000
0010
1000
0100
,
0000
0010
0000
0000
0001
0000
1000
0000
0010
0000
0400
0000
0000
0000
0304
0000
,
0000
0000
1003
0010
1000
0000
0100
0000
0010
0000
0001
0000
0100
0000
0010
0000
,
1000
0100
1000
0010
0100
0001
0010
0100
,
1000
0001
0100
0100
0010
1000
0001
0010
,
0100
0010
0001
1000
0010
0100
0001
1000
,
0001
0040
0130
1000
0010
0010
0100
0001
,
1000
1000
0001
0010
0100
4000
3010
0100
,
0001
0010
0001
0001
1000
0010
0100
0010
,
1000
0000
0001
0000
1000
0000
0100
0000
0220
0000
0000
0330
0022
0000
0000
0033
,
2002
0000
0000
3003
2020
0000
0000
3030
0110
0000
0100
0000
0010
0000
1000
0000
,
0001
1000
0100
0010
0001
0100
0010
0100
,
0001
1000
0001
0001
0010
0100
1000
0001
,
1000
0010
1000
0100
0010
0001
0100
0010
,
1000
0400
1300
0001
1001
1000
0100
0010
,
0001
1000
0010
1000
0100
0010
0001
0100
,
0010
0100
0001
0001
1000
0100
1000
0001
,
0100
0010
1000
0001
0010
0010
0001
0001
,
1000
0000
1000
0000
0010
0000
0010
0000
0100
0000
0001
1000
0100
0000
0100
0000
,
0010
0000
0001
0000
1000
0000
0001
0000
0100
0000
0010
1000
0001
0000
0010
0000
,
0100
0000
0010
0000
0001
0000
0001
0000
1000
0000
0010
0100
0001
0000
1000
0000
,
0100
0000
0100
1000
0000
0002
0000
0003
,
0002
0000
0000
0003
0002
0000
0000
0003
0010
0000
0001
1000
0010
0000
0010
0000
,
0100
0000
0001
0000
1000
0000
0001
0000
0010
0000
0100
1000
0001
0000
0100
0000
,
0010
0000
0100
0000
0001
0000
0001
0000
1000
0000
0100
0010
0001
0000
1000
0010
,
0100
0000
0004
0000
0013
0100
0010
0001
1000
0000
0010
0000
0200
0000
0000
0000
,
0301
0000
1000
0000
0100
0000
0000
0000
0110
0000
0010
0001
1000
0000
1000
0000
,
0100
0000
0010
0000
0001
0000
1000
0000
0010
0000
0100
0001
1000
0000
0100
0000
,
0010
0000
0100
0000
1000
0000
1000
0000
0001
0000
0100
0010
1000
0000
0001
0000
,
0010
0000
0010
0001
0000
2000
0000
3000
,
2000
0000
0000
3000
2000
0000
0000
3000
0100
0000
1000
0001
0100
0000
0100
0000
,
0010
0000
1000
0000
0001
0000
1000
0000
0100
0000
0010
0001
1000
0000
0010
0000
,
0100
0000
0010
0000
1000
0000
1000
0000
0001
0000
0010
0100
1000
0000
0001
0100
,
0010
0000
4000
0000
3100
0010
0100
1000
0001
0000
0100
0000
0020
0000
0000
0000
,
1030
0001
0010
0000
0011
0000
0001
0000
,
1001
0000
1000
0010
0100
0000
0110
0000
,
0101
0000
0001
0001
0010
0000
0110
0000
,
1100
1001
0101
0100
,
0010
0400
0301
1000
0100
0100
0010
0010
,
0001
0001
1000
0000
0001
0004
0103
0100
,
0010
0000
1000
0001
0010
0010
0001
0001
,
1000
1000
0010
0010
1000
1000
0100
0100
,
0010
0001
1000
0001
0101
0000
0100
0000
,
1010
0000
0010
1000
1001
0000
0101
0000
,
1001
0000
1000
0100
0110
0000
0110
0000
,
0011
0110
1100
1000
,
0001
0000
0000
0100
0001
0100
0001
0000
0000
1000
0000
0000
1100
0000
0000
0000
0000
0000
0100
0000
0000
0000
0000
0000
,
0110
0000
0010
0001
1001
0000
1010
0000
,
1001
0000
1001
0002
1000
0000
1000
0000
,
0010
0000
1000
0000
0100
0000
0000
00M3
,
M000
0M00
M000
0000
0000
0000
0000
0000
;
