#TITLE:One;
#SUBTITLE:;
#ARTIST:Metallica;
#TITLETRANSLIT:;
#SUBTITLETRANSLIT:;
#ARTISTTRANSLIT:;
#CREDIT:;
#BANNER:;
#BACKGROUND:;
#LYRICSPATH:;
#CDTITLE:;
#MUSIC:One.ogg;
#OFFSET:1.935;
#SAMPLESTART:58.616;
#SAMPLELENGTH:24.000;
#SELECTABLE:YES;
#BPMS:0.000=98.800,64.000=99.400,80.000=99.600,96.000=100.500,124.000=100.600,140.000=100.500,156.000=102.300,175.000=100.900,220.000=103.800,236.000=101.000,256.000=100.500,280.000=100.800,303.000=104.400,315.000=100.600,328.000=101.900,344.000=101.800,363.000=105.900,379.000=107.000,396.000=108.000,400.000=110.000,408.000=108.700,424.000=109.500,440.000=111.100,465.000=208.500,480.000=221.500,512.000=222.000,640.000=220.800,688.000=225.500,720.000=219.100,736.000=223.000,768.000=221.900,804.000=222.200,840.000=223.700,872.000=222.500,880.000=223.600,920.000=223.200,952.000=224.000,984.000=224.200,1048.000=223.700;
#STOPS:;
#BGCHANGES:;
// cache tags:
#FIRSTBEAT:32.000;
#LASTBEAT:1098.000;
#SONGFILENAME:Songs/lvsb tourney pack/One/One.sm;
#HASMUSIC:1;
#HASBANNER:0;
#MUSICLENGTH:105.000;
// end cache tags

//---------------dance-single - DIFFICULT----------------
#NOTES:
     dance-single:
     DIFFICULT:
     Medium:
     9:
     1.000,1.000,1.000,0.905,0.100,1388.000,267.000,95.000,0.000,0.000:
0000
0000
0000
0000
,
0000
0000
0000
0000
,
0000
0000
0000
0000
,
0000
0000
0000
0000
,
0000
0000
0000
0000
,
0000
0000
0000
0000
,
0000
0000
0000
0000
,
0000
0000
0000
0000
,
1000
0100
0010
0002
0000
0000
0000
0000
,
1003
0010
0100
0002
0000
0000
0000
0000
,
0013
0100
1000
0002
0000
0000
0000
0000
,
0103
0010
1000
0002
0000
2000
0000
3000
,
1003
0100
0010
0002
0000
0000
0000
0000
,
1003
0010
0100
0002
0000
0000
0000
0000
,
0103
0010
1000
0002
0000
0000
0000
0000
,
0103
0010
1000
0100
0010
0001
0010
0100
,
2000
0000
0000
3000
1000
1001
1001
0000
,
1001
1001
0000
0010
1001
2002
0000
0000
,
0000
0000
0000
0000
3003
0000
0000
0000
0000
0000
1000
0000
0000
0001
0000
0000
,
1000
0000
0000
0001
0000
0000
0100
0000
0002
0000
0000
0000
0000
0000
0000
0000
,
0003
0000
1000
0100
0002
0000
0003
0000
,
0010
0100
0001
1000
0002
0000
0000
0000
,
0000
0000
0003
0000
0000
0110
0000
1001
,
0101
1001
1000
0200
0000
0000
0000
0000
,
1300
0010
0100
0002
0000
0000
0000
0000
,
0013
0100
1000
0002
0000
0000
0000
0000
,
0103
0010
1000
0001
0100
0001
1000
0100
,
1000
0010
0100
0002
0000
0000
0000
0000
,
1003
0100
0010
0002
0000
0000
0000
0000
,
1003
0010
0100
0002
0000
0000
0000
0000
,
1003
1001
0001
1001
1000
1001
0110
1001
,
0001
0100
0001
0100
0001
0100
0001
1000
,
0100
1000
0010
0100
0001
0010
0001
0100
,
0001
1000
0100
1000
0010
0100
0001
0010
,
0001
0100
0001
1000
0100
1000
0010
0100
,
0001
0010
0001
0100
0001
1000
0100
1000
,
0010
0100
0001
0010
0001
0100
1001
1001
,
1000
0100
1100
1000
0010
0100
0101
0001
,
1000
0001
0101
1000
0001
0100
0001
1000
,
1100
1100
0010
0001
0100
0001
1100
0100
,
1000
0010
0100
0001
1001
0100
1001
0010
,
0100
0010
0110
0100
0001
1000
0100
1000
,
0110
0100
0001
1000
0100
1000
1010
0010
,
0100
0001
1000
0100
1001
0001
0100
0001
,
1000
0001
0100
0001
1000
0100
1000
0010
,
0100
0001
0010
0001
0100
0001
1000
0100
,
0010
0001
0010
0100
1000
0010
0100
0001
,
1000
0100
1000
0010
0100
0001
0010
0001
,
0100
0001
1000
0100
1000
0010
0100
0001
,
0010
0001
0100
0001
1000
0100
1000
0010
,
0100
0001
0010
0001
0100
0001
1000
0100
,
1000
0010
0100
0001
0010
0001
0100
0001
,
1000
0100
1000
0010
0100
0001
0010
0100
,
1000
0100
1000
0010
0100
0001
0010
0001
,
0100
0001
1000
0100
1000
0010
0100
0001
,
0010
0001
0220
0000
0330
1001
0110
1001
,
0202
0303
0101
0000
1010
2002
0000
3003
,
1000
0010
0100
0001
0010
0001
0100
0001
,
1000
0001
0100
0001
1000
0100
1000
0010
,
0100
0001
0010
0001
0100
0001
1000
0100
,
1000
0010
0100
0001
0010
0001
0100
0001
,
1000
0100
1001
0010
0100
0001
0010
0001
,
0100
0001
1000
0100
1000
0010
0100
0001
,
0010
0001
0100
0001
1000
0100
1000
0010
,
0100
0001
0010
0001
0100
0001
1000
0100
,
1000
0001
0100
0001
1000
0100
1000
0010
,
0100
0001
0010
0001
0100
0001
1000
0100
,
1000
0010
0100
0001
0010
0001
0100
0001
,
1000
0100
1000
0010
0100
0001
0010
0001
,
0100
0001
0100
0001
0010
0001
0100
0001
,
1000
0001
0100
0001
1000
0001
0010
0100
,
1000
0010
0100
0001
1000
0100
0010
0001
,
0010
0100
1000
0010
0100
0001
1000
0001
,
0100
0001
1000
0100
1000
0010
0100
0001
,
0010
0001
0100
0001
1000
0100
1000
0010
,
0100
0010
1001
0000
0110
0000
2002
0000
,
3003
0110
1100
0101
0022
0033
0202
0303
,
1001
0220
0000
0330
1001
0001
0100
0001
,
1000
0100
1000
0010
0100
0001
0010
0001
,
0100
0001
1000
0100
1000
0010
0100
0001
,
0010
0001
0100
0001
1000
0100
1000
0010
,
0100
0001
1000
0100
1000
0010
0200
0000
,
0301
0000
1000
0000
0001
0000
0100
0000
0002
0000
0000
1003
0200
0000
0000
0000
,
0300
0000
0000
0000
1100
0000
0100
0000
0010
0000
0001
0000
0010
0000
0000
0001
,
2000
0000
0000
3000
0000
0000
0000
0000
0001
0010
0001
0010
0002
0000
0000
0000
,
1003
0000
0010
0000
0100
0000
0001
0000
2000
0000
0000
3001
0010
0000
0100
0000
,
1000
0000
0001
0000
0100
0000
0100
0000
0100
0000
0100
0010
0100
0010
0200
0000
,
0000
0000
0000
0300
1001
0000
1100
1100
,
1100
1100
1100
0000
0101
0101
0101
0101
,
0101
0000
1000
1000
1000
1000
1000
1000
,
1000
0001
1000
0000
0001
0100
0001
0000
0000
0000
0000
0000
2002
0000
0000
0000
,
3003
0110
1100
0101
0011
0000
1001
0000
,
0110
2002
0000
3003
1100
0100
1000
0010
,
0100
0001
1000
0100
1100
0000
0220
0000
,
0330
1001
0101
1100
0101
0000
1100
0000
,
0110
1001
0000
0000
0110
1000
0001
0100
,
0001
1000
0100
1000
0010
0100
2002
0000
,
3003
0110
1100
0101
0011
0000
0101
0000
,
1001
0000
0220
0000
0330
1100
0101
0011
,
1001
0000
2200
0000
3300
0001
2020
0000
,
3030
1000
0001
0100
2002
0000
3003
0000
,
1100
0000
0011
0000
0000
1010
0101
0011
,
1001
0220
0330
1100
,
1001
0000
0101
0000
0011
0000
1001
0001
,
0110
1000
1100
0000
1001
0001
1001
0000
,
0110
1001
1100
0101
,
0022
0000
0000
0033
2002
0000
3003
0100
,
0110
0000
2002
0000
3003
0010
0100
0001
,
1001
0110
1100
0202
,
0303
0001
1000
0001
0101
0000
1010
0000
,
1100
0110
0011
0101
,
1001
0110
1100
0110
,
1001
0101
0011
0110
,
1100
1001
1100
1001
,
1100
0101
0011
0110
,
1100
1001
0110
1100
,
0110
2002
0000
0000
,
0000
0000
0000
0000
,
0000
0000
0000
0000
,
0000
0000
0000
3003
,
1000
1000
1100
0000
,
1000
1000
1100
0000
,
1000
1000
1100
0000
,
1000
1000
1100
0000
,
1000
1000
2200
3300
,
1000
1000
1100
0000
,
1000
1000
2200
3300
,
1000
1000
1100
1010
,
1000
1000
2200
3300
,
1000
1000
1100
1010
,
1000
1000
2200
3300
,
1000
1000
1100
1010
,
1000
1000
2200
3300
,
1000
1000
1100
1010
,
1000
1000
2200
3300
,
1000
1000
1100
1010
,
1000
1000
1100
0000
,
1000
1000
1100
0000
,
1000
1000
1100
0000
,
1000
1000
1100
1010
,
1000
1000
1100
0000
,
1000
1000
1100
0000
,
1000
1000
1100
0000
,
1000
1000
1100
1010
,
1000
1000
2200
3300
,
1000
1000
1100
1010
,
1000
1000
2200
3300
,
1000
1000
1100
1010
,
1000
1000
2200
3300
,
1000
1000
1100
1010
,
1000
1000
2200
3300
,
1000
1000
1100
1010
,
0001
0001
0101
0000
,
0001
0001
0101
0000
,
0001
0001
0101
0000
,
0001
0001
0101
0011
,
0001
0001
0101
0000
,
0001
0001
0101
0000
,
0001
0001
0101
0000
,
0001
0001
0101
0011
,
0001
0001
0101
0001
,
0010
1100
1000
1010
,
0010
0100
0101
0001
,
0010
0011
0001
0101
,
0100
0100
0110
0010
,
1000
1100
0100
0011
,
0001
0001
1001
1000
,
1000
1100
0100
0110
,
0010
0010
0010
0010
,
0010
0010
0010
0010
,
0010
0010
0010
0010
,
0010
0010
0010
0010
,
0010
0010
0011
0001
,
0001
1001
1000
1100
,
1000
1000
1010
0010
,
0010
0110
0100
0101
,
0001
0001
1001
1000
,
1000
1010
0010
0110
,
0100
0100
0101
0001
,
0001
1001
1000
1010
,
0010
0010
0010
0010
,
0010
0010
0010
0010
,
0010
0010
0010
0010
,
0010
0010
0010
0010
,
1000
0010
0100
0001
1000
0100
0010
0001
,
0010
0100
1000
0010
0100
0001
1000
0100
,
1000
0010
0100
0001
0010
0001
0100
0001
,
1000
0001
0100
0001
1000
0100
1000
0010
,
0100
0001
0010
0001
0100
0001
0100
0001
,
1000
0010
1000
0010
0100
0001
1000
0100
,
1000
0010
0100
0001
0010
0001
0010
0001
,
0100
0001
0100
0001
1000
0100
1000
0010
,
2000
0000
0000
3002
,
0000
0000
0010
1003
,
2002
0000
0000
0000
,
0000
0000
0000
3003
,
1000
0001
1000
0000
0001
0100
0001
0000
,
1000
0100
1000
0000
0010
0100
0010
0000
,
0001
0010
0001
0000
1000
0100
1000
0000
,
0010
0010
0010
0010
,
0010
0010
0010
0010
,
1000
0001
1000
0001
1000
0001
1000
0001
,
1000
0001
1000
0000
0001
1000
0001
0000
,
1000
0001
1000
0000
0001
1000
0001
0000
,
1000
0100
1000
0000
0001
0100
0001
0000
,
1000
0010
1000
0000
0001
0010
0001
0000
,
1000
0100
0010
0001
0010
0100
1000
0000
,
1000
0000
0000
1000
0000
0000
1000
0000
2000
0000
0000
0000
0000
0000
3000
0000
,
0001
0100
0001
1000
0100
1000
0010
0000
,
0001
0000
0000
0100
0000
0000
0010
0000
1000
0000
0000
0000
0000
0000
0000
0000
,
1000
1000
0100
0000
1000
1000
0100
0000
,
1000
1000
0100
0000
1000
1000
0100
0000
,
1000
0001
1000
0001
0100
0000
0001
0000
,
1000
0100
1000
0010
,
0100
0100
0010
0000
0100
0100
0010
0000
,
0100
0100
0010
0000
0100
0100
0010
0000
,
1000
0001
0100
0001
1000
0100
1000
0010
,
0100
0001
1000
0100
1000
0010
0100
0000
,
0001
0001
0001
0001
,
0001
0001
0001
0001
,
1000
1000
1100
1000
,
1000
1001
1000
1010
,
1000
1000
1100
1000
,
1000
1010
1000
1001
,
1000
1000
1100
0100
,
0100
0110
0010
0011
,
0001
0001
0101
0100
,
0100
0110
0010
1010
,
0010
0010
0010
0010
,
0010
0010
0010
0010
,
1000
0001
0100
0001
1000
0000
0010
0000
,
1000
0100
1000
0100
1000
0000
0001
0000
,
0100
0010
0100
0001
1000
0000
0001
0000
,
0100
0001
1000
0100
1000
0000
0010
0000
,
0100
0001
1000
0100
1000
0000
0010
0000
,
0001
0100
0001
0100
0001
0000
1000
0000
,
1000
0010
1000
0010
1000
0000
0100
0000
,
0001
0010
0001
0100
0001
0000
1000
0000
,
0001
1000
0001
1000
0001
0000
0010
0000
,
1000
0100
1000
0100
1000
0000
0010
0000
,
0100
0001
0100
0001
0100
0000
0010
0000
,
1000
0001
1000
0001
1000
0000
0010
0000
,
1000
0001
0100
0001
1000
0000
0010
0000
,
1000
0100
1000
0100
1000
0000
0010
0000
,
0100
0001
0100
0001
0100
0000
0010
0000
,
1000
0100
1000
0010
0100
0000
0001
0000
,
1000
0001
0100
0001
1000
0000
0010
0000
,
1001
0110
1001
0110
,
1000
1000
1100
0100
,
0100
0110
0010
0011
,
0001
0001
1001
1000
,
1000
1010
0010
0110
,
0100
0100
0101
0001
,
0001
0011
0010
0110
,
0100
0100
1100
1000
,
1000
1001
0001
0101
,
0100
0100
0010
0000
0100
0100
0010
0000
,
0100
0100
0010
0000
0100
0100
0010
0000
,
1000
0001
1001
1000
,
0001
0101
0001
0011
,
1000
1000
0010
0000
1000
1000
0010
0000
,
1000
1000
0010
0000
1000
1000
0010
0000
,
1000
0001
1100
0001
,
1000
0100
1000
0000
1000
0100
1000
0000
,
0001
0100
0101
0001
,
1000
0010
1000
0000
1000
0010
1000
0000
,
1000
0001
1001
0001
,
0100
0010
0100
0000
0100
0010
0100
0000
,
1000
0001
0101
0001
,
1000
1000
0001
0000
1000
1000
0001
0000
,
1000
1000
0001
0000
1000
1000
0001
0000
,
1000
0010
0110
0100
,
0001
0011
0001
1001
,
1000
0010
1000
0010
1000
0010
1000
0000
0000
0001
0100
0001
,
0100
0001
0100
0002
0000
0000
0003
0000
0000
0000
0000
0000
;

//---------------dance-single - INCOMPLETE----------------
#NOTES:
     dance-single:
     INCOMPLETE:
     Hard:
     11:
     0.061,1.000,0.019,0.076,0.038,35.000,2.000,8.000,0.000,0.000:
0000
0000
0000
0000
,
0000
0000
0000
0000
,
0000
0000
0000
0000
,
0000
0000
0000
0000
,
0000
0000
0000
0000
,
0000
0000
0000
0000
,
0000
0000
0000
0000
,
0000
0000
0000
0000
,
1000
0010
0100
0002
0000
0000
0000
0000
,
0013
0100
1000
0002
0000
0000
0000
0000
,
0103
0010
1000
0200
0000
0000
0000
0000
,
1300
0010
0100
0002
0000
2000
0000
3000
,
1003
0010
0100
0002
0000
0000
0000
0000
,
0003
0000
0000
0000
,
0000
0000
0000
0000
,
0000
0000
0000
0000
,
0000
0000
0000
0000
,
0000
0000
0000
0000
,
0000
0000
0000
0000
,
0000
0000
0000
0000
,
0000
0000
0000
0000
,
0000
0000
0000
0000
,
0000
0000
0000
0000
,
0000
0000
0000
0000
,
0000
0000
0000
0000
,
0000
0000
0000
0000
,
0000
0000
0000
0000
,
0000
0000
0000
0000
,
0000
0000
0000
0000
,
0000
0000
0000
0000
,
0000
0000
0000
0000
,
0000
0000
0000
0000
,
0000
0000
0000
0000
,
0000
0000
0000
0000
,
0000
0000
0000
0000
,
0000
0000
0000
0000
,
0000
0000
0000
0000
,
0000
0000
0000
0000
,
0000
0000
0000
0000
,
0000
0000
0000
0000
,
0000
0000
0000
0000
,
0000
0000
0000
0000
,
0000
0000
0000
0000
,
0000
0000
0000
0000
,
0000
0000
0000
0000
,
0000
0000
0000
0000
,
0000
0000
0000
0000
,
0000
0000
0000
0000
,
0000
0000
0000
0000
,
0000
0000
0000
0000
,
0000
0000
0000
0000
,
0000
0000
0000
0000
,
0000
0000
0000
0000
,
0000
0000
0000
0000
,
0000
0000
0000
0000
,
0000
0000
0000
0000
,
0000
0000
0000
0000
,
0000
0000
0000
0000
,
0000
0000
0000
0000
,
0000
0000
0000
0000
,
0000
0000
0000
0000
,
0000
0000
0000
0000
,
0000
0000
0000
0000
,
0000
0000
0000
0000
,
0000
0000
0000
0000
,
0000
0000
0000
0000
,
0000
0000
0000
0000
,
0000
0000
0000
0000
,
0000
0000
0000
0000
,
0000
0000
0000
0000
,
0000
0000
0000
0000
,
0000
0000
0000
0000
,
0000
0000
0000
0000
,
0000
0000
0000
0000
,
0000
0000
0000
0000
,
0000
0000
0000
0000
,
0000
0000
0000
0000
,
0000
0000
0000
0000
,
0000
0000
0000
0000
,
0000
0000
0000
0000
,
0000
0000
0000
0000
,
0000
0000
0000
0000
,
0000
0000
0000
0000
,
0000
0000
0000
0000
,
0000
0000
0000
0000
,
0000
0000
0000
0000
,
0000
0000
0000
0000
,
0000
0000
0000
0000
,
0000
0000
0000
0000
,
0000
0000
0000
0000
,
0000
0000
0000
0000
,
0000
0000
0000
0000
,
0000
0000
0000
0000
,
0000
0000
0000
0000
,
0000
0000
0000
0000
,
0000
0000
0000
0000
,
0000
0000
0000
0000
,
0000
0000
0000
0000
,
0000
0000
0000
0000
,
0000
0000
0000
0000
,
0000
0000
0000
0000
,
0000
0000
0000
0000
,
0000
0000
0000
0000
,
0000
0000
0000
0000
,
0000
0000
0000
0000
,
0000
0000
0000
0000
,
0000
0000
0000
0000
,
0000
0000
0000
0000
,
0000
0000
0000
0000
,
0000
0000
0000
0000
,
0000
0000
0000
0000
,
0000
0000
0000
0000
,
0000
0000
0000
0000
,
0000
0000
0000
0000
,
0000
0000
0000
0000
,
0000
0000
0000
0000
,
0000
0000
0000
0000
,
0000
0000
0000
0000
,
0000
0000
0000
0000
,
0000
0000
0000
0000
,
0000
0000
0000
0000
,
0000
0000
0000
0000
,
0000
0000
0000
0000
,
0000
0000
0000
0000
,
0000
0000
0000
0000
,
0000
0000
0000
0000
,
0000
0000
0000
0000
,
0000
0000
0000
0000
,
0000
0000
0000
0000
,
0000
0000
0000
0000
,
0000
0000
0000
0000
,
0000
0000
0000
0000
,
0000
0000
0000
0000
,
0000
0000
0000
0000
,
0000
0000
0000
0000
,
0000
0000
0000
0000
,
0000
0000
0000
0000
,
0000
0000
0000
0000
,
0000
0000
0000
0000
,
0000
0000
0000
0000
,
0000
0000
0000
0000
,
0000
0000
0000
0000
,
0000
0000
0000
0000
,
0000
0000
0000
0000
,
0000
0000
0000
0000
,
0000
0000
0000
0000
,
0000
0000
0000
0000
,
0000
0000
0000
0000
,
0000
0000
0000
0000
,
0000
0000
0000
0000
,
0000
0000
0000
0000
,
0000
0000
0000
0000
,
0000
0000
0000
0000
,
0000
0000
0000
0000
,
0000
0000
0000
0000
,
0000
0000
0000
0000
,
0000
0000
0000
0000
,
0000
0000
0000
0000
,
0000
0000
0000
0000
,
0000
0000
0000
0000
,
0000
0000
0000
0000
,
0000
0000
0000
0000
,
0000
0000
0000
0000
,
0000
0000
0000
0000
,
0000
0000
0000
0000
,
0000
0000
0000
0000
,
0000
0000
0000
0000
,
0000
0000
0000
0000
,
0000
0000
0000
0000
,
0000
0000
0000
0000
,
0000
0000
0000
0000
,
0000
0000
0000
0000
,
0000
0000
0000
0000
,
0000
0000
0000
0000
,
0000
0000
0000
0000
,
0000
0000
0000
0000
,
0000
0000
0000
0000
,
0000
0000
0000
0000
,
0000
0000
0000
0000
,
0000
0000
0000
0000
,
0000
0000
0000
0000
,
0000
0000
0000
0000
,
0000
0000
0000
0000
,
0000
0000
0000
0000
,
0000
0000
0000
0000
,
0000
0000
0000
0000
,
0000
0000
0000
0000
,
0000
0000
0000
0000
,
0000
0000
0000
0000
,
0000
0000
0000
0000
,
0000
0000
0000
0000
,
0000
0000
0000
0000
,
0000
0000
0000
0000
,
0000
0000
0000
0000
,
0000
0000
0000
0000
,
0000
0000
0000
0000
,
0000
0000
0000
0000
,
0000
0000
0000
0000
,
0000
0000
0000
0000
,
0000
0000
0000
0000
,
0000
0000
0000
0000
,
0000
0000
0000
0000
,
0000
0000
0000
0000
,
0000
0000
0000
0000
,
0000
0000
0000
0000
,
0000
0000
0000
0000
,
0000
0000
0000
0000
,
0000
0000
0000
0000
,
0000
0000
0000
0000
,
0000
0000
0000
0000
,
0000
0000
0000
0000
,
0000
0000
0000
0000
,
0000
0000
0000
0000
,
0000
0000
0000
0000
,
0000
0000
0000
0000
,
0000
0000
0000
0000
,
0000
0000
0000
0000
,
0000
0000
0000
0000
,
0000
0000
0000
0000
,
0000
0000
0000
0000
,
0000
0000
0000
0000
,
0000
0000
0000
0000
,
0000
0000
0000
0000
,
0000
0000
0000
0000
,
0000
0000
0000
0000
,
0000
0000
0000
0000
,
0000
0000
0000
0000
,
0000
0000
0000
0000
,
0000
0000
0000
0000
,
0000
0000
0000
0000
,
0000
0000
0000
0000
,
0000
0000
0000
0000
,
0000
0000
0000
0000
,
0000
0000
0000
0000
,
0000
0000
0000
0000
,
0000
0000
0000
0000
,
0000
0000
0000
0000
,
0000
0000
0000
0000
,
0000
0000
0000
0000
,
0000
0000
0000
0000
,
0000
0000
0000
0000
,
0000
0000
0000
0000
,
0000
0000
0000
0000
,
0000
0000
0000
0000
,
0000
0000
0000
0000
,
0000
0000
0000
0000
,
0000
0000
0000
0000
,
0000
0000
0000
0000
,
0000
0000
0000
0000
,
0000
0000
0000
0000
,
0000
0000
0000
0000
,
0000
0000
0000
0000
,
0000
0000
0000
0000
,
0000
0000
0000
0000
,
0000
0000
0000
0000
,
0000
0000
0000
0000
,
0000
0000
0000
0000
,
0000
0000
0000
0000
,
0000
0000
0000
0000
,
0000
0000
0000
0000
,
0000
0000
0000
0000
,
0000
0000
0000
0000
,
0000
0000
0000
0000
,
0000
0000
0000
0000
,
0000
0000
0000
0000
,
0000
0000
0000
0000
,
0000
0000
0000
0000
,
0000
0000
0000
0000
,
0000
0000
0000
0000
,
0000
0000
0000
0000
,
0000
0000
0000
0000
,
0000
0000
0000
0000
,
0000
0000
0000
0000
,
1000
0010
1000
0010
1000
0010
1010
0000
0000
0001
0100
0001
,
0100
0001
0100
0202
0000
0000
0303
0000
0000
0000
0000
0000
;

//---------------dance-single - CHALLENGE----------------
#NOTES:
     dance-single:
     CHALLENGE:
     Challenge:
     13:
     1.000,1.000,1.000,0.838,1.000,2076.000,355.000,88.000,0.000,0.000:
0000
0000
0000
0000
,
0000
0000
0000
0000
,
0000
0000
0000
0000
,
0000
0000
0000
0000
,
0000
0000
0000
0000
,
0000
0000
0000
0000
,
0000
0000
0000
0000
,
0000
0000
0000
0000
,
1000
0010
0100
0002
0000
0000
0000
0000
,
1003
0010
0100
0020
0000
0000
0000
0000
,
1030
0100
1000
0002
0000
0000
0000
0000
,
0103
0010
0100
0002
0000
2000
0000
3003
,
1000
1100
0001
0102
0000
0000
0000
0000
,
0013
0110
0100
2100
0000
0000
0000
0000
,
3001
0011
0001
0201
0000
0000
0000
0000
,
0310
0000
0000
0000
0100
0000
0000
0000
0001
0000
0000
0000
1000
0000
0000
0000
0001
0000
0000
0000
1000
0000
0100
0000
1000
0000
0000
0000
0001
0100
0000
0000
,
2020
0000
0000
0000
0000
0000
3030
0000
1100
0000
1000
0010
0001
0000
0000
0000
,
0001
0010
1000
0000
0000
0000
0110
0000
1000
0100
0002
0000
0000
0000
0000
0000
,
0000
0000
0000
0000
0003
0000
0000
0000
1001
0000
0100
0010
0000
0010
0001
0000
,
0001
0000
0100
0000
0000
0000
0100
0000
0010
0000
0000
0000
0110
0000
0000
0000
1000
0200
0000
0000
0000
0000
0000
0000
0000
0000
0000
0000
0000
0000
0000
0000
,
0000
0000
0000
0000
1300
0000
0001
0010
2000
0000
0000
0000
0000
0000
3000
0000
,
0110
0000
0000
0000
1001
0000
0000
0000
1000
0000
0100
0000
0001
0000
0000
0000
1000
0020
0000
0000
0000
0000
0000
0000
0000
0000
0000
0000
0000
0000
0000
0000
,
0000
0000
0000
0000
0130
1001
0010
1001
,
0100
0000
0000
0000
1001
0000
0000
0000
0110
0000
0000
0000
1001
0000
0000
0000
0000
0000
0000
0000
0100
0010
0000
0000
0001
0000
0000
0000
0000
0000
0000
0000
,
1000
0100
0001
0000
2020
0000
0000
0000
0000
0000
0000
0000
0000
0000
3030
0000
,
1001
0000
1000
0100
1000
0000
0101
0000
0001
0010
0001
0000
0110
0000
1000
0100
,
1000
0000
0000
0000
0110
0000
0000
0000
1000
0010
0000
0000
0110
0000
0000
0000
1001
0000
0000
0000
0110
0000
0000
0000
0000
0000
0000
0000
0000
0000
0000
0000
,
1100
0000
0001
0010
0001
0010
0001
0000
1000
0100
0010
0001
1000
0000
0001
1000
,
0100
1000
0100
0000
1000
0000
0100
0000
0010
0000
0001
0000
0100
0000
0010
0000
,
2000
0000
0000
3001
0200
0000
0000
0000
0000
0000
0000
0000
0300
0000
0000
0000
,
0010
1100
0010
0101
0010
1001
0110
1100
,
1000
0000
0100
0000
1000
0000
0100
0100
1000
0000
0101
0000
0010
0000
0001
0000
,
0100
0000
0001
0001
1000
0000
0110
0000
1000
0000
0010
0000
1000
0000
0001
0001
,
0100
0000
1010
0000
0100
0000
0001
0000
0100
0000
0010
0000
1000
0100
1000
0000
,
0010
0000
0100
0000
0001
0000
1000
1000
0010
0000
0110
0000
0001
0000
0100
0000
,
0001
0000
1000
1000
0010
0000
1100
0000
0001
0000
1000
0000
0100
0000
1000
1000
,
0001
0000
0110
0000
1000
0000
0001
0100
0010
0000
1000
0000
1100
0000
1001
0000
,
0110
1000
0110
0001
0010
0100
1010
0100
,
0010
0000
0000
1000
0000
0000
0101
0000
0000
0010
0000
0000
0100
0000
0000
0001
1000
0100
1000
0000
0000
1000
0001
0010
,
0001
0110
0001
1000
0100
1000
0011
0100
,
0001
0000
0000
0010
0000
0000
0001
0000
0000
1000
0000
0000
0001
0020
0000
0000
0000
0000
0031
0000
0000
1000
0000
0000
,
0100
0000
0000
1000
0000
0000
0110
0000
0000
0100
0000
0000
0001
0000
0000
0010
0001
1000
0001
0000
0000
0100
0010
0001
,
1000
0100
1001
0010
0100
0001
1010
0001
,
1100
0001
0010
0100
2002
0003
3001
0010
,
0001
0000
0100
0100
0001
0000
1000
0000
0100
0000
1000
0000
0010
0000
1000
1000
,
0100
0000
1000
0000
0001
0000
0100
0000
0010
0000
1000
1000
0001
0000
0010
0000
,
0001
0000
1000
0000
0100
0000
1000
0000
0001
1000
0101
0000
1000
0000
0010
0000
,
0100
0000
0001
0001
0010
0000
0100
0000
1000
0000
0010
0000
0100
0000
0001
0001
,
1000
0000
0100
0000
1000
0000
0010
0000
0100
0000
0010
0010
1000
0000
0100
0000
,
1001
0000
0110
0000
1001
0000
0110
0000
1000
0000
0001
0000
0100
0000
0001
0001
,
0100
0000
0010
0000
1000
0000
0100
0000
1000
0000
0010
0010
0100
0000
0001
0000
,
1000
0000
0100
0000
1000
0000
0010
0010
0100
0000
0001
0000
0110
0000
0001
0000
,
0100
0000
0010
0000
1001
0000
0110
0000
1000
0000
0001
0000
0100
0000
0001
0001
,
0010
0000
0100
0000
1000
0000
0010
0000
0100
0000
0001
0001
1000
0000
0100
0000
,
1000
0000
0010
0000
1000
0000
0100
0100
1000
0000
0100
0000
1001
0000
0110
0000
,
1001
0110
2002
0000
3003
1100
0110
0011
,
1001
0000
0110
0000
1100
0101
1100
0000
,
1010
0100
0001
0010
0001
0100
0001
1000
,
0100
1000
0110
0100
0001
0010
1001
0100
,
0001
0000
0000
1000
0010
1000
0100
0000
0000
0001
0010
0001
0100
0000
0000
0001
0000
0000
1000
0000
0000
0100
0000
0000
,
1000
0010
1100
0001
1010
0001
0100
0010
,
1001
0100
0010
0001
1000
0100
1001
0010
,
0100
0000
0000
0001
1000
0100
1000
0000
0000
0010
0000
0000
0100
0000
0000
0001
0000
0000
0010
0000
0000
0001
0000
0000
,
0100
0001
1010
0100
1000
0010
0100
0001
,
1010
0000
0000
0000
1000
0000
0100
0000
1000
0000
0001
0001
0010
0000
0100
0000
,
1000
0000
0010
0000
0100
0000
0001
0001
1000
0000
0100
0000
1000
0000
0010
0000
,
1000
0000
0100
0100
1000
0000
0100
0000
1000
0000
0010
0000
0100
0000
0001
0000
,
1000
0002
0000
0000
0103
0000
0010
0000
1000
0000
0100
0100
1000
0000
0010
0000
,
0100
0000
0001
0000
0010
0000
0001
0001
0100
0000
0010
0000
1000
0000
0100
0000
,
1000
0000
0010
0010
0100
0000
0010
0000
0100
0000
1001
0000
0110
0000
1001
0000
,
0110
0000
0001
0000
1000
0000
0100
0100
1000
0000
0001
0000
0100
0000
0001
0000
,
1000
0000
0100
0100
1000
0000
0010
0000
0100
0000
0001
0000
1000
0000
0100
0100
,
1000
0000
0010
0000
0100
0000
0001
0000
1000
0000
0100
0000
1000
0001
1000
0000
,
0010
0000
0100
0000
0001
0000
1000
1000
0100
0000
1000
0000
0010
0000
0100
0000
,
0001
0000
0010
0010
0001
0000
0100
0000
0010
0000
1000
0000
0100
0000
1000
1000
,
0010
0100
0001
0110
1000
0110
2002
0000
,
3003
1100
0110
0011
1001
0000
0110
0000
,
1001
0101
0000
1010
0101
0010
0001
0100
,
0001
1000
0100
1000
0010
0100
1001
0010
,
0001
0000
0000
0100
0000
0000
0110
0000
0000
1000
0000
0000
0010
0000
0000
1000
0100
1000
0100
0000
0000
0010
0000
0000
,
0001
0100
0001
1000
0100
1000
0011
0100
,
1001
0000
0010
0000
0001
0000
0100
0000
1001
0010
0100
0010
0200
0000
0000
0000
,
0301
0000
1000
0000
0100
0000
1000
0000
0010
0000
0000
1000
0200
0000
0000
0000
,
0000
0000
0000
0000
0000
0000
0000
0000
1300
0100
0000
0000
0010
0000
0000
0000
0001
0000
0000
0000
0100
0000
0000
0000
0001
0000
0000
0000
0000
0000
1000
0000
,
0020
0000
0000
0000
0000
0000
0030
0000
1100
0010
0001
0010
0002
0000
0000
0000
,
1003
0000
0100
0000
1000
0000
0010
0000
0200
0000
0000
0301
0010
0000
0100
0000
,
1000
0000
0000
0000
0000
0000
0001
0000
0000
0000
0000
0000
1000
0000
0100
0000
0010
0000
0001
0000
1000
0000
0100
0000
0010
0000
0001
0000
1000
0000
0100
0000
0000
1000
0000
0000
0100
0000
0000
1000
0000
0000
0002
0000
0000
0000
0000
0000
,
0000
0000
0000
0000
0000
0000
0000
0000
0000
0000
0000
0000
0000
0000
0003
0000
0110
0000
0000
0000
0000
0000
0000
0000
1000
0010
0000
0000
0110
0000
0000
0000
,
0110
0000
0000
0000
0110
0000
0000
0000
0101
0000
0000
0000
0000
0000
0000
0000
0001
0010
0000
0000
0110
0000
0000
0000
0110
0000
0000
0000
0110
0000
0000
0000
,
1100
0000
0000
0000
0000
0000
0000
0000
1000
0100
1000
0000
0001
0100
0001
0000
0010
0100
0010
0000
1000
0100
1000
0000
0001
0100
0001
0000
1000
0010
1000
0000
,
0001
0010
0001
0000
1000
0100
2000
0000
0000
0000
3000
0000
0202
0000
0000
0000
,
0303
1010
0110
0011
1001
0000
0101
0000
,
1001
1010
0210
0000
0001
0010
1000
0010
,
0001
1000
0010
1000
0301
0000
2020
0000
,
3030
0110
0101
1100
2002
3003
0110
0000
,
1100
0011
0101
0000
1100
1000
1010
0010
,
0110
0100
0101
0001
0011
0000
2002
0000
,
3003
0110
1100
0110
2002
3003
0110
0000
,
1100
0000
2002
0000
3003
0110
1001
0101
,
2200
3300
0011
0000
1001
0000
0202
0000
,
0303
1000
0100
1000
0101
0000
1010
0010
,
0110
0000
2200
0000
3300
1000
0010
0100
,
1001
0000
0110
0100
0101
0000
0101
0100
,
0110
0000
1100
1000
1001
0001
0101
1100
,
0101
0010
2002
0000
3003
0010
0100
0001
,
1010
0110
1001
2200
,
3300
0100
0001
1000
0220
0000
0330
1001
,
1001
0000
0000
0000
0001
0010
0000
0010
0001
0000
0100
0000
0010
0000
1000
0000
,
0110
0000
1100
0100
1001
0000
0110
1000
,
0110
0000
1001
0010
1001
0000
0110
0001
,
1100
0000
1100
0000
1100
0001
0100
0001
,
1000
0100
1000
0010
1001
0000
0110
0000
,
1100
0101
1001
0011
,
1100
0000
0110
0000
1100
0010
0001
0100
,
0001
1000
0100
1000
0011
0000
0101
0000
,
1010
0000
0000
0000
0110
0000
0000
0000
1100
0000
0001
0001
1000
0000
0000
0000
,
0110
2002
0000
0000
,
0000
0000
0000
0000
,
0000
0000
0000
0000
,
0000
0000
0000
3003
,
1000
0010
1000
0010
1000
0010
1010
0000
0000
0000
0000
0000
,
0001
0100
0001
0100
0001
0100
0101
0000
0000
0000
0000
0000
,
1000
0100
1000
0100
1000
0100
1100
0000
0000
0000
0000
0000
,
0001
0010
0001
0010
0001
0010
0011
0000
0000
0000
0000
0000
,
1000
0100
1000
0100
1000
0100
2200
0000
0000
3300
0000
0000
,
0001
0010
0001
0010
0001
0010
0011
0000
0000
0000
0000
0000
,
1000
0100
1000
0100
1000
0100
2200
0000
0000
3300
0000
0000
,
1000
0001
1000
0001
1000
0001
1001
0000
0000
0110
0000
0000
,
1000
0100
1000
0100
1000
0100
2200
0000
0000
3300
0000
0000
,
0001
0010
0001
0010
0001
0010
0011
0000
0000
1001
0000
0000
,
0100
0010
0100
0010
0100
0010
0220
0000
0000
0330
0000
0000
,
1000
0100
1000
0100
1000
0100
1100
0000
0000
0011
0000
0000
,
1000
0100
1000
0100
1000
0100
2200
0000
0000
3300
0000
0000
,
0010
0001
0010
0001
0010
0001
0011
0000
0000
1010
0000
0000
,
1000
0001
1000
0001
1000
0001
2002
0000
0000
3003
0000
0000
,
0010
0100
0010
0100
0010
0100
0110
0000
0000
1001
0000
0000
,
1000
0010
1000
0010
1000
0010
1010
0000
0000
0000
0000
0000
,
0001
1000
0001
1000
0001
1000
1001
0000
0000
0000
0000
0000
,
1000
0100
1000
0100
1000
0100
1100
0000
0000
0000
0000
0000
,
0001
0100
0001
0100
0001
0100
0101
0000
0000
1010
0000
0000
,
1000
0100
1000
0100
1000
0100
1100
0000
0000
0000
0000
0000
,
0001
0100
0001
0100
0001
0100
0101
0000
0000
0000
0000
0000
,
1000
0010
1000
0010
1000
0010
1010
0000
0000
0000
0000
0000
,
0001
0010
0001
0010
0001
0010
0011
0000
0000
1001
0000
0000
,
1000
0100
1000
0100
1000
0100
1100
0000
0000
0011
0000
0000
,
0001
0100
0001
0100
0001
0100
0101
0000
0000
1010
0000
0000
,
1000
0001
1000
0001
1000
0001
2002
0000
0000
3003
0000
0000
,
1000
0010
1000
0010
1000
0010
1010
0000
0000
0101
0000
0000
,
0001
0010
0001
0010
0001
0010
0022
0000
0000
0033
0000
0000
,
1000
0100
1000
0100
1000
0100
1100
0000
0000
0101
0000
0000
,
0100
0010
0100
0010
0100
0010
0220
0000
0000
0330
0000
0000
,
1000
0001
1000
0001
1000
0001
1001
0000
0000
0110
0000
0000
,
0001
0010
0100
1000
0010
0100
0101
0000
0000
0000
0000
0000
,
1000
0001
0100
0001
1000
0010
0110
0000
0000
0000
0000
0000
,
0001
0010
0100
1000
0010
0100
0101
0000
0000
0000
0000
0000
,
1000
0100
1000
0010
0100
0001
0011
0000
0000
1100
0000
0000
,
0100
1000
0010
0100
0001
0010
0011
0000
0000
0000
0000
0000
,
0100
1000
0010
0100
0001
0100
0110
0000
0000
0000
0000
0000
,
0001
0100
0010
1000
0100
1000
1100
0000
0000
0000
0000
0000
,
1000
0100
0010
0001
1000
0001
1001
0000
0000
0110
0000
0000
,
1000
0100
1000
0100
1000
0010
1010
0000
0000
0001
0100
0001
,
0010
0001
0100
0101
0000
0000
1000
0010
1000
1100
0000
0000
,
0001
0010
0001
0100
0001
1000
1001
0000
0000
0100
0010
0001
,
1000
0100
1000
1010
0000
0000
1000
0001
0100
0101
0000
0000
,
1000
0100
1000
0010
0100
0001
1001
0000
0000
0001
0100
0001
,
1000
0100
1000
1010
0000
0000
0100
0010
0100
0101
0000
0000
,
1000
0100
0010
0001
1000
0100
1100
0000
0000
0001
0100
0010
,
1000
0100
1000
1100
0000
0000
1000
0001
0010
0011
0000
0000
,
1000
0100
0010
0001
1000
0100
2000
0000
0000
3001
0100
0001
,
1000
0100
1000
0020
0000
0000
0130
0001
0100
0002
0000
0000
,
1003
0100
1000
0010
0100
0001
1000
0000
0000
0001
0100
0001
,
1000
0100
1000
0010
0000
0000
0001
1000
0001
1000
0001
0100
,
0001
0100
0001
0100
0001
0100
0110
0000
0000
1000
0100
1000
,
0100
1000
0100
0110
0000
0000
0001
0100
0001
1001
0000
0000
,
1000
0100
1000
0100
1000
0100
1001
0000
0000
0001
0100
0001
,
0100
0001
0100
1001
0000
0000
1000
0100
1000
1001
0000
0000
,
0100
0001
0100
0001
0100
0001
1001
0000
0000
0001
0100
0001
,
0100
0001
0100
0110
0000
0000
0001
0100
0010
0110
0000
0000
,
1000
0100
1000
0100
0010
0001
0011
0000
0000
0100
0010
0001
,
1000
0100
1000
1100
0000
0000
1000
0010
0100
0110
0000
0000
,
0001
0100
0001
1000
0100
1000
0010
0000
0000
0100
0001
1000
,
0100
1000
0010
0100
0000
0000
0001
1000
0100
1000
0000
0000
,
1000
0100
1000
0010
0100
0001
1000
0000
0000
0100
0001
1000
,
0100
1000
0010
0100
0000
0000
1000
0100
0010
0001
1000
0100
,
1000
0100
1000
0100
1000
0100
1000
0100
1000
0100
1000
0100
1000
0100
1000
0100
,
0010
0001
0010
0001
0010
0001
0010
0001
0010
0001
0010
0001
0010
0001
0010
0001
,
1000
0001
1000
0001
1000
0001
1000
0001
1000
0001
1000
0001
1000
0001
1000
0001
,
0100
0001
0100
0001
0100
0001
0100
0001
0100
0001
0100
0001
0100
0001
0100
0001
,
0100
0010
0100
0010
0100
0010
0100
0010
0100
0010
0100
0010
0100
0010
0100
0010
,
1000
0010
1000
0010
1000
0010
1000
0010
1000
0010
1000
0010
1000
0010
1000
0010
,
1000
0000
0100
0000
1000
0000
0010
0000
0100
0000
0001
0000
,
0010
0000
0001
0000
0100
0000
0001
0000
1000
0000
0100
0000
,
1000
0001
1000
0001
1000
0001
1000
0001
1000
0001
1000
0001
1000
0001
1000
0001
,
0010
0100
0010
0100
0010
0100
0010
0100
0010
0100
0010
0100
0010
0100
0010
0100
,
0020
0000
0000
0030
0010
0000
0020
0000
,
0000
0000
0000
0000
0030
0000
1000
0100
,
1000
0010
0100
0001
0010
0001
0100
0001
,
1000
0100
1000
0010
0100
0001
0010
0001
,
0100
0001
1000
0100
1000
0010
0100
0001
,
1000
0100
0000
0000
0010
0001
0000
0000
1000
0010
0000
0000
0100
0001
0000
0000
,
1000
0100
0000
0000
1000
0010
0000
0000
1000
0001
0000
0000
0100
0001
0000
0000
,
1000
0100
1000
0000
0001
0100
0001
0000
,
1000
0100
0010
0000
0001
0100
0010
0000
,
1000
0100
1000
0010
0000
0000
0001
0100
0001
0010
0000
0000
,
1000
0100
1000
0010
0000
0000
0001
1000
0100
1000
0000
0000
,
0001
0010
0001
0100
0000
0000
0010
1000
0100
1000
0000
0000
,
1000
0000
0000
1000
0000
0000
1000
0000
0000
1000
0000
0000
1000
0000
0000
1000
,
0000
0000
1000
0000
0000
1000
0000
0000
2000
0000
0000
0000
0000
0000
0000
0000
,
3001
0010
0001
0100
0001
1000
0100
0000
,
1100
0000
0110
0000
0011
0000
2002
0000
0000
0000
3003
0000
,
1000
1000
1100
0000
0001
0001
0101
0000
,
0010
0010
0110
0000
1000
1000
1100
0000
,
0001
0010
0001
0100
0001
1000
0100
1000
,
0010
0100
0001
1000
0100
1000
0010
0100
,
0001
0001
0101
0000
0100
0100
0110
0000
,
0010
0010
1010
0000
1000
1000
1100
0000
,
1010
1010
1010
1010
,
1010
1010
1010
1010
,
1000
0100
1000
0010
0100
0001
1000
0000
0000
0001
0100
0001
,
1000
0100
1000
0010
0100
0001
0010
0001
0100
0001
0000
0000
,
1000
0100
1000
0010
0100
0001
1001
0000
0000
0010
0100
0001
,
1000
0100
1000
1010
0000
0000
0001
0100
0001
1001
0000
0000
,
1000
0100
1000
0010
0100
0001
0011
0000
0000
0100
0001
1000
,
0100
1000
0010
0110
0000
0000
0001
0100
0001
0101
0000
0000
,
1000
0100
1000
0010
0100
0001
0011
0000
0000
1000
0100
1000
,
0010
0100
0001
1100
0000
0000
1000
0100
0010
0110
0000
0000
,
1000
0100
0010
0001
1000
0100
1010
0000
0000
0001
0100
0010
,
1000
0100
1000
0101
0000
0000
0010
0100
0001
1001
0000
0000
,
1000
0001
0100
0001
1000
0100
1000
0000
0000
0001
0010
0001
,
0100
0001
1000
0100
1000
0010
0100
0001
0100
0001
1000
0100
,
1000
0100
1000
0010
0100
0001
1000
0000
,
0001
0100
0001
0100
0000
0000
1000
0100
1000
0100
0000
0000
,
1000
0010
0100
0001
1000
0100
1000
0000
,
0001
0010
0001
0010
0000
0000
1000
0100
1000
0100
0000
0000
,
0001
0100
0001
1000
0100
1000
0010
0000
,
0001
1000
0001
1000
0000
0000
1000
0001
1000
0001
0000
0000
,
1000
0100
0010
0001
1000
0100
1000
0000
,
0001
0100
0001
0100
0000
0000
1000
0100
1000
0100
0000
0000
,
1000
0010
0100
0001
1000
0100
1000
0000
,
0001
0010
0001
0010
0000
0000
1000
0100
1000
0100
0000
0000
,
1000
0001
1000
0001
0000
0000
0100
0010
0100
0010
0000
0000
,
1000
0100
1000
0010
0100
0001
0010
0000
,
0001
0100
0001
0100
0000
0000
1000
0100
1000
0100
0000
0000
,
1000
0010
0100
0001
0010
0001
0100
0000
,
1000
0100
1000
0100
0000
0000
0001
0100
0001
0100
0000
0000
,
0010
0100
0010
0100
0000
0000
1000
0001
1000
0001
0000
0000
,
1000
0100
1000
0100
0000
0000
1000
0010
1000
0010
0000
0000
,
0001
0100
0001
0100
0000
0000
0100
0001
0100
0001
0000
0000
,
1000
0010
0100
0001
1000
0001
0101
0000
0000
1000
0100
1000
,
0010
0100
0001
1001
0000
0000
0001
0100
0001
0110
0000
0000
,
1000
0100
1000
0010
0100
0001
0011
0000
0000
0100
0010
1000
,
0100
1000
0010
0110
0000
0000
0001
1000
0100
1100
0000
0000
,
0001
0100
0001
1000
0100
1000
1010
0000
0000
0001
0010
0001
,
0100
0001
1000
1100
0000
0000
1000
0010
0100
0101
0000
0000
,
1000
0100
1000
0010
0100
0001
0011
0000
0000
0001
0100
0001
,
1000
0100
1000
1010
0000
0000
0100
0010
0100
0101
0000
0000
,
0001
0001
0101
0000
0100
0100
0110
0000
,
0010
0010
1010
0000
1000
1000
1100
0000
,
1000
0100
1000
0010
0100
0001
1001
0000
0000
0001
0100
0001
,
1000
0100
1000
1010
0000
0000
1000
0100
1000
1001
0000
0000
,
0010
0010
0110
0000
0100
0100
0101
0000
,
0001
0001
1001
0000
1000
1000
1100
0000
,
1000
0100
1000
0010
0100
0001
1001
0000
0000
0110
0000
0000
,
1000
0100
1100
0000
1000
0100
1100
0000
,
0001
0010
0001
0100
0001
1000
1100
0000
0000
1010
0000
0000
,
0100
0010
1001
0000
0100
0010
1001
0000
,
0001
0010
0001
0100
0001
1000
1100
0000
0000
0110
0000
0000
,
0001
1000
0110
0000
1000
0001
0110
0000
,
1000
0100
1000
0010
0100
0001
0011
0000
0000
0110
0000
0000
,
1000
1000
1100
0000
1000
1000
1100
0000
,
1000
1000
1100
0000
1000
1000
1100
0000
,
1000
0010
1000
0010
0100
0001
1001
0000
0000
0100
0001
1000
,
0100
1000
0010
0110
0000
0000
0001
1000
0100
1100
0000
0000
,
1000
0010
1000
0010
1000
0010
1001
0000
0000
0001
0100
0001
,
0100
0001
0100
2002
0000
0000
3003
0000
0000
0000
0000
0000
;
