#TITLE:Hate Me;
#SUBTITLE:Follow the Reaper (2000);
#ARTIST:Children of Bodom;
#TITLETRANSLIT:;
#SUBTITLETRANSLIT:;
#ARTISTTRANSLIT:;
#CREDIT:;
#BANNER:hate me-banner.png;
#BACKGROUND:hate me-bg.png;
#LYRICSPATH:;
#CDTITLE:melonman67.png;
#MUSIC:Children of Bodom - 07 - Hate Me!.mp3;
#OFFSET:0.870;
#SAMPLESTART:93.173;
#SAMPLELENGTH:12.000;
#SELECTABLE:YES;
#BPMS:0.000=188.180,397.000=188.000,421.000=188.180,622.000=188.000;
#STOPS:194.000=0.660
;
#BGCHANGES:;
// cache tags:
#FIRSTBEAT:4.000;
#LASTBEAT:886.000;
#SONGFILENAME:Songs/Astronomic Metal Collection/Hate me (melonman67)/hate me.sm;
#HASMUSIC:1;
#HASBANNER:1;
#MUSICLENGTH:285.239;
// end cache tags

//---------------dance-single - Copied from Copied f----------------
#NOTES:
     dance-single:
     Copied from Copied f:
     Challenge:
     12:
     0.952,1.000,0.729,0.126,0.524,1656.000,208.000,36.000,0.000,0.000:
0000
0000
0000
0000
,
1001
1000
1001
0000
0001
0000
0001
0000
,
0001
0001
0001
0001
,
1001
1000
2001
0000
0001
0000
0001
0000
,
0001
0000
0001
3000
0001
1000
1001
1000
,
1001
1000
1001
0000
0001
0000
0001
0000
,
0001
0001
0001
0001
,
0001
0100
0000
0101
0000
0001
0100
0010
,
0000
1010
0000
1000
0100
0010
0001
1000
,
1001
0000
0001
1000
0010
0100
0001
0010
,
0100
2000
0000
3001
1000
0010
0100
0001
,
0010
0100
1000
0100
0001
0100
1000
0001
,
1000
0002
0000
1003
0010
0100
0001
0100
,
0010
1000
0001
0010
0001
1000
0001
1000
,
0010
0200
0000
0301
1000
0010
0100
0001
,
0100
0010
0100
0001
0010
0100
1000
0100
,
0010
0110
0000
0010
0001
0010
0100
1000
,
0001
1000
0001
1000
0010
0100
0001
0010
,
0100
2000
0000
3001
1000
0010
0100
0001
,
0010
0100
1000
0100
0001
0100
1000
0001
,
1000
0002
0000
1003
0010
0100
0001
0100
,
0010
1000
0001
0010
0001
1000
0001
1000
,
0010
0200
0000
0301
1000
0010
0100
0001
,
0100
0010
0100
0001
0010
0100
1000
0100
,
0010
0001
1000
1000
0000
1001
1001
0000
,
0000
0000
1001
0000
0000
0000
1000
0000
0010
0000
0100
0000
0010
1000
0001
0000
,
1000
0010
0100
0001
1000
0001
1000
1100
,
0110
0000
0011
0000
0000
0000
0001
0000
1000
0000
0010
0000
0100
0001
1000
0000
,
0001
0100
1000
0100
0001
0010
0001
0010
,
0100
1100
0000
1100
0011
0000
0011
1100
,
0000
1001
0000
0101
1010
0000
1010
0101
,
0000
1001
0000
1010
0110
0000
0110
1010
,
0000
1001
0001
0010
0100
1100
0000
0011
,
0000
0000
1001
0000
0000
0000
0001
0000
0010
0000
0100
0000
1000
0010
0100
0000
,
0001
0010
0100
1000
0100
0010
0001
0011
,
0011
0000
1100
0000
0000
0000
1000
0000
0010
0000
0100
0000
0001
1000
0001
0000
,
1000
0010
0100
0001
0010
0100
1100
1100
,
0110
0011
0000
0011
0110
0000
0110
1100
,
0000
1001
0000
0101
1010
0000
1010
1100
,
0000
0011
0000
0110
1100
0000
1001
0101
,
0000
0000
0001
0000
1000
0010
0100
0001
1000
0100
0010
0001
1000
0010
0100
0001
,
1000
0100
0010
0001
0010
0000
0000
0000
0100
0000
2200
0000
0000
0000
0000
0000
,
0000
0000
0000
0000
,
3300
0000
0110
0000
0011
2002
0000
0000
,
3003
0000
1000
0001
1000
0001
1000
0001
,
1000
0001
1001
0000
1010
0202
0000
0000
,
0000
0000
0000
0000
,
0303
0000
0100
0001
0010
0001
1000
0000
,
0011
0110
1100
0110
0011
1001
0000
1000
,
0010
0000
0100
0000
0001
0010
0100
0000
0010
0000
1000
0000
0010
0000
0001
0000
,
0100
0010
1000
0100
0001
0100
1000
0001
,
1000
0000
0010
0000
0100
0001
1000
0000
0100
0000
0010
0000
0001
0000
1000
0000
,
0010
0001
0010
1000
0001
1001
0000
1100
,
0011
0000
1100
1001
0000
0101
0000
1010
,
1100
0000
0011
0110
0000
1100
0000
1001
,
0110
0000
0110
0101
0000
1001
0001
0001
,
0001
0011
0000
0110
0000
1100
0000
1000
,
0001
0000
0100
0000
0010
1000
0001
0000
0010
0000
0100
0000
1000
0000
0001
0000
,
0010
0100
0010
0001
0001
2000
0000
3001
,
1000
0000
0010
0000
0100
0001
1000
0000
0100
0000
0010
0000
0001
0000
1000
0000
,
0100
0010
0001
0010
0001
0011
0000
0000
,
1001
0000
1000
0010
0000
1010
0000
1000
,
0100
0000
0100
0010
0000
0011
0000
0001
,
1000
0000
0000
0000
1000
0001
0010
0100
0010
0001
1000
0001
0010
0100
0010
0001
,
1000
0001
0010
0100
0010
0001
1000
0000
0001
0000
1000
0000
1001
0000
0000
0000
,
0011
1100
0000
0000
1000
0000
0001
0000
,
1000
0001
0001
0000
1000
0000
0101
0000
,
1010
0101
0000
0000
0001
0000
1000
1000
,
0001
0001
1000
1000
0001
0001
0011
0000
,
0110
0011
0000
0000
0001
0000
0010
0000
,
0100
1000
0100
0010
0001
0000
0001
1000
,
0010
0100
0001
0000
0101
0110
1010
1001
,
1001
0001
0001
1001
,
0110
1001
1000
0010
,
0100
0001
0000
0001
0010
0000
0100
0000
,
1000
0000
0001
0100
0001
0100
1000
0100
,
1000
0100
0001
0100
0001
0100
1000
0100
,
1000
0100
0001
0000
1000
0000
0010
0000
,
1000
0001
0000
0001
0100
0000
0010
0000
,
1000
0000
0001
0010
0001
0010
1000
0010
,
1000
0010
0001
0010
0001
0010
1000
0010
,
1000
0010
0002
0000
0000
0000
0000
0000
,
1003
0000
0001
0000
1000
0000
0001
1000
0001
0000
0001
1000
0001
0000
0001
1000
,
0001
0000
0001
1000
0001
0000
1000
0000
0010
0000
0100
0000
0001
0000
0010
0000
,
0100
1000
0100
0010
0001
0100
1000
0100
,
0001
0010
0100
1000
0010
0001
0010
1000
,
0001
1000
0010
0100
0001
0010
0100
1000
,
0100
0010
0001
0010
0100
0010
0001
1000
,
0010
0100
0001
1000
0010
1000
0100
1000
,
0001
1000
0010
0100
0001
0010
0001
1000
,
0100
0010
0001
0010
0100
1000
0100
0010
,
0100
0000
1000
0000
0001
0010
0100
1000
0010
0100
0001
0010
0100
1000
0010
0100
,
0001
0100
0010
0100
0001
1000
0001
1000
0100
0010
0001
0010
0100
0010
0001
1000
,
0010
0100
0010
1000
0010
0100
0001
0010
0100
1000
0100
0010
0001
0010
0100
1000
,
0100
0010
0100
1000
0010
0100
0001
1000
0001
0100
0010
1000
0010
0100
0001
0010
,
0100
0010
0001
1000
0100
0010
0001
0010
0100
1000
0100
0010
0001
0010
0100
0010
,
0001
1000
0100
0010
0100
1000
0001
1000
0010
0100
0001
0100
0010
1000
0010
0100
,
0001
0010
0100
1000
0100
0010
0100
1000
0001
1000
0001
0010
0100
0010
0001
1000
,
0010
0100
0010
1000
0010
0100
0001
0010
0100
1000
0100
0010
0001
0010
0100
1000
,
0001
0010
0100
1000
0001
0010
0001
0010
0100
0010
0100
0010
0100
1000
0100
1000
,
0100
0010
0100
0010
0100
1000
0100
1000
0001
1000
0001
1000
0010
1000
0010
1000
,
0010
0100
0010
0100
0001
0000
0100
0000
0010
0000
1000
0000
0010
0000
0100
0000
,
0001
0010
0100
1000
0100
0020
0000
0000
,
0031
0000
0000
0000
0001
0010
0100
1000
0100
0001
0100
1000
0010
0100
0001
0010
,
0100
1000
0010
0001
0010
1000
0010
0100
0001
0010
0100
1000
0200
0000
0000
0000
,
0300
0000
0010
0001
0000
0011
0000
0001
,
1000
0001
0000
0101
0000
0100
0010
1000
,
0010
0100
0101
0000
0101
0100
0010
1000
,
0010
0100
0001
0011
0000
0011
0010
0100
,
1000
0001
1000
0001
1001
1000
0010
0100
,
0001
1000
0010
1010
0000
1010
1000
0001
,
0100
0010
0100
0001
0011
0010
0100
1000
,
0100
0010
0001
0011
0000
0011
0001
1000
,
0010
0100
0001
0100
0101
0001
1000
0001
,
0010
0001
0100
0101
0000
0110
0110
0110
,
0110
0110
0110
1010
0000
1000
0100
0010
,
0001
0010
0100
0000
1000
0000
0001
0000
0100
0000
0010
0000
0100
0000
0001
0000
,
0010
0100
1000
0100
0000
1000
0001
0100
,
0010
1000
0001
0000
0010
0000
0100
0000
1000
0000
0100
0000
0010
0000
0001
0000
,
1000
1000
0001
0101
0000
0110
1010
0000
,
1100
0011
0000
1001
0000
1010
0101
0000
,
1010
1100
0000
0011
0000
1001
0101
0000
,
1010
0000
1100
0000
0000
0000
1000
0100
0010
0000
0001
0000
1000
0000
1001
0000
,
0000
1001
0000
0011
0000
0010
0100
1000
,
0100
0010
0001
0000
0010
0000
0100
0000
1000
0000
0001
0000
1000
0000
0010
0000
,
0100
0001
0001
0001
0000
0100
0010
1000
,
0001
1000
0001
0000
0010
0000
0100
0000
1000
0100
0010
0001
0010
0100
1000
0100
,
0010
0001
0010
0100
1000
0001
0100
0000
0000
0000
0110
0000
1010
0000
0000
0000
,
1100
0110
0000
0011
0000
0101
0110
0000
,
1010
1100
0000
0110
0000
0011
0001
0010
,
0100
1000
0100
0010
1000
0010
0100
1000
,
0100
0010
0001
1000
0001
0000
1000
2002
,
0000
0000
0000
0000
,
0000
0000
3003
0000
1010
0000
0101
0022
,
0000
0000
0033
0000
0001
0010
0001
1000
,
0001
0100
0001
0010
0001
0000
1000
0020
,
0000
0000
0000
0000
,
0000
0000
0000
0030
0100
0100
0001
0001
,
0010
0000
0010
0010
0100
1100
0100
0000
,
0100
0010
0001
0010
0200
0000
0000
0000
,
0000
0000
0000
0000
,
0000
0000
0000
0000
,
0000
0000
0300
1100
,
1100
1100
0200
0000
,
0000
0000
0000
0000
,
0000
0000
0000
0000
,
0000
0000
0300
0000
1000
0100
0010
0000
,
0001
1000
0002
0000
,
0000
0000
0000
0000
,
0000
0000
0000
0000
,
0000
0000
0003
1001
,
1001
1001
2000
0000
,
0000
0000
0002
0003
,
0020
0030
0200
0000
,
0000
3300
1100
1100
,
1100
0000
1100
0000
1000
1000
0001
0000
,
1000
0000
0001
0001
1000
1000
0001
0001
,
1000
0001
1000
0001
1000
0001
1000
0000
1000
0000
1000
0000
1000
0000
0000
0000
,
0000
0000
1000
0001
0001
0001
1000
0001
,
0001
0000
0001
1000
0001
1000
0001
1000
0001
0000
1000
0000
0001
0000
0000
0000
,
1000
0000
0001
0001
1000
0001
0001
0001
,
1000
0001
1000
0001
1000
0001
1000
0000
0001
0000
0001
0000
1000
0000
1000
0000
,
0000
0000
1000
1000
0001
0001
1000
1000
,
0001
0000
0001
1000
0001
1000
0001
1000
0001
0000
1000
0000
0001
0000
0000
0000
,
1000
1000
0001
0001
1000
1000
0001
0001
,
1000
0000
1000
0001
1000
0001
1000
0001
1000
0000
0001
0000
1000
0000
1000
0000
,
0000
0000
1000
1000
0001
0001
1000
1000
,
0001
0000
0001
1000
0001
1000
0001
1000
0001
0000
1000
0000
0000
0000
0000
0000
,
1000
1000
0000
0000
1000
1000
0000
0000
,
1100
1100
1100
1100
0000
0000
1001
1001
,
0000
0000
1010
1010
0000
0000
1010
1010
,
0000
0000
1000
1000
1001
0001
0100
0010
,
1000
1000
0001
1000
0001
0010
0100
0100
,
1000
0000
1000
0000
0001
0000
1000
0000
1000
0001
0100
0010
1000
0001
0010
0100
,
0010
0001
1000
0010
0100
0001
1000
0010
0100
0010
1000
0001
0010
0100
2000
0000
,
0000
0000
0000
3000
0000
0000
0001
0010
0100
1000
0010
0100
,
0001
0010
0100
1000
0010
0100
0001
0100
1000
0100
0001
0010
,
0100
0000
1000
0000
0010
0000
0100
0000
0001
0000
0010
0000
0100
0000
0000
1000
0000
0000
0001
0000
0000
1000
0000
0000
,
1000
0010
0010
0100
0100
0001
0010
0100
,
1000
0000
0002
0000
0000
0000
0000
0000
1003
0010
0100
0001
0010
0001
1000
0010
,
0100
0001
0010
0001
1000
0100
1000
0010
0100
0001
0100
0010
1000
0100
1000
0001
,
0010
0100
1000
0100
1000
0100
0010
0001
0010
0100
0010
0001
1000
0010
0100
0001
,
0100
0001
0010
0100
1000
0100
0010
0001
1000
0100
0010
0001
0100
0010
1000
0100
,
0010
0001
0010
0100
0010
0001
1000
0010
0100
0000
0100
0000
0010
0000
0100
0000
,
0100
0000
0100
0000
0010
0000
0100
0000
0100
0000
0100
0000
0010
0000
0100
0010
,
0100
0000
0100
0000
0010
0000
0010
0000
1000
0100
0010
0001
0010
0100
0010
0001
,
1000
0010
0100
0001
0010
0100
1000
0010
0100
0001
0010
0100
1000
0100
0010
0001
,
2000
0000
0002
3003
1001
0000
1010
0000
,
0101
0000
0001
0000
0010
0000
0100
1000
,
0000
1000
0100
0000
0010
0000
0001
0000
,
1000
0001
1000
0001
0100
0001
0100
0001
,
1000
0001
1000
0001
0100
0001
0100
0001
,
0101
0000
0100
0000
0010
0000
1000
0100
,
0000
0100
0010
0000
0001
0000
1000
0000
,
0010
0100
0010
0100
0001
0100
0001
0100
,
0010
0100
0010
0100
0001
0100
0001
0100
,
0002
0000
0000
0000
,
0013
0100
1000
0001
0010
0100
1000
0001
,
1000
0010
1000
0010
1000
0010
0100
0010
,
0100
0001
0100
0001
0100
0001
0010
0001
,
0010
0100
0010
0100
1000
0100
1000
0100
,
0010
0100
0010
0001
0010
0001
1000
0001
,
1000
0001
0100
0001
0100
0010
0100
0010
,
1000
0010
1000
0010
0100
0010
0100
0001
,
0100
0001
0010
0001
0010
0100
0010
0100
,
1000
0100
0010
0001
0010
0100
1000
0100
0010
0001
0010
0100
1000
0100
0010
0001
,
0010
0001
1000
0010
0100
0001
0100
0010
1000
0100
0010
0001
0010
0100
1000
0010
,
0100
0001
0100
0010
0100
0001
0010
0100
1000
0100
0010
0001
0010
0100
0010
0001
,
1000
0010
0100
0010
1000
0010
0100
0001
0010
0100
1000
0010
0100
0001
0010
0100
,
1000
0100
0010
0001
0010
0100
0010
0001
1000
0100
0010
0001
0010
0001
1000
0001
,
0100
0001
0010
0001
1000
0010
0100
0001
1000
0010
1000
0100
1000
0001
1000
0010
,
1000
0010
0100
0001
0010
0100
1000
0010
0100
0001
0010
0100
1000
0010
0100
0001
,
0010
0100
1000
0100
0010
0001
0100
0010
1000
0100
0010
0001
0100
0010
1000
0100
,
0010
0001
0010
0100
1000
0100
0010
0001
0100
0010
1000
0010
0100
0001
1000
0001
,
1000
0001
1001
0001
1000
0000
1001
0001
,
1001
0001
1000
0000
1001
0001
1001
0001
,
1001
0000
0001
0000
1001
0000
0001
0000
1000
0000
0000
0000
1001
0000
0001
1000
,
1001
0000
0000
0000
1000
0000
0000
0000
1001
1000
0001
1000
1001
0000
0001
1000
,
1001
0001
1001
0000
1000
0000
1001
0001
,
1001
0000
1000
0000
1001
0001
1001
0001
,
1000
0100
0010
0001
0010
0000
0100
1000
,
0100
1000
2200
0000
3300
0000
0000
0000
;

//---------------dance-single - ----------------
#NOTES:
     dance-single:
     :
     Hard:
     9:
     0.673,0.893,0.266,0.242,0.049,1198.000,76.000,69.000,0.000,0.000:
0000
0000
0000
0000
,
1010
0010
0010
0010
,
0010
0010
0010
0010
,
1010
0110
0010
0010
,
0010
0010
0010
0010
,
1010
0010
0010
0010
,
0010
0010
0010
0010
,
0010
1000
0000
1000
0000
1000
0010
0100
,
0000
0100
0000
0100
0001
0100
0001
0010
,
0001
0000
0001
1000
0010
0100
0010
1000
,
0001
0020
0000
0130
0010
0001
0010
0100
,
1000
0001
1000
0001
0010
0001
1000
0100
,
0010
0002
0000
0013
0100
0010
0100
1000
,
0001
0100
0010
1000
0010
0100
0001
0010
,
0100
2000
0000
3100
0010
0001
1000
0001
,
0100
0001
0010
0100
1000
0100
0010
0001
,
1000
0002
0000
1003
0010
0100
0001
0100
,
0010
1000
0001
1000
0010
0100
0010
1000
,
0001
0020
0000
0130
0010
0001
0010
0100
,
1000
0001
1000
0001
0010
0001
1000
0100
,
0010
0002
0000
0013
0100
0010
0100
1000
,
0001
0100
0010
1000
0010
0100
0001
0010
,
0100
2000
0000
3100
0010
0001
1000
0001
,
0100
0001
0010
0100
1000
0100
0010
0001
,
1000
0001
1000
1000
0000
0001
0001
0000
,
0000
1001
0000
0000
0001
0000
0010
0000
,
0100
0000
1000
0000
0100
0000
0010
0001
,
1000
0001
0000
0000
0001
0000
1000
0000
,
0010
0000
0100
0000
0001
0000
0001
0001
,
0001
1000
0000
1000
0010
0000
0010
0100
,
0000
0001
0000
0001
0010
0000
0100
1000
,
0000
0010
0000
0010
0100
0000
0100
0001
,
0000
0001
0010
0100
1000
1001
0000
1010
,
0000
0101
0000
0100
0010
1000
0010
0100
,
0001
0010
0100
1000
0100
0010
0001
0010
,
0000
0010
0000
0100
1000
0001
0100
0010
,
1000
0001
0010
0001
1000
0100
1000
0000
,
0000
1001
0000
1000
0100
0000
0100
0010
,
0000
0001
0000
0010
0100
0000
0100
1000
,
0000
0001
0000
0100
0010
0000
0010
1000
,
0000
0100
0010
0001
,
0010
0000
0110
0000
0010
0022
0000
0000
,
0000
0000
0000
0000
,
0000
0033
0001
0000
0001
0202
0000
0000
,
0000
0303
0100
0001
0100
0001
0100
0001
,
0100
0001
0100
0000
0100
0220
0000
0000
,
0000
0000
0000
0000
,
0000
0330
0010
1000
0010
0100
0001
0000
,
1000
0001
1000
0001
1000
1001
0000
0001
,
0010
0000
0100
0000
0010
0100
0010
0000
0100
0000
1000
0000
0100
0000
0010
0000
,
0001
0010
0001
1000
0100
1000
0000
0100
,
1000
0000
0100
0000
1000
0001
1000
0000
0001
0000
0010
0000
0100
0000
1000
0000
,
0100
0010
0001
1000
0001
1000
0000
0001
,
0100
0000
0100
0010
0000
0010
0000
0010
,
1000
0000
1000
0100
0000
0100
0000
0100
,
0010
0000
0010
0001
0000
0001
1000
0001
,
0100
0010
0000
0110
0000
1001
0000
1000
,
0100
0000
0010
0000
0100
0010
0100
0000
0010
0000
0001
0000
0010
0000
0100
0000
,
1000
0100
1000
0001
0010
0001
0000
0010
,
0001
0000
0010
0000
0001
1000
0001
0000
1000
0000
0100
0000
0010
0000
0001
0000
,
0010
0100
1000
0001
1000
0001
0000
1000
,
0010
0000
0010
0100
0000
0100
0000
0100
,
0001
0000
0001
0010
0000
0010
0000
0010
,
0100
0000
0100
1000
0001
1000
0010
1000
,
0100
0010
0001
0010
0100
1000
0001
0000
,
1000
2002
0000
0000
0000
0000
0000
0000
,
0000
0000
0000
0000
0000
3003
0001
0000
,
1000
2020
0000
0000
0000
3030
0010
1000
,
0010
1000
0010
1000
0010
1000
0010
0000
,
0100
0220
0000
0000
0000
0000
0000
0000
,
0000
0000
0000
0000
0000
0330
0010
1000
,
0010
0100
0001
0000
1000
0001
1000
0000
,
1001
0001
0001
0011
,
0110
2200
0000
0000
,
0000
3300
0022
0000
0000
0033
2200
0000
,
0000
3300
0001
1000
0001
1000
0100
1000
,
0100
1000
0001
1000
0001
1000
0100
1000
,
0100
1000
2200
0000
0000
0000
0000
0000
,
0000
3300
0220
0000
0000
0330
0022
0000
,
0000
0033
0001
0010
0001
0010
0100
0010
,
0100
0010
0001
0010
0001
0010
1000
0010
,
1000
0010
0002
0000
0000
0000
0000
0000
,
0000
0000
0000
0000
,
0000
1003
1000
0100
,
0100
0010
0010
0001
,
0001
1000
1000
0100
,
0100
0010
0010
0001
,
0001
0000
1000
0100
1000
0000
0100
0010
,
0100
0000
0010
0001
0010
0000
0001
1000
,
0001
0000
1000
0100
1000
0000
0100
0010
,
0100
0000
0010
0001
0010
0000
0001
1000
,
0001
0000
1000
0001
0100
0010
1000
0100
,
0010
0001
0100
0010
1000
0100
0010
0001
,
1000
0001
0100
0001
1000
0010
0100
0001
,
0010
0100
1000
0001
0010
0001
1000
0010
,
0100
0001
0100
0010
0100
0001
0010
0100
,
1000
0001
0010
0100
0010
0001
1000
0100
,
0010
0100
1000
0001
0100
0010
1000
0100
,
0010
0001
0010
0100
1000
0001
0010
0100
,
1000
0100
0010
0010
0001
0001
1000
1000
,
0001
0001
0100
0100
0010
0010
1000
1000
,
0010
0010
0100
0000
0001
0000
0100
0000
,
0010
1001
0001
1001
,
0001
0000
0001
0100
1000
0100
0010
1000
,
0100
0001
0100
0010
0001
0100
0020
0000
,
0000
0030
1000
0010
0000
1010
0000
1000
,
0010
0100
0000
0110
0000
0100
0001
0100
,
0010
1000
0010
0000
1000
0010
0100
0001
,
0010
0100
1000
0002
0000
1003
0100
0010
,
0001
0010
0100
1000
0001
0100
0010
1000
,
0100
0010
0001
2000
0000
3001
0010
0100
,
1000
0100
0010
0001
1000
0001
0100
0010
,
1000
0010
0100
0002
0000
0013
0100
1000
,
0100
0010
0001
1000
1000
0001
0100
0010
,
0100
0001
0010
0200
0000
1300
0100
1000
,
0100
1000
0100
1100
0000
1000
0001
0100
,
0001
0100
0001
0000
0100
0000
0010
0000
1000
0000
0001
0000
0010
0000
0100
0000
,
1000
0001
0001
0001
0000
1000
0001
1000
,
0010
1000
0010
0000
1000
0000
0100
0000
0010
0000
0001
0000
1000
0000
0001
0000
,
0010
0010
0100
1000
0000
1000
0001
0000
,
1000
0010
0000
1000
0000
1000
0010
0000
,
1000
0100
0000
1000
0000
1000
0001
0000
,
1000
0010
0000
0000
0010
0000
1000
1010
,
0000
0101
0000
0001
0000
0001
0010
0001
,
0010
0100
0010
0100
1000
0001
0010
0001
,
0010
0100
0010
0100
1000
0001
0010
0001
,
0010
0100
0010
0100
1000
0000
0010
0000
,
0100
0010
0100
0110
0000
0010
1000
0000
,
1000
0001
0000
1001
0000
1000
0010
0000
,
0010
0100
0000
0010
1000
0001
1000
0010
,
1000
0100
1000
0001
1000
0100
0010
0001
,
1000
0100
0010
0001
0011
0000
0110
2200
,
0000
0000
0000
0000
,
0000
0000
3300
0000
0011
0000
0101
2002
,
0000
0000
3003
0000
1000
0001
1000
0001
,
1000
0001
1000
0001
1001
0000
1010
2200
,
0000
0000
0000
0000
,
0000
0000
3300
0000
1000
0100
0010
0001
,
1000
0000
0001
0100
0110
0000
0101
0000
,
0001
1000
0001
0010
0002
0000
0000
0000
,
0000
0000
0000
0000
,
0000
0000
0000
0000
,
0000
0000
0003
1001
,
1001
1001
0002
0000
,
0000
0000
0000
0000
,
0000
0000
0000
0000
,
0000
0000
0003
0000
0001
0010
0100
0000
,
1000
0001
0002
0000
,
0000
0000
0000
0000
,
0000
0000
0000
0000
,
0000
0000
0003
1001
,
1001
1001
0002
0000
,
0000
0000
2003
0000
,
3200
0000
0320
0000
,
0000
0030
0110
0110
,
0110
0000
0110
0000
0010
0100
0000
0000
,
0010
0000
0000
0000
0100
0010
0000
0000
,
0100
0010
0100
0010
0000
0000
0010
0100
,
0000
0000
0100
0010
0000
0000
0100
0010
,
0000
0000
0010
0100
0010
0100
0000
0000
,
0100
0010
0000
0000
0010
0100
0000
0000
,
0010
0100
0010
0100
0000
0000
0010
0100
,
0000
0000
0100
0010
0000
0000
0010
0010
,
0000
0000
0010
0010
0100
0100
0000
0000
,
0010
0100
0000
0000
0100
0010
0000
0000
,
0100
0010
0100
0010
0000
0000
0100
0010
,
0000
0000
0100
0010
0000
0000
0010
0010
,
0000
0000
0010
0100
0010
0100
0000
0000
,
0100
0100
0000
0000
0010
0010
0000
0000
,
0110
0010
0110
0010
0000
0000
0011
0001
,
0000
0000
0101
0001
0000
0000
1001
0001
,
0000
0000
0001
0000
1000
0010
0100
0001
,
1000
0001
0100
0010
1000
0100
1000
0001
,
0100
0010
1000
0001
0010
0001
1000
0100
,
1000
0100
0010
0100
0010
0001
0010
0001
,
2000
0000
0000
3000
0000
0000
0001
1000
0001
1000
0001
1000
,
0010
1000
0010
1000
0010
1000
0100
1000
0100
1000
0100
1000
,
0100
0000
0010
0000
0100
0000
0010
0000
0100
0000
0010
0000
0100
0000
0000
1000
0000
0000
0001
0000
0000
0001
0000
0000
,
0100
0010
1000
0001
0100
0010
1000
0100
,
0010
0002
0000
0003
1000
0100
0001
0100
,
1000
0010
0100
0001
0010
1000
0010
0001
,
1000
0010
0100
0001
1000
0100
0010
0001
,
1000
0100
0010
0001
1000
0100
0010
0001
,
1000
0100
0010
0001
1000
1000
0001
1000
,
1000
0000
1000
0000
0001
0000
1000
0000
1000
0000
1000
0000
0001
0000
1000
0001
,
1000
1000
0001
1000
0001
0100
1000
0100
,
0010
1000
0100
0010
0001
0100
0010
1000
,
0200
0000
0020
0330
0110
0000
1001
0000
,
0022
0000
0000
0000
0000
0000
0000
0033
,
2200
0000
0000
3300
0022
0000
0000
0033
,
1000
0001
1000
0001
0010
0001
0010
0001
,
1000
0001
1000
0001
0010
0001
0010
0001
,
0022
0000
0000
0000
0000
0000
0000
0033
,
0220
0000
0000
0330
2200
0000
0000
3300
,
1000
0100
1000
0100
0010
0100
0010
0100
,
1000
0100
1000
0100
0001
0100
0001
0100
,
2000
0000
0000
0000
,
0000
0000
0000
0000
,
3001
0001
0100
0100
,
0010
0010
1000
1000
,
0001
0001
0010
0010
,
0100
0100
1000
1000
,
0001
0100
0010
0100
,
0001
1000
0001
0100
,
0001
0010
0100
1000
,
1100
1100
0110
0011
,
0001
0100
0010
1000
0100
0010
0001
0100
,
0010
1000
0001
0100
0010
0100
0001
0100
,
1000
0100
0001
1000
0001
0010
0100
1000
,
0010
0100
0001
0010
0100
1000
0010
1000
,
0001
0010
0001
0100
0010
1000
0001
0010
,
0100
1000
0010
0100
0001
0010
0100
0001
,
0100
1000
0001
1000
0010
0100
0001
1000
,
0100
0010
0001
0010
0100
1000
0100
0010
,
0001
0001
1000
0000
0000
0000
0001
0001
,
1000
0000
0000
0000
0001
0001
1000
0001
,
0001
0000
0001
0000
1000
0000
0000
0000
0000
0000
0000
0000
0001
0000
1000
0001
,
1000
0000
0000
0000
0000
0000
0000
0000
0001
1000
0001
1000
0001
1000
0001
1000
,
0001
0001
1000
0000
0000
0000
0001
0001
,
1000
0000
0000
0000
0001
0001
1000
0000
,
0001
0100
0001
0100
0001
0000
1000
0001
,
1000
0001
2002
0000
3003
0000
0000
0000
;

//---------------dance-single - Copied from Copied f----------------
#NOTES:
     dance-single:
     Copied from Copied f:
     Edit:
     12:
     0.944,1.000,0.733,0.126,0.494,1639.000,209.000,36.000,0.000,0.000:
0000
0000
0000
0000
,
1001
1000
1001
0000
0001
0000
0001
0000
,
0001
0001
0001
0001
,
1001
1000
2001
0000
0001
0000
0001
0000
,
0001
0000
0001
3000
0001
1000
1001
1000
,
1001
1000
1001
0000
0001
0000
0001
0000
,
0001
0001
0001
0001
,
0001
0100
0000
0101
0000
0001
0100
0010
,
0000
1010
0000
1000
0100
0010
0001
1000
,
1001
0000
0001
1000
0010
0100
0001
0010
,
0100
2000
0000
3001
1000
0010
0100
0001
,
0010
0100
1000
0100
0001
0100
1000
0001
,
1000
0002
0000
1003
0010
0100
0001
0100
,
0010
1000
0001
0010
0001
1000
0001
1000
,
0010
0200
0000
0301
1000
0010
0100
0001
,
0100
0010
0100
0001
0010
0100
1000
0100
,
0010
0110
0000
0010
0001
0010
0100
1000
,
0001
1000
0001
1000
0010
0100
0001
0010
,
0100
2000
0000
3001
1000
0010
0100
0001
,
0010
0100
1000
0100
0001
0100
1000
0001
,
1000
0002
0000
1003
0010
0100
0001
0100
,
0010
1000
0001
0010
0001
1000
0001
1000
,
0010
0200
0000
0301
1000
0010
0100
0001
,
0100
0010
0100
0001
0010
0100
1000
0100
,
0010
0001
1000
1000
0000
1001
1001
0000
,
0000
0000
1001
0000
0000
0000
1000
0000
0010
0000
0100
0000
0010
1000
0001
0000
,
1000
0010
0100
0001
1000
0001
1000
1100
,
0110
0000
0011
0000
0000
0000
0001
0000
1000
0000
0010
0000
0100
0001
1000
0000
,
0001
0100
1000
0100
0001
0010
0001
0010
,
0100
1100
0000
1100
0011
0000
0011
1100
,
0000
1001
0000
0101
1010
0000
1010
0101
,
0000
1001
0000
1010
0110
0000
0110
1010
,
0000
1001
0001
0010
0100
1100
0000
0011
,
0000
0000
1001
0000
0000
0000
0001
0000
0010
0000
0100
0000
1000
0010
0100
0000
,
0001
0010
0100
1000
0100
0010
0001
0011
,
0011
0000
1100
0000
0000
0000
1000
0000
0010
0000
0100
0000
0001
1000
0001
0000
,
1000
0010
0100
0001
0010
0100
1100
1100
,
0110
0011
0000
0011
0110
0000
0110
1100
,
0000
1001
0000
0101
1010
0000
1010
1100
,
0000
0011
0000
0110
1100
0000
1001
0101
,
0000
0000
0001
0000
1000
0010
0100
0001
1000
0100
0010
0001
1000
0010
0100
0001
,
1000
0100
0010
0001
0010
0000
0000
0000
0100
0000
2200
0000
0000
0000
0000
0000
,
0000
0000
0000
0000
,
3300
0000
0110
0000
0011
2002
0000
0000
,
3003
0000
1000
0001
1000
0001
1000
0001
,
1000
0001
1001
0000
1010
0202
0000
0000
,
0000
0000
0000
0000
,
0303
0000
0100
0001
0010
0001
1000
0000
,
0011
0110
1100
0110
0011
1001
0000
1000
,
0010
0000
0100
0000
0001
0010
0100
0000
0010
0000
1000
0000
0010
0000
0001
0000
,
0100
0010
1000
0100
0001
0100
1000
0001
,
1000
0000
0010
0000
0100
0001
1000
0000
0100
0000
0010
0000
0001
0000
1000
0000
,
0010
0001
0010
1000
0001
1001
0000
1100
,
0011
0000
1100
1001
0000
0101
0000
1010
,
1100
0000
0011
0110
0000
1100
0000
1001
,
0110
0000
0110
0101
0000
1001
0001
0001
,
0001
0011
0000
0110
0000
1100
0000
1000
,
0001
0000
0100
0000
0010
1000
0001
0000
0010
0000
0100
0000
1000
0000
0001
0000
,
0010
0100
0010
0001
0001
2000
0000
3001
,
1000
0000
0010
0000
0100
0001
1000
0000
0100
0000
0010
0000
0001
0000
1000
0000
,
0100
0010
0001
0010
0001
0011
0000
0000
,
1001
0000
1000
0010
0000
1010
0000
1000
,
0100
0000
0100
0010
0000
0011
0000
0001
,
1000
0000
0000
0000
1000
0001
0010
0100
0010
0001
1000
0001
0010
0100
0010
0001
,
1000
0001
0010
0100
0010
0001
1000
0000
0001
0000
1000
0000
1001
0000
0000
0000
,
0011
1100
0000
0000
1000
0000
0001
0000
,
1000
0001
0001
0000
1000
0000
0101
0000
,
1010
0101
0000
0000
0001
0000
1000
1000
,
0001
0001
1000
1000
0001
0001
0011
0000
,
0110
0011
0000
0000
0001
0000
0010
0000
,
0100
1000
0100
0010
0001
0000
0001
1000
,
0010
0100
0001
0000
0101
0110
1010
1001
,
1001
0001
0001
1001
,
0110
1001
1000
0010
,
0100
0001
0000
0001
0010
0000
0100
0000
,
1000
0000
0001
0100
0001
0100
1000
0100
,
1000
0100
0001
0100
0001
0100
1000
0100
,
1000
0100
0001
0000
1000
0000
0010
0000
,
1000
0001
0000
0001
0100
0000
0010
0000
,
1000
0000
0001
0010
0001
0010
1000
0010
,
1000
0010
0001
0010
0001
0010
1000
0010
,
1000
0010
0002
0000
0000
0000
0000
0000
,
1003
0001
1000
0001
1000
0001
1000
0001
,
1000
0001
1001
1000
0010
0100
0001
0010
,
0100
1000
0100
0010
0001
0100
1000
0100
,
0001
0010
0100
1000
0010
0001
0010
1000
,
0001
1000
0010
0100
0001
0010
0100
1000
,
0100
0010
0001
0010
0100
0010
0001
1000
,
0010
0100
0001
1000
0010
1000
0100
1000
,
0001
1000
0010
0100
0001
0010
0001
1000
,
0100
0010
0001
0010
0100
1000
0100
0010
,
0100
0000
1000
0000
0001
0010
0100
1000
0010
0100
0001
0010
0100
1000
0010
0100
,
0001
0100
0010
0100
0001
1000
0001
1000
0100
0010
0001
0010
0100
0010
0001
1000
,
0010
0100
0010
1000
0010
0100
0001
0010
0100
1000
0100
0010
0001
0010
0100
1000
,
0100
0010
0100
1000
0010
0100
0001
1000
0001
0100
0010
1000
0010
0100
0001
0010
,
0100
0010
0001
1000
0100
0010
0001
0010
0100
1000
0100
0010
0001
0010
0100
0010
,
0001
1000
0100
0010
0100
1000
0001
1000
0010
0100
0001
0100
0010
1000
0010
0100
,
0001
0010
0100
1000
0100
0010
0100
1000
0001
1000
0001
0010
0100
0010
0001
1000
,
0010
0100
0010
1000
0010
0100
0001
0010
0100
1000
0100
0010
0001
0010
0100
1000
,
0001
0010
0100
1000
0001
0010
0001
0010
0100
0010
0100
0010
0100
1000
0100
1000
,
0100
0010
0100
0010
0100
1000
0100
1000
0001
1000
0001
1000
0010
1000
0010
1000
,
0010
0100
0010
0100
0001
0000
0100
0000
0010
0000
1000
0000
0010
0000
0100
0000
,
0001
0010
0100
1000
0100
0020
0000
0000
,
0031
0000
0000
0000
0001
0010
0100
1000
0100
0001
0100
1000
0010
0100
0001
0010
,
0100
1000
0010
0001
0010
1000
0010
0100
0001
0010
0100
1000
0200
0000
0000
0000
,
0300
0000
0010
0001
0000
0011
0000
0001
,
1000
0001
0000
0101
0000
0100
0010
1000
,
0010
0100
0101
0000
0101
0100
0010
1000
,
0010
0100
0001
0011
0000
0011
0010
0100
,
1000
0001
1000
0001
1001
1000
0010
0100
,
0001
1000
0010
1010
0000
1010
1000
0001
,
0100
0010
0100
0001
0011
0010
0100
1000
,
0100
0010
0001
0011
0000
0011
0001
1000
,
0010
0100
0001
0100
0101
0001
1000
0001
,
0010
0001
0100
0101
0000
0110
0110
0110
,
0110
0110
0110
1010
0000
1000
0100
0010
,
0001
0010
0100
0000
1000
0000
0001
0000
0100
0000
0010
0000
0100
0000
0001
0000
,
0010
0100
1000
0100
0000
1000
0001
0100
,
0010
1000
0001
0000
0010
0000
0100
0000
1000
0000
0100
0000
0010
0000
0001
0000
,
1000
1000
0001
0101
0000
0110
1010
0000
,
1100
0011
0000
1001
0000
1010
0101
0000
,
1010
1100
0000
0011
0000
1001
0101
0000
,
1010
0000
1100
0000
0000
0000
1000
0100
0010
0000
0001
0000
1000
0000
1001
0000
,
0000
1001
0000
0011
0000
0010
0100
1000
,
0100
0010
0001
0000
0010
0000
0100
0000
1000
0000
0001
0000
1000
0000
0010
0000
,
0100
0001
0001
0001
0000
0100
0010
1000
,
0001
1000
0001
0000
0010
0000
0100
0000
1000
0100
0010
0001
0010
0100
1000
0100
,
0010
0001
0010
0100
1000
0001
0100
0000
0000
0000
0110
0000
1010
0000
0000
0000
,
1100
0110
0000
0011
0000
0101
0110
0000
,
1010
1100
0000
0110
0000
0011
0001
0010
,
0100
1000
0100
0010
1000
0010
0100
1000
,
0100
0010
0001
1000
0001
0000
1000
2002
,
0000
0000
0000
0000
,
0000
0000
3003
0000
1010
0000
0101
0022
,
0000
0000
0033
0000
0001
0010
0001
1000
,
0001
0100
0001
0010
0001
0000
1000
0020
,
0000
0000
0000
0000
,
0000
0000
0000
0030
0100
0100
0001
0001
,
0010
0000
0010
0010
0100
1100
0100
0000
,
0100
0010
0001
0010
0200
0000
0000
0000
,
0000
0000
0000
0000
,
0000
0000
0000
0000
,
0000
0000
0300
1100
,
1100
1100
0200
0000
,
0000
0000
0000
0000
,
0000
0000
0000
0000
,
0000
0000
0300
0000
1000
0100
0010
0000
,
0001
1000
0002
0000
,
0000
0000
0000
0000
,
0000
0000
0000
0000
,
0000
0000
0003
1001
,
1001
1001
2000
0000
,
0000
0000
0002
0003
,
0020
0030
0200
0000
,
0000
3300
1100
1100
,
1100
0000
1100
0000
1000
1000
0001
0000
,
1000
0000
0001
0001
1000
1000
0001
0001
,
1000
0000
1000
0000
0001
1000
0001
0000
1000
0000
1000
0000
1000
0000
0000
0000
,
0000
0000
1000
0001
0001
0001
1000
0001
,
0001
0000
0001
0000
0001
1000
0001
0000
1000
0000
1000
0000
0001
0000
0000
0000
,
1000
0000
0001
0001
1000
0001
0001
0001
,
1000
0000
1000
0000
1000
0001
1000
0000
0001
0000
0001
0000
1000
0000
1000
0000
,
0000
0000
1000
1000
0001
0001
1000
1000
,
0001
0000
0001
0000
1000
0000
1000
0001
1000
0000
1000
0000
0001
0000
0000
0000
,
1000
1000
0001
0001
1000
1000
0001
0001
,
1000
0000
1000
0000
1000
0000
1000
0001
1000
0000
0001
0000
1000
0000
1000
0000
,
0000
0000
1000
1000
0001
0001
1000
1000
,
0001
0000
0001
0000
1000
0000
1000
0001
1000
0000
1000
0000
0000
0000
0000
0000
,
1000
1000
0000
0000
1000
1000
0000
0000
,
1100
1100
1100
1100
0000
0000
1001
1001
,
0000
0000
1010
1010
0000
0000
1010
1010
,
0000
0000
1000
1000
1001
0001
0100
0010
,
1000
1000
0001
1000
0001
0010
0100
0100
,
1000
0000
1000
0000
0001
0000
1000
0000
1000
0001
0100
0010
1000
0001
0010
0100
,
0010
0001
1000
0010
0100
0001
1000
0010
0100
0010
1000
0001
0010
0100
2000
0000
,
0000
0000
0000
3000
0000
0000
0001
0010
0100
1000
0010
0100
,
0001
0010
0100
1000
0010
0100
0001
0100
1000
0100
0001
0010
,
0100
0000
1000
0000
0010
0000
0100
0000
0001
0000
0010
0000
0100
0000
0000
1000
0000
0000
0001
0000
0000
1000
0000
0000
,
1000
0010
0010
0100
0100
0001
0010
0100
,
1000
0000
0002
0000
0000
0000
0000
0000
1003
0010
0100
0001
0010
0001
1000
0010
,
0100
0001
0010
0001
1000
0100
1000
0010
0100
0001
0100
0010
1000
0100
1000
0001
,
0010
0100
1000
0100
1000
0100
0010
0001
0010
0100
0010
0001
1000
0010
0100
0001
,
0100
0001
0010
0100
1000
0100
0010
0001
1000
0100
0010
0001
0100
0010
1000
0100
,
0010
0001
0010
0100
0010
0001
1000
0010
0100
0000
0100
0000
0010
0000
0100
0000
,
0100
0000
0100
0000
0010
0000
0100
0000
0100
0000
0100
0000
0010
0000
0100
0010
,
0100
0000
0100
0000
0010
0000
0010
0000
1000
0100
0010
0001
0010
0100
0010
0001
,
1000
0010
0100
0001
0010
0100
1000
0010
0100
0001
0010
0100
1000
0100
0010
0001
,
2000
0000
0002
3003
1001
0000
1010
0000
,
0101
0000
0001
0000
0010
0000
0100
1000
,
0000
1000
0100
0000
0010
0000
0001
0000
,
1000
0001
1000
0001
0100
0001
0100
0001
,
1000
0001
1000
0001
0100
0001
0100
0001
,
0101
0000
0100
0000
0010
0000
1000
0100
,
0000
0100
0010
0000
0001
0000
1000
0000
,
0010
0100
0010
0100
0001
0100
0001
0100
,
0010
0100
0010
0100
0001
0100
0001
0100
,
0002
0000
0000
0000
,
0013
0100
1000
0001
0010
0100
1000
0001
,
1000
0010
1000
0010
1000
0010
0100
0010
,
0100
0001
0100
0001
0100
0001
0010
0001
,
0010
0100
0010
0100
1000
0100
1000
0100
,
0010
0100
0010
0001
0010
0001
1000
0001
,
1000
0001
0100
0001
0100
0010
0100
0010
,
1000
0010
1000
0010
0100
0010
0100
0001
,
0100
0001
0010
0001
0010
0100
0010
0100
,
1000
0100
0010
0001
0010
0100
1000
0100
0010
0001
0010
0100
1000
0100
0010
0001
,
0010
0001
1000
0010
0100
0001
0100
0010
1000
0100
0010
0001
0010
0100
1000
0010
,
0100
0001
0100
0010
0100
0001
0010
0100
1000
0100
0010
0001
0010
0100
0010
0001
,
1000
0010
0100
0010
1000
0010
0100
0001
0010
0100
1000
0010
0100
0001
0010
0100
,
1000
0100
0010
0001
0010
0100
0010
0001
1000
0100
0010
0001
0010
0001
1000
0001
,
0100
0001
0010
0001
1000
0010
0100
0001
1000
0010
1000
0100
1000
0001
1000
0010
,
1000
0010
0100
0001
0010
0100
1000
0010
0100
0001
0010
0100
1000
0010
0100
0001
,
0010
0100
1000
0100
0010
0001
0100
0010
1000
0100
0010
0001
0100
0010
1000
0100
,
0010
0001
0010
0100
1000
0100
0010
0001
0100
0010
1000
0010
0100
0001
1000
0001
,
1000
0001
1001
0001
1000
0000
1001
0001
,
1001
0001
1000
0000
1001
0001
1001
0001
,
1001
0001
1001
0001
1000
0000
1001
0001
,
1001
0000
0000
0000
1000
0000
0000
0000
1001
1000
0001
1000
1001
0000
0001
1000
,
1001
0001
1001
0000
1000
0000
1001
0001
,
1001
0000
1000
0000
1001
0001
1001
0001
,
1000
0100
0010
0001
0010
0000
0100
1000
,
0100
1000
2200
0000
3300
0000
0000
0000
;
