#TITLE:Destiny;
#SUBTITLE:8-Arrowed;
#ARTIST:Smiley;
#TITLETRANSLIT:;
#SUBTITLETRANSLIT:;
#ARTISTTRANSLIT:;
#CREDIT:Izzy;
#BANNER:Destiny-bn.png;
#BACKGROUND:Destiny-bg.png;
#LYRICSPATH:;
#CDTITLE:!IzzyTitle.png;
#MUSIC:Destiny.mp3;
#OFFSET:-0.040;
#SAMPLESTART:34.286;
#SAMPLELENGTH:12.000;
#SELECTABLE:YES;
#BPMS:0.000=175.000;
#STOPS:;
#BGCHANGES:;
// cache tags:
#FIRSTBEAT:0.000;
#LASTBEAT:548.000;
#SONGFILENAME:Songs/Izzy's 8-Arrowed Pack Volume 1/Destiny/Destiny.sm;
#HASMUSIC:1;
#HASBANNER:1;
#MUSICLENGTH:189.314;
// end cache tags

//---------------dance-double - 8-Arrowed----------------
#NOTES:
     dance-double:
     8-Arrowed:
     Hard:
     15:
     1.000,1.000,1.000,1.000,1.000,1324.000,533.000,405.000,0.000,290.000:
00001000
00000100
00000000
00000010
00000001
00000000
00000100
00000010
00000000
00001000
00000100
00000000
00000001
00000000
00000001
00000000
,
00000100
00001000
00000000
00000010
00000100
00000000
00001000
00000100
00000000
00000010
00001000
00000000
00000100
00000000
00000100
00000000
,
00000010
00000001
00000000
00000100
00000010
00000000
00001000
00000100
00000000
00000001
00000100
00000000
00001000
00000000
00001000
00000000
,
00000010
00001000
00000000
00001000
00000100
00000000
00000100
00000010
00000000
00000010
00000001
00000000
00001000
00000000
00001000
00000000
,
00000001
00000010
00000000
00000100
00000001
00000000
00001000
00000010
00000000
00000001
00000100
00000000
00001000
00000000
00001000
00000000
,
00000100
00000010
00000000
00001000
00000100
00000000
00000010
00000001
00000000
00000100
00000010
00000000
00001000
00000000
00001000
00000000
,
00000100
00000001
00000000
00000001
00000100
00000000
00001000
00000010
00000000
00000010
00001000
00000000
00000100
00000000
00000100
00000000
,
00000010
00000001
00000000
00001000
00000100
00000000
00000010
00000001
00000000
00000100
00001000
00000000
00000100
00000000
00000100
00000000
,
20001000
00000100
00000000
00000010
00000001
30000000
20000100
00000010
00000000
00001000
00000100
30000000
00020001
00000000
00000001
00030000
,
00020100
00001000
00000000
00000010
00000100
00030000
20001000
00000100
00000000
00000010
00001000
30000000
20000100
00000000
00000100
30000000
,
20000010
00000001
00000000
00000100
00000010
30000000
00021000
00000100
00000000
00000001
00000100
00030000
00021000
00000000
00001000
00030000
,
00020010
00001000
00000000
00001000
00000100
00030000
00020100
00000010
00000000
00000010
00000001
00030000
20001000
00000000
00001000
30000000
,
20000001
00000010
00000000
00000100
00000001
30000000
20001000
00000010
00000000
00000001
00000100
30000000
20001000
00000000
00001000
30000000
,
20000100
00000010
00000000
00001000
00000100
30000000
20000010
00000001
00000000
00000100
00000010
30000000
00021000
00000000
00001000
00030000
,
00020100
00000001
00000000
00030001
20000100
00000000
00001000
30000010
20000000
00000010
00001000
30000000
20000100
00000000
00000100
30000000
,
00020010
00000001
00000000
00031000
00020100
00000000
00000010
00030001
20000000
00000100
00001000
30000000
20000100
00000000
00000100
30000000
,
20001000
00000100
00000000
00000010
00000001
30000000
20000100
00000010
00000000
00001000
00000100
30000000
00020001
00000000
00000001
00030000
,
00020100
00001000
00000000
00000010
00000100
00030000
20001000
00000100
00000000
00000010
00001000
30000000
20000100
00000000
00000100
30000000
,
20000010
00000001
00000000
00000100
00000010
30000000
00021000
00000100
00000000
00000001
00000100
00030000
00021000
00000000
00001000
00030000
,
00020010
00001000
00000000
00001000
00000100
00030000
00020100
00000010
00000000
00000010
00000001
00030000
20001000
00000000
00001000
30000000
,
20000001
00000010
00000000
00000100
00000001
30000000
20001000
00000010
00000000
00000001
00000100
30000000
20001000
00000000
00001000
30000000
,
20000100
00000010
00000000
00001000
00000100
30000000
20000010
00000001
00000000
00000100
00000010
30000000
00021000
00000000
00001000
00030000
,
00020100
00000001
00000000
00030001
20000100
00000000
00001000
30000010
20000000
00000010
00001000
30000000
20000100
00000000
00000100
30000000
,
00020010
00000001
00000000
00031000
00020100
00000000
00000010
00030001
20000000
00000100
00001000
30000000
20000100
00000000
00000100
30000000
,
22011001
00000000
00000000
00000000
00001001
33000000
22001000
00000010
00000100
00000000
00000010
33000000
00220101
00000000
00001000
00330000
,
00221100
00000000
00000000
00000000
00000011
00330000
20200001
00001000
00000100
00000000
00000010
30300000
02021001
00000000
00001100
03030000
,
02020011
00000000
00000000
00000000
00000101
03030000
02020001
00001000
00000010
00000000
00001000
03030000
20200101
00000000
00000010
30300000
,
02021001
00000000
00000000
00000000
00000101
03030000
02020100
00000010
00001000
00000000
00000001
03030000
20020110
00000000
00001010
30030000
,
20021001
00000000
00000000
00000000
00001010
30030000
20200010
00001000
00000001
00000000
00001000
30300000
20200101
00000000
00000010
30300000
,
20201001
00000000
00000000
00000000
00001010
30300000
20201000
00000100
00000001
00000000
00000100
30300000
02021100
00000000
00000011
03030000
,
02021001
00000000
00000000
03030000
22000101
00000000
00000100
33000010
22001000
00000000
00000001
33000000
00221010
00000000
00000001
00330000
,
00221100
00000000
00000000
00330000
02020011
00000000
00000010
03030100
02021000
00000000
00000000
03030001
20020100
00000000
00000010
30030000
,
22022202
00000000
00000000
00003303
00001010
33030000
22020100
00000001
00001000
00000000
00000010
33030000
22020101
00000000
00001000
33030000
,
22021100
00000000
00000000
00000000
00000011
33030000
20221000
00000100
00000010
00000000
00000001
30330000
20221100
00000000
00001010
30330000
,
20221001
00000000
00000000
00000000
00000011
30330000
22201000
00000100
00000010
00000000
00000100
33300000
22201001
00000000
00000010
33300000
,
22201100
00000000
00000000
00000000
00001010
33300000
02220001
00000100
00000010
00000000
00001000
03330000
02220101
00000000
00000011
03330000
,
02221001
00000000
00000000
00000000
00000110
03330000
22221000
00000001
00001000
00000000
00000010
33330000
22220101
00000000
00001000
33330000
,
22220110
00000000
00000000
00000000
00001100
33330000
22220010
00000001
00000100
00000000
00000010
33330000
22220110
00000000
00000101
33330000
,
22221010
00000000
00000000
33330000
00020101
00000000
00000010
00031000
00020001
00000000
00001000
00000000
00200110
00000000
00000010
00300000
,
00201001
00000000
00000000
00000000
02001010
00000000
00000100
03000001
02001000
00000000
00000000
00000001
20000100
00000000
00000010
33330000
,
20011000
00000100
00000000
00000010
01000001
30000000
00020100
00000001
00000000
00001000
01030010
00000000
10000100
00000000
00100100
00000000
,
00021000
00000001
00000000
00001000
00000100
00030000
00100100
00000010
00000000
00000010
10000100
00000000
02000001
00000000
00000001
00000000
,
03010100
00001000
01000000
00000100
10001000
00000000
00100010
00000100
02000000
00000001
00000010
00000000
03100001
00000000
00020001
00000000
,
00000100
00000010
00000000
00000001
20031000
00000000
30020100
00000010
00000000
00000100
00231000
00000000
01000100
00300000
00010100
00000000
,
10001000
00000010
00100000
00000001
01000100
00000000
10000010
00001000
02000000
00000100
00001000
00000000
03100010
00000000
20000010
00000000
,
00000010
00000100
00000000
00000001
31001000
00000000
00200100
00000010
00000000
00000001
00310010
00000000
10000100
00000000
01000100
00000000
,
00200001
00000010
00000000
00000100
00001000
00000000
00021000
00000100
00300000
00000010
20030001
00000000
01001000
00000000
31001000
00000000
,
00200100
00000001
00000000
00000010
00000001
00000000
00321000
00000100
00000000
00001000
20030100
00000000
00020010
00000000
30000010
00030000
,
02000001
00000100
00000000
00000010
13001000
00000000
00020001
00000010
00000000
00000010
10030100
00000000
01000010
00000000
00020010
00000000
,
20000100
00000001
00030000
00000010
00000001
00000000
30101000
00000100
00000000
00000010
00020100
00000000
00100001
00000000
00000001
00030000
,
10000100
00001000
01000000
00000010
00100001
00000000
02000100
00000010
00010000
00000001
00000100
03000000
01000010
00000000
00200010
00000000
,
00001000
00000100
00000000
00000010
00000100
00000000
00320010
00000100
00000000
00000001
01031000
00000000
00100010
00000000
00010010
00000000
,
10000100
00000001
01000000
00000100
00011000
00000000
00100010
00000001
02000000
00000100
00001000
00000000
03011000
00000000
20000001
00000000
,
00000010
00000100
00000000
00000001
00001000
00000000
30010100
00001000
00000000
00000001
01000100
00000000
00100010
00000000
00010010
00000000
,
02000100
00000001
00000000
00001000
00000010
00000000
03200100
00000001
00000000
00000010
00000001
00300000
01000100
00000000
00200100
00000000
,
00000010
00000001
00000000
00000100
00001000
00300000
00100100
00000010
00010000
00000010
10001000
00000000
10000001
00000000
00010001
00000000
,
10000001
00000010
00000000
00000100
00011000
00000000
00100010
00000100
00000000
00001000
00100001
00000000
01000100
00000000
00000100
00000000
,
10000010
00000001
00100000
00000100
00000001
00000000
00101000
00000001
10000000
00000010
00100001
00000000
10000100
00000000
00010100
00000000
,
00100010
00000100
00000000
00000001
10001000
00000000
00010010
00000100
00000000
00000001
00010010
00000000
10001000
00000000
00001000
00000000
,
01000100
00000010
10000000
00001000
00000100
00000000
00010001
00000010
00100000
00000001
00011000
00000000
10000001
00000000
00010001
00000000
,
10001000
00000100
00000000
00000010
00100001
00000000
01000001
00000010
00000000
00000100
01001000
00000000
00010010
00000000
00000010
00000000
,
10000100
00000010
01000000
00000001
00000100
00000000
01000001
00000010
00010000
00001000
01000100
00000000
10000010
00000000
00010010
00000000
,
01000010
00000100
00000000
00000010
01000100
00000000
10000100
00000010
00000000
00000100
10000010
00000000
00010001
00000000
00000001
00000000
,
00101000
00000001
00010000
00001000
00000001
00000000
10000001
00001000
00010000
00000001
10001000
00000000
01000100
00000000
00100100
00000000
,
00011000
00000100
00000000
00000001
01000010
00000000
10001000
00000100
00000000
00000010
00010001
00000000
01000100
00000000
00000100
00000000
,
00010010
00000100
10000000
00000001
00001000
00000000
00100100
00000010
00010000
00001000
00010001
00000000
00010001
00000000
00010001
00000000
,
01000010
00000100
00000000
00001000
00100001
00000000
00100100
00000010
00000000
00000001
01001000
00000000
10001000
00000000
00001000
00000000
,
01000010
00000100
00100000
00000001
00000010
00000000
00100001
00000010
01000000
00000010
01000100
00000000
01001000
00000000
01001000
00000000
,
00010100
00000010
00000000
00001000
00100001
00000000
00010100
00000010
00000000
00001000
10000100
00000000
00100001
00000000
00000001
00000000
,
10000010
00000100
01000000
00000001
00000010
00000000
00010100
00001000
00100000
00000001
10000100
00000000
00100001
00000000
01000001
00000000
,
00010100
00000010
00000000
00001000
00100100
00000000
00100001
00000010
00000000
00001000
01000010
00000000
00010001
00000000
00000001
00000000
,
01000100
00000010
00100000
00000001
00000100
00000000
00100001
00001000
00100010
00000100
00100001
00001000
00100010
00000100
00100001
00000000
,
00000001
00000010
00001100
00000000
00020000
00000000
00200000
00000000
00000000
00000000
02000000
00000000
20000000
00000000
00000000
33330000
,
00001000
00000100
00000011
00000000
20000000
00000000
02000000
00000000
00000000
00000000
00200000
00000000
00020000
00000000
00000000
33330000
,
00000010
00000100
00001001
00000000
00020000
00000000
00200000
00000000
00000000
00000000
02000000
00000000
20000000
00000000
00000000
33330000
,
00000100
00000010
00001001
00000000
20000000
00000000
02000000
00000000
00000000
00000000
00200000
00000000
00020000
00000000
00000000
33330000
,
00000001
00001000
00000001
00001000
20000002
00000000
00000000
30000003
00022000
00000000
00000000
00000000
01000010
00000000
00000000
00033000
,
00001000
00000001
00001000
00000001
00022000
00000000
00000000
00000000
20033002
00000000
00000000
00000000
00100100
00000000
00000000
30000003
,
22222000
00000000
00000000
00003000
00000200
00000000
00000000
00000300
00000002
00000000
00000000
00000003
00000200
00000000
00000000
00000300
,
00002000
00000000
00000000
00003000
00000200
00000000
00000000
00000300
00000002
00000000
00000000
00000003
00000200
00000000
00000000
33330300
,
00000001
00000010
00001100
00000000
00020000
00000000
00200000
00000000
00000000
00000000
02000000
00000000
20000000
00000000
00000000
33330000
,
00001000
00000100
00000011
00000000
20000000
00000000
02000000
00000000
00000000
00000000
00200000
00000000
00020000
00000000
00000000
33330000
,
00000010
00000100
00001001
00000000
00020000
00000000
00200000
00000000
00000000
00000000
02000000
00000000
20000000
00000000
00000000
33330000
,
00000100
00000010
00001001
00000000
20000000
00000000
02000000
00000000
00000000
00000000
00200000
00000000
00020000
00000000
00000000
33330000
,
00000001
00001000
00000001
00001000
20000002
00000000
00000000
30000003
00022000
00000000
00000000
00000000
01000010
00000000
00000000
00033000
,
00001000
00000001
00001000
00000001
00022000
00000000
00000000
00000000
20033002
00000000
00000000
00000000
00100100
00000000
00000000
30000003
,
22220002
00000000
00000000
00000003
00000020
00000000
00000000
00000030
00002000
00000000
00000000
00003000
00000020
00000000
00000000
00000030
,
00000002
00000000
00000000
00000003
00000020
00000000
00000000
00000030
00002000
00000000
00000000
00003000
00000020
00000000
00000000
33330030
,
10001001
00000000
00001000
00000010
01001000
00000000
00100001
00000100
00000001
00000000
01001000
00000100
00010001
00000000
00000001
00000100
,
00101000
00000000
10000010
00000001
00001000
00000000
00010100
00001000
01000001
00000000
00101000
00000100
10000010
00000001
00100100
00000010
,
01000001
00000000
00000010
00000100
00011000
00000000
01000100
00000010
00000001
00000000
00101000
00000001
10000100
00000000
00001000
00000001
,
00100100
00000000
10000001
00001000
00000010
00000000
00101000
00000001
01000010
00000100
00101000
00000001
01000010
00000100
00101000
00000100
,
01001000
00000000
00000100
00000001
00010100
00000000
10000010
00001000
00000010
00000000
00010001
00001000
10000100
00000000
00001000
00000001
,
00101000
00000000
01000001
00001000
00000001
00000000
00010010
00000100
00100001
00001000
01000010
00000100
10000001
00001000
01000010
00000100
,
10000001
00000000
00000100
00001000
00100100
00000000
01000010
00000100
00000010
00000000
10000001
00000010
00010001
00000000
00000100
00000010
,
01000100
00000000
00100001
00001000
00000100
00000000
00011000
00000001
01000100
00000000
00101101
00000000
10000001
00001100
00010001
00000000
,
01001101
00000000
00001000
00000001
01000100
00000000
10000010
00000001
00000100
00000000
00010001
00000010
00100001
00000000
00001000
00000100
,
01001000
00000000
00100010
00000100
00000010
00000000
00011000
00000100
00010001
00000000
00010001
00000010
00010100
00000000
00011000
00000100
,
00010001
00000000
00000001
00000010
10000100
00000000
10001000
00000100
00000010
00000000
00101000
00000010
00101000
00000001
00000100
00000001
,
01001000
00000000
01001000
00000001
00000010
00000000
10000010
00000100
10000010
00000000
10000001
00000010
10000100
00001000
10000100
00001000
,
10000001
00000000
00000100
00000010
00011000
00000000
00010001
00000100
00000010
00000000
01000001
00000100
01001000
00000000
00000100
00000010
,
00101000
00000000
00100100
00000010
00000100
00000000
10000010
00000100
10000001
00000010
01000100
00001000
00100001
00000010
01000100
00001000
,
10000010
00000100
00000001
00000010
00100100
00001000
01000001
00000010
00000100
00000010
00010100
00000010
00100100
00001000
00000000
00000000
,
01001000
00000101
10000000
00000001
00001010
00000000
00011101
00000000
00011100
00000011
00010000
00000011
00011100
00000000
00011101
00000000
,
00020001
00000100
00000001
00000000
00000110
00030000
00020001
00000000
00000010
00000000
00000001
00030000
00021010
00000000
00000000
00030000
,
00020001
00000100
00000010
00000000
00001010
00030000
00200100
00000000
00000010
00000000
00000100
00300000
00200110
00000000
00001010
00300000
,
00200001
00001000
00000001
00000000
00000101
00300000
00200100
00000000
00000010
00000000
00001000
00300000
00200101
00000000
00000000
00300000
,
00200001
00001000
00000010
00000000
00000101
00300000
00200100
00000000
00000110
00000000
00000100
00300000
00201001
00000000
00000101
00300000
,
02000001
00000010
00000100
00001000
00000101
03000000
02000000
00000100
00000010
00000000
00000000
03000100
02001001
00000000
00000000
03000000
,
02001000
00000010
00001000
00000010
00001000
03000000
02000000
00000010
00001001
00000000
00000000
03001000
00020101
00000000
00000000
00030001
,
00021010
00000000
00000100
00000000
00201010
00000000
00000001
00300000
00200101
00000000
00000001
00000000
02000110
00000000
00000000
03000000
,
02001010
00000000
00000110
00000000
20000101
00000000
00000011
30000000
20000001
00000100
00000001
33330000
22221000
00000100
00000010
33330000
,
20000010
00000100
00000001
00000000
00000110
30000000
20000001
00000000
00000100
00000000
00000001
30000000
20001001
00000000
00000000
30000000
,
20000100
00001000
00000010
00000000
00000101
30000000
20000010
00000000
00001000
00000000
00000100
30000000
20000101
00000000
00001010
30000000
,
02000001
00000100
00000010
00000000
00001001
03000000
02000001
00000000
00001000
00000000
00001000
03000000
02001001
00000000
00000000
03000000
,
02001000
00000100
00000010
00000000
00001001
03000000
02000010
00000000
00000100
00000000
00000001
03000000
02001001
00000000
00000110
03000000
,
00200010
00000100
00000001
00001000
00000110
00300000
00200000
00001000
00000110
00000000
00000000
00300001
00200110
00000000
00000000
00300000
,
00201000
00000010
00001000
00000010
00001000
00300000
00200000
00000100
00000011
00000000
00000000
00300010
00201100
00000000
00000000
00300010
,
00020100
00000000
00000001
00030000
00200110
00000000
00001010
00300000
02000101
00000000
00001001
03000000
20000011
00000000
00000010
30000000
,
20001001
00000000
00000100
30001000
02000010
00000100
00000001
03001000
00200001
00000010
00000100
00301000
00020010
00000100
00001000
00030001
,
10011000
00000010
00001000
00000000
10000002
00000003
02000020
00000000
00000000
00000030
03100200
00000300
00012000
00000000
00020000
00003000
,
01030001
00000100
02000001
00000000
03102000
00003000
00200200
00000000
00000000
00000300
00310020
00000030
20000002
00000000
31000000
00000003
,
02001000
00000100
03011000
00000000
01000002
00000003
00200200
00000000
00020000
00000300
00300020
00000030
00132000
00000000
20000000
00003000
,
00000001
00000010
32000001
00000000
03202000
00003000
00320020
00000000
02030000
00000030
23000200
00000300
30020002
00000000
00200000
00000003
,
20331000
00000010
32001000
00000010
03022000
00000000
02030000
00003000
23000002
00000000
00000000
00000003
30012000
00000000
00010000
00003000
,
00000001
00000100
00200001
00000100
00310002
00000000
20000000
00000003
00002000
00000000
31000000
00003000
00010002
00000000
20000000
00000003
,
00012000
00000000
30000000
00003000
00020200
00000000
02030000
00000300
00000002
00000000
23000000
00000003
30200200
00000000
00320000
00000300
,
00002000
00030000
20000000
00003000
32000020
00000000
03020000
00000030
00000002
00000000
20030000
00000003
30020020
00000000
20030000
00000030
,
30101000
00000100
00000000
00000100
10000010
00000000
01001000
00000001
00000000
00000010
00100100
00000000
00010001
00000000
00010001
00000000
,
00000100
00000010
00000000
00001000
00000001
00000000
10000010
00000001
00000000
00000100
00011000
00000000
01000010
00000000
00000010
00000000
,
00100100
00000010
10000000
00001000
01000001
00000000
00000010
00000100
00100000
00000001
00000010
00000000
00011000
00000000
01001000
00000000
,
00000100
00000010
00000000
00000001
00001000
00000000
10000001
00000100
00000000
00000010
01001000
00000000
01000100
00000000
00100100
00000000
,
00010001
00000010
10000000
00000100
01001000
00000000
00010010
00000100
10000000
00000001
00001000
00000000
10000100
00000000
01000100
00000000
,
00000001
00000100
00000000
00000010
00000100
00000000
00101000
00000010
00000000
00000100
00010001
00000000
10000100
00000000
01000100
00000000
,
00100010
00001000
00000000
00000100
00000001
00000000
01000010
00000001
00000000
00001000
00100100
00000000
10000001
00000000
00010001
00000000
,
00000100
00000010
00000000
00000001
00000010
00000000
01001000
00000100
00000000
00000100
00001000
00000000
10000010
00000000
00000010
00000000
,
02202002
00000000
00000000
00000000
,
03303003
00000000
00000000
00000000
;

//---------------dance-double - Standard----------------
#NOTES:
     dance-double:
     Standard:
     Medium:
     12:
     1.000,1.000,1.000,1.000,0.132,897.000,375.000,354.000,0.000,168.000:
00001000
00000000
00000001
00000100
00000000
00000100
00000001
00000001
,
00000100
00000000
00000100
00001000
00000000
00001000
00000100
00000100
,
00000010
00000000
00000010
00001000
00000000
00000100
00001000
00001000
,
00000010
00000000
00000100
00000100
00000000
00000001
00001000
00001000
,
00000001
00000000
00000001
00001000
00000000
00000100
00001000
00001000
,
00000100
00000000
00000100
00000010
00000000
00000010
00001000
00001000
,
00000100
00000000
00000100
00001000
00000000
00001000
00000100
00000100
,
00000010
00000000
00000100
00000010
00000000
00001000
00000100
00000100
,
20001000
00000000
00000000
00000000
00000001
30000000
20000100
00000000
00000000
00000000
00000100
30000000
20000001
00000000
00000001
30000000
,
20000100
00000000
00000000
00000000
00000100
30000000
20001000
00000000
00000000
00000000
00001000
30000000
20000100
00000000
00000100
30000000
,
20000010
00000000
00000000
00000000
00000010
30000000
20001000
00000000
00000000
00000000
00000100
30000000
20001000
00000000
00001000
30000000
,
20000010
00000000
00000000
00000000
00000100
30000000
20000100
00000000
00000000
00000000
00000001
30000000
20001000
00000000
00001000
30000000
,
00020001
00000000
00000000
00000000
00000001
00030000
00021000
00000000
00000000
00000000
00000100
00030000
00021000
00000000
00001000
00030000
,
00020100
00000000
00000000
00000000
00000100
00030000
00020010
00000000
00000000
00000000
00000010
00030000
00021000
00000000
00001000
00030000
,
00020100
00000000
00000000
00030000
00020100
00000000
00001000
00030000
00200000
00000000
00001000
00300000
00200100
00000000
00000100
00300000
,
02000010
00000000
00000000
03000000
02000100
00000000
00000010
03000000
20000000
00000000
00001000
30000000
20000100
00000000
00000100
30000000
,
20021000
00000000
00000100
00000000
00000001
30030000
00020100
00000000
00001000
00000000
00000100
00030000
00020001
00000000
00000001
00030000
,
00020100
00000000
00000010
00000000
00000100
00030000
00021000
00000000
00000001
00000000
00001000
00030000
00020100
00000000
00000100
00030000
,
20000010
00000000
00001000
00000000
00000010
30000000
20001000
00000000
00000001
00000000
00000100
30000000
20001000
00000000
00001000
30000000
,
20000010
00000000
00000001
00000000
00000100
30000000
20000100
00000000
00000010
00000000
00000001
30000000
20001000
00000000
00001000
30000000
,
02000001
00000000
00001000
00000000
00000001
03000000
02001000
00000000
00000001
00000000
00000100
03000000
02001000
00000000
00001000
03000000
,
02000100
00000000
00000010
00000000
00000100
03000000
02000010
00000000
00001000
00000000
00000010
03000000
02001000
00000000
00001000
03000000
,
02000100
00000000
00000001
03000000
00020100
00000000
00001000
00030000
00020010
00000000
00001000
00030000
00200100
00000000
00000100
00300000
,
00200010
00000000
00001000
00300000
02000100
00000000
00000010
03000000
02000001
00000000
00001000
03000000
20020100
00000000
00000100
30030000
,
00021001
00000000
00000000
00000000
00000000
00030000
00021000
00000010
00001000
00000000
00000000
00030000
00020101
00000000
00000000
00030000
,
00021100
00000000
00000000
00000000
00000000
00030000
00020100
00001000
00000100
00000000
00000000
00030000
00021001
00000000
00000000
00030000
,
00200011
00000000
00000000
00000000
00000000
00300000
00200001
00001000
00000001
00000000
00000000
00300000
00200101
00000000
00000000
00300000
,
00201001
00000000
00000000
00000000
00000000
00300000
00200100
00000001
00000100
00000000
00000000
00300000
00200110
00000000
00000000
00300000
,
02001001
00000000
00000000
00000000
00000000
03000000
02000010
00001000
00000001
00000000
00000000
03000000
02000101
00000000
00000000
03000000
,
02001001
00000000
00000000
00000000
00000000
03000000
02001000
00000100
00001000
00000000
00000000
03000000
02001100
00000000
00000000
03000000
,
00021001
00000000
00000000
00030000
00020000
00000000
00000010
00031000
00200010
00000000
00000000
00300000
00201010
00000000
00000000
00300000
,
02001100
00000000
00000000
03000000
02000000
00000000
00000010
03001000
20000001
00000000
00000000
30000001
20020100
00000000
00000000
30030000
,
20000202
00000000
00000000
00000303
00000000
30000000
20001000
00000010
00001000
00000000
00000000
30000000
20000101
00000000
00000000
30000000
,
20001100
00000000
00000000
00000000
00000000
30000000
20001000
00000010
00000100
00000000
00000000
30000000
20001100
00000000
00000000
30000000
,
02001001
00000000
00000000
00000000
00000000
03000000
02001000
00000100
00001000
00000000
00000000
03000000
02001001
00000000
00000000
03000000
,
02001100
00000000
00000000
00000000
00000000
03000000
02000001
00000100
00000001
00000000
00000000
03000000
02000101
00000000
00000000
03000000
,
00201001
00000000
00000000
00000000
00000000
00300000
00201000
00000001
00001000
00000000
00000000
00300000
00200101
00000000
00000000
00300000
,
00200110
00000000
00000000
00000000
00000000
00300000
00200010
00000001
00000100
00000000
00000000
00300000
00200110
00000000
00000000
00300000
,
00021010
00000000
00000000
00030000
00020000
00000000
00000010
00031000
00200001
00000000
00000000
00300000
00200110
00000000
00000000
00300000
,
02001001
00000000
00000000
03000000
02000000
00000000
00000100
03000001
20001000
00000000
00000000
30000001
20000100
00000000
00000000
30000000
,
20001000
00000000
00000100
00000000
00010001
30000000
00020100
00000000
00000001
00000000
10030010
00000000
10000100
00000000
10000100
00000000
,
20001000
00000000
00000010
00000000
00000100
30000000
00100100
00000000
00001000
00000000
00100100
00000000
00200001
00000000
00000001
00000000
,
01300100
00000000
01000100
00000000
01001000
00000000
00000010
00000000
02000100
00000000
00000010
03000000
01000001
00000000
02000001
00000000
,
00000100
00000010
03001000
00020100
00000001
10031000
10000100
10000100
,
10001000
00000000
10000010
00000000
10000100
00000000
10000010
00000000
20000100
00000000
00001000
30000000
10000010
00000000
20000010
00000000
,
00000010
00000000
00000100
00000000
30001000
00000000
00020100
00000000
00000001
00030000
00010010
00000000
00010100
00000000
00010100
00000000
,
00200001
00000010
00001000
00021000
00300100
00030001
00101000
00101000
,
00020100
00000000
00000010
00000000
00000001
00030000
00021000
00000000
00000001
00030000
00020100
00030000
00020010
00000000
00000010
00030000
,
00020001
00000000
00000100
00030000
00011000
00000000
00020001
00000000
00001000
00000000
10030100
00000000
10000010
00000000
20000010
30000000
,
20000100
00000000
00000010
00000000
00000001
30000000
10001000
00000000
00000010
00000000
20000100
30000000
10000001
00000000
00000001
00000000
,
10000100
10000010
10000001
00000100
10000100
00000100
01000010
02000010
,
00001000
00000000
00000001
00000000
00000100
03000000
02000010
00000000
00000100
03000000
01001000
00000000
01000010
00000000
01000010
00000000
,
01000100
01000001
01001000
00000010
02000100
00001000
03011000
20000001
,
00000010
00000100
00001000
30010100
00000010
00010100
00010010
00010010
,
00020100
00000000
00000001
00000000
00000010
00030000
00020100
00000000
00001000
00000000
00000001
00030000
00100100
00000000
00200100
00000000
,
00000010
00000000
00000001
00000000
00001000
00300000
10010100
00000000
10010000
00000000
10011000
00000000
10010001
00000000
10010001
00000000
,
10011111
00000000
10011000
00000010
10010000
00000001
10010100
00000100
,
10010010
00000000
10010001
00001000
10010000
00000001
10010100
00000100
,
00110010
00000000
00111000
00000010
00110000
00000010
00111000
00001000
,
00110100
00000000
00110100
00000001
00110000
00001000
00110001
00000001
,
01011000
00000000
01010001
00000001
01010000
00001000
01010010
00000010
,
01010100
00000000
01010100
00000001
01010000
00000100
01010010
00000010
,
01100010
00000000
01100100
00000100
01100000
00000010
01100001
00000001
,
01101000
00000000
01100001
00000001
01100000
00001000
01100100
00000100
,
10101000
00000000
10100010
00001000
10100000
00000001
10100100
00000100
,
10100010
00000000
10101000
00000100
10100000
00000001
10100001
00000001
,
11000010
00000000
11000001
00000100
11000000
00001000
11001000
00001000
,
11000010
00000000
11000010
00000001
11000000
00000100
11001000
00001000
,
10010100
00000000
10010001
00000100
10010000
00000100
10010001
00000001
,
10010010
00000000
10010010
00000100
10010000
00000100
10010001
00000001
,
10010100
00000000
10010100
00000001
10010000
00000010
10010001
00000001
,
10010100
00000000
10010100
00000001
10010010
00000001
10010010
00000001
,
10010001
00001000
00000001
00000000
00020000
00030000
00200000
00000000
00000000
00300000
02000000
03000000
20000000
00000000
00000000
30000000
,
00001000
00000100
00001000
00000000
20000000
30000000
02000000
00000000
00000000
03000000
00200000
00300000
00020000
00000000
00000000
00030000
,
00000010
00000001
00001000
00000000
00020000
00030000
00200000
00000000
00000000
00300000
02000000
03000000
20000000
00000000
00000000
30000000
,
00000100
00001000
00000001
00000000
20000000
30000000
02000000
00000000
00000000
03000000
00200000
00300000
00020000
00000000
00000000
00030000
,
00000001
00000010
00000001
00000010
20000002
00000000
00000000
30000003
00022000
00000000
00000000
00000000
10000001
00000000
00000000
00033000
,
00001000
00000100
00001000
00000100
00022000
00000000
00000000
00000000
20033002
00000000
00000000
00000000
00011000
00000000
00000000
30000003
,
20022000
00000000
00000000
00003000
00000200
00000000
00000000
00000300
00000002
00000000
00000000
00000003
00000200
00000000
00000000
00000300
,
00002000
00000000
00000000
00003000
00000200
00000000
00000000
00000300
00000002
00000000
00000000
00000003
00000200
00000000
00000000
30030300
,
00000001
00000010
00000001
00000000
00020000
00030000
00200000
00000000
00000000
00300000
02000000
03000000
20000000
00000000
00000000
30000000
,
00001000
00000100
00001000
00000000
20000000
30000000
02000000
00000000
00000000
03000000
00200000
00300000
00020000
00000000
00000000
00030000
,
00000010
00001000
00000001
00000000
00020000
00030000
00200000
00000000
00000000
00300000
02000000
03000000
20000000
00000000
00000000
30000000
,
00000100
00001000
00000001
00000000
20000000
30000000
02000000
00000000
00000000
03000000
00200000
00300000
00020000
00000000
00000000
00030000
,
00000001
00000010
00000001
00000010
20000002
00000000
00000000
30000003
00022000
00000000
00000000
00000000
10000001
00000000
00000000
00033000
,
00001000
00000100
00001000
00000100
00022000
00000000
00000000
00000000
20033002
00000000
00000000
00000000
00011000
00000000
00000000
30000003
,
20020002
00000000
00000000
00000003
00000020
00000000
00000000
00000030
00002000
00000000
00000000
00003000
00000020
00000000
00000000
00000030
,
00000002
00000000
00000000
00000003
00000020
00000000
00000000
00000030
00002000
00000000
00000000
00003000
00000020
00000000
00000000
30030030
,
00021000
00000000
00000000
00000000
00000100
00030000
00020010
00000000
00000000
00000000
00000100
00030000
00020001
00000000
00000000
00030000
,
00020010
00000000
00001000
00000000
00000000
00030000
00020001
00000000
00000100
00000000
00000010
00030000
00021000
00000000
00000010
00030000
,
00200100
00000000
00000000
00000000
00000001
00300000
00200100
00000000
00000000
00000000
00000010
00300000
00201000
00000000
00000000
00300000
,
00200010
00000000
00001000
00000000
00000000
00300000
00200010
00000000
00000100
00000000
00000010
00300000
00200100
00000000
00000010
00300000
,
02000100
00000000
00000000
00000000
00000001
03000000
02001000
00000000
00000000
00000000
00000001
03000000
02001000
00000000
00000000
03000000
,
02000010
00000000
00000100
00000000
00000000
03000000
02000001
00000000
00000010
00000000
00000100
03000000
02001000
00000000
00000100
03000000
,
00021000
00000000
00000000
00030000
00020010
00000000
00000100
00030000
00200000
00000000
00001000
00300000
00200001
00000000
00000000
00300000
,
02000100
00000000
00000010
03000000
02000000
00000000
00000001
03000000
20000100
00000000
00000010
30000000
20001000
00000000
00000001
30000000
,
20020100
00000000
00000000
00000000
00000100
30030000
00021000
00000000
00000000
00000000
00000001
00030000
00020010
00000000
00000000
00030000
,
00020100
00000000
00000010
00000000
00000000
00030000
00020001
00000000
00000001
00000000
00000001
00030000
00020001
00000000
00000001
00030000
,
02000001
00000000
00000000
00000000
00001000
03000000
02001000
00000000
00000000
00000000
00000010
03000000
02000010
00000000
00000000
03000000
,
02000100
00000000
00000100
00000000
00000000
03000000
02001000
00000000
00001000
00000000
00001000
03000000
02001000
00000000
00001000
03000000
,
20001000
00000000
00000000
00000000
00000001
30000000
20000001
00000000
00000000
00000000
00000100
30000000
20000100
00000000
00000000
30000000
,
20000010
00000000
00000010
00000000
00000000
30000000
20001000
00000000
00001000
00000000
00000100
30000000
00020010
00000000
00000100
00030000
,
00021000
00000000
00000000
00030000
00200010
00000000
00000100
00300000
00200000
00000000
00000001
00300000
02000010
00000000
00000000
03000000
,
02000100
00000000
00001000
03000000
20000000
00000000
00000001
30000000
20000001
00000000
00000001
30000000
20020001
00000000
00000001
30030000
,
00020001
00000100
00000001
00000000
00001000
00030000
00020100
00000000
00000000
00000000
00001000
00030000
00020010
00000000
00000000
00030000
,
00020001
00001000
00000010
00000000
00001000
00030000
00200100
00000000
00000000
00000000
00000001
00300000
00201000
00000000
00000000
00300000
,
00200001
00001000
00000001
00000000
00000001
00300000
00200100
00000000
00000000
00000000
00001000
00300000
00200100
00000000
00000000
00300000
,
00200001
00001000
00000010
00000000
00000001
00300000
00200100
00000000
00000000
00000000
00000100
00300000
00201000
00000000
00000000
00300000
,
02001000
00000010
00001000
00000010
00001000
03000000
02000000
00000000
00000110
00000000
00000000
03000000
02001001
00000000
00000000
03000000
,
02001000
00000010
00001000
00000010
00001000
03000000
02000000
00000000
00001001
00000000
00000000
03000000
00020101
00000000
00000000
00030000
,
00022002
00000000
00000000
00030000
00200000
00000000
00000000
00300000
00200000
00000000
00000000
00300000
02000000
00000000
00000000
03000000
,
02000000
00000000
00000000
03000000
20000000
00000000
00000000
30000000
20000000
00000000
00000000
30000000
20000000
00000000
00000000
30003003
,
20001000
00000010
00001000
00000000
00000010
30000000
20000001
00000000
00000000
00000000
00000001
30000000
20001000
00000000
00000000
30000000
,
20000001
00001000
00000010
00000000
00001000
30000000
20000010
00000000
00000000
00000000
00000100
30000000
20000001
00000000
00000000
30000000
,
02000010
00001000
00000010
00000000
00001000
03000000
02000001
00000000
00000000
00000000
00001000
03000000
02000001
00000000
00000000
03000000
,
02001000
00000001
00001000
00000000
00000001
03000000
02000010
00000000
00000000
00000000
00000001
03000000
02001000
00000000
00000000
03000000
,
00201000
00000010
00001000
00000010
00001000
00300000
00200000
00000000
00000110
00000000
00000000
00300000
00201001
00000000
00000000
00300000
,
00200100
00000001
00000100
00000001
00000100
00300000
00200000
00000000
00000011
00000000
00000000
00300000
00201100
00000000
00000000
00300000
,
00022002
00000000
00000000
00030000
00200000
00000000
00000000
00300000
02000000
00000000
00000000
03000000
20000000
00000000
00000000
30000000
,
20000000
00000000
00000000
30000000
02000000
00000000
00000000
03000000
00200000
00000000
00000000
00300000
00020000
00000000
00000000
00033003
,
00001001
00000000
00001000
00000200
00000000
00000310
00000001
00000002
,
00000103
00000200
00000310
00000020
00000000
00000031
00002000
00003100
,
00000200
00000301
00000100
00000020
00000002
00000030
00000013
00002000
,
00000000
00003200
00000320
00000032
00000203
00002300
00003002
00000020
,
00002033
00003200
00000302
00000203
00002300
00000000
00003001
00000001
,
00000000
00000020
00000031
00002000
00000000
00003100
00000001
00002000
,
00000001
00003000
00000002
00000203
00000000
00002300
00003020
00000032
,
00000000
00000003
00002000
00000000
00003200
00000000
00000302
00000000
00000000
00000000
00002003
00000000
00003002
00000000
00002003
00000000
,
10013010
00000000
10011000
00000100
10010000
00000010
10010001
00000001
,
10010000
00000000
10010000
00001000
10010000
00000001
10010100
00000000
,
01010010
00001000
01010100
00000000
01010010
00000000
01010001
00000100
,
01010000
00000000
01010000
00001000
01010000
00000100
01010100
00000010
,
10100001
00001000
10100100
00000001
10101000
00000000
10101000
00000100
,
10100000
00000000
10100000
00000010
10100000
00000001
10101000
00000100
,
01100010
00000000
01100000
00000100
01100000
00000010
01101000
00000001
,
01100000
00000000
01100000
00000100
01100000
00000000
01101000
00000000
,
20022002
00000000
00000000
00000000
,
30033003
00000000
00000000
00000000
;

//---------------dance-double - Light----------------
#NOTES:
     dance-double:
     Light:
     Easy:
     7:
     0.930,1.000,1.000,1.000,0.000,589.000,287.000,308.000,0.000,64.000:
00001000
00000001
00000100
00000001
,
00000100
00000100
00001000
00000100
,
00000010
00000010
00000100
00001000
,
00000010
00000100
00000001
00001000
,
00000001
00000001
00000100
00001000
,
00000100
00000100
00000010
00001000
,
00000100
00000100
00001000
00000100
,
00000010
00000100
00000010
00000100
,
00021000
00000000
00000000
00000000
00000001
00030000
00020000
00000000
00000100
00000000
00000000
00030000
00020001
00000000
00000000
00030000
,
00020100
00000000
00000000
00000000
00000100
00030000
00020000
00000000
00001000
00000000
00000000
00030000
00020100
00000000
00000000
00030000
,
00020010
00000000
00000000
00000000
00000010
00030000
00020000
00000000
00000100
00000000
00000000
00030000
00021000
00000000
00000000
00030000
,
00020010
00000000
00000000
00000000
00000100
00030000
00020000
00000000
00000100
00000000
00000000
00030000
00021000
00000000
00000000
00030000
,
00020001
00000000
00000000
00000000
00000001
00030000
00020000
00000000
00000100
00000000
00000000
00030000
00021000
00000000
00000000
00030000
,
00020100
00000000
00000000
00000000
00000100
00030000
00020000
00000000
00000010
00000000
00000000
00030000
00021000
00000000
00000000
00030000
,
00020100
00000000
00000000
00030000
00020100
00000000
00000000
00030000
00021000
00000000
00000000
00030000
00020100
00000000
00000000
00030000
,
00020010
00000000
00000000
00030000
00020100
00000000
00000000
00030000
00020010
00000000
00000000
00030000
00020100
00000000
00000000
00030000
,
00021000
00000000
00000000
00000000
00000001
00030000
00020000
00000000
00001000
00000000
00000000
00030000
00020001
00000000
00000000
00030000
,
00020100
00000000
00000000
00000000
00000100
00030000
00020000
00000000
00000001
00000000
00000000
00030000
00020100
00000000
00000000
00030000
,
20000010
00000000
00000000
00000000
00000010
30000000
20000000
00000000
00000001
00000000
00000000
30000000
20001000
00000000
00000000
30000000
,
20000010
00000000
00000000
00000000
00000100
30000000
20000000
00000000
00000010
00000000
00000000
30000000
20001000
00000000
00000000
30000000
,
20000001
00000000
00000000
00000000
00000001
30000000
20000000
00000000
00000001
00000000
00000000
30000000
20001000
00000000
00000000
30000000
,
20000100
00000000
00000000
00000000
00000100
30000000
20000000
00000000
00001000
00000000
00000000
30000000
20001000
00000000
00000000
30000000
,
20000100
00000000
00000000
30000000
20000100
00000000
00000000
30000000
20000010
00000000
00000000
30000000
20000100
00000000
00000000
30000000
,
20000010
00000000
00000000
30000000
20000100
00000000
00000000
30000000
20000001
00000000
00000000
30000000
20000100
00000000
00000000
30000000
,
00201001
00000000
00000000
00000000
00000000
00300000
00200000
00000000
00001000
00000000
00000000
00300000
00200101
00000000
00000000
00300000
,
00201100
00000000
00000000
00000000
00000000
00300000
00200000
00000000
00000100
00000000
00000000
00300000
00201001
00000000
00000000
00300000
,
00200011
00000000
00000000
00000000
00000000
00300000
00200000
00000000
00000001
00000000
00000000
00300000
00200101
00000000
00000000
00300000
,
00201001
00000000
00000000
00000000
00000000
00300000
00200000
00000000
00000100
00000000
00000000
00300000
00200110
00000000
00000000
00300000
,
00201001
00000000
00000000
00000000
00000000
00300000
00200000
00000000
00000001
00000000
00000000
00300000
00200101
00000000
00000000
00300000
,
00201001
00000000
00000000
00000000
00000000
00300000
00200000
00000000
00001000
00000000
00000000
00300000
00201100
00000000
00000000
00300000
,
00201001
00000000
00000000
00300000
00200000
00000000
00000000
00300000
00200010
00000000
00000000
00300000
00201010
00000000
00000000
00300000
,
00201100
00000000
00000000
00300000
00200000
00000000
00000000
00300000
00200001
00000000
00000000
00300000
00200100
00000000
00000000
00300000
,
02000202
00000000
00000000
00000303
00000000
03000000
02000000
00000000
00001000
00000000
00000000
03000000
02000101
00000000
00000000
03000000
,
02001100
00000000
00000000
00000000
00000000
03000000
02000000
00000000
00000100
00000000
00000000
03000000
02001100
00000000
00000000
03000000
,
02001001
00000000
00000000
00000000
00000000
03000000
02000000
00000000
00001000
00000000
00000000
03000000
02001001
00000000
00000000
03000000
,
02001100
00000000
00000000
00000000
00000000
03000000
02000000
00000000
00000001
00000000
00000000
03000000
02000101
00000000
00000000
03000000
,
02001001
00000000
00000000
00000000
00000000
03000000
02000000
00000000
00001000
00000000
00000000
03000000
02000101
00000000
00000000
03000000
,
02000110
00000000
00000000
00000000
00000000
03000000
02000000
00000000
00000100
00000000
00000000
03000000
02000110
00000000
00000000
03000000
,
02001010
00000000
00000000
03000000
02000000
00000000
00000000
03000000
02000001
00000000
00000000
03000000
02000110
00000000
00000000
03000000
,
02001001
00000000
00000000
03000000
02000000
00000000
00000000
03000000
02001000
00000000
00000000
03000000
02000100
00000000
00000000
03000000
,
00021000
00000000
00000000
00000000
00000001
00030000
00020000
00000000
00000001
00000000
00000000
00030000
00020100
00000000
00000000
00030000
,
00021000
00000000
00000000
00000000
00000100
00030000
00020000
00000000
00001000
00000000
00000000
00030000
00020001
00000000
00000000
00030000
,
00020100
00000000
00000000
00030000
00021000
00000000
00000000
00030000
00020100
00000000
00000000
00000000
00000001
00030000
00020000
00000000
,
00000100
00000000
00000000
00000000
00001000
00030000
00020000
00000000
00000001
00000000
00000000
00030000
00020100
00000000
00000000
00030000
,
00021000
00000000
00000000
00030000
00020100
00000000
00000000
00030000
00020100
00000000
00000000
00000000
00000010
00030000
00020000
00000000
,
00000010
00000000
00000000
00000000
00001000
00030000
00020000
00000000
00000001
00000000
00000000
00030000
00020100
00000000
00000000
00030000
,
00020001
00000000
00000000
00000000
00001000
00030000
00020000
00000000
00000100
00000000
00000000
00030000
00021000
00000000
00000000
00030000
,
00020100
00000000
00000000
00000000
00000001
00000000
00000000
00030000
00020001
00000000
00000000
00030000
00020010
00000000
00000000
00030000
,
00020001
00000000
00000000
00000000
00001000
00030000
00020000
00000000
00001000
00000000
00000000
00030000
00020010
00000000
00000000
00030000
,
00020100
00000000
00000000
00000000
00000001
00030000
00020000
00000000
00000010
00000000
00000000
00030000
00020001
00000000
00000000
00030000
,
00020100
00000000
00000000
00030000
00020001
00000000
00000000
00030000
00020100
00000000
00000000
00000000
00000010
00030000
00020000
00000000
,
00001000
00000000
00000000
00000000
00000100
00030000
00020000
00000000
00000100
00000000
00000000
00030000
00020010
00000000
00000000
00030000
,
00020100
00000000
00000000
00030000
00021000
00000000
00000000
00030000
00020100
00000000
00000000
00000000
00001000
00030000
00020000
00000000
,
00000010
00000000
00000000
00000000
00001000
00030000
00020000
00000000
00000010
00000000
00000000
00030000
00020010
00000000
00000000
00030000
,
00020100
00000000
00000000
00000000
00000010
00030000
00020000
00000000
00001000
00000000
00000000
00030000
00020100
00000000
00000000
00030000
,
00020010
00000000
00000000
00000000
00001000
00000000
00000000
00030000
00021000
00000000
00000000
00030000
00020001
00000000
00000000
00030000
,
00011001
00011000
00010001
00010100
,
00010010
00010001
00011000
00010100
,
00100110
00101000
00100010
00101000
,
00100100
00100100
00101000
00100001
,
01001001
01000001
01001000
01000010
,
01000100
01000100
01000001
01000010
,
10001010
10000100
10000010
10000001
,
10001000
10000001
10000001
10000100
,
00011100
00010010
00011000
00010100
,
00010010
00011000
00010100
00010001
,
00100011
00100001
00100100
00101000
,
00100010
00100010
00100001
00101000
,
01000101
01000001
01000100
01000001
,
01000010
01000010
01000100
01000001
,
10000110
10000100
10000001
10000001
,
10000100
10000100
10000010
10000010
,
10000001
00000000
00000000
00000000
00020000
00000000
00000000
00030000
02000000
00000000
00000000
03000000
20000000
00000000
00000000
30000000
,
00001000
00000000
00000000
00000000
20000000
00000000
00000000
30000000
00200000
00000000
00000000
00300000
00020000
00000000
00000000
00030000
,
00000010
00000000
00000000
00000000
00020000
00000000
00000000
00030000
02000000
00000000
00000000
03000000
20000000
00000000
00000000
30000000
,
00000100
00000000
00000000
00000000
20000000
00000000
00000000
30000000
00200000
00000000
00000000
00300000
00020000
00000000
00000000
00030000
,
00000001
00000000
00000000
00000000
00022000
00000000
00000000
00033000
00022000
00000000
00000000
00000000
00000000
00000000
00000000
00033000
,
00001000
00000000
00000000
00000000
00022000
00000000
00000000
00033000
00022000
00000000
00000000
00000000
00000000
00000000
00000000
00033000
,
00021000
00000100
00000001
00000100
,
00001000
00000000
00000000
00000000
00000100
00000000
00000000
00000000
00000001
00000000
00000000
00000000
00000100
00000000
00000000
00030000
,
00000001
00000000
00000000
00000000
00020000
00000000
00000000
00030000
02000000
00000000
00000000
03000000
20000000
00000000
00000000
30000000
,
00001000
00000000
00000000
00000000
20000000
00000000
00000000
30000000
00200000
00000000
00000000
00300000
00020000
00000000
00000000
00030000
,
00000010
00000000
00000000
00000000
00020000
00000000
00000000
00030000
02000000
00000000
00000000
03000000
20000000
00000000
00000000
30000000
,
00000100
00000000
00000000
00000000
20000000
00000000
00000000
30000000
00200000
00000000
00000000
00300000
00020000
00000000
00000000
00030000
,
00000001
00000000
00000000
00000000
00022000
00000000
00000000
00033000
00022000
00000000
00000000
00000000
00000000
00000000
00000000
00033000
,
00001000
00000000
00000000
00000000
00022000
00000000
00000000
00033000
00022000
00000000
00000000
00000000
00000000
00000000
00000000
00033000
,
00020001
00000010
00001000
00000010
,
00000001
00000000
00000000
00000000
00000010
00000000
00000000
00000000
00001000
00000000
00000000
00000000
00000010
00000000
00000000
00030000
,
00021000
00000000
00000000
00000000
00000100
00030000
00020000
00000000
00000010
00000000
00000000
00030000
00020001
00000000
00000000
00030000
,
00020010
00000000
00000000
00000000
00001000
00030000
00020000
00000000
00000100
00000000
00000000
00030000
00021000
00000000
00000000
00030000
,
00020100
00000000
00000000
00000000
00000001
00030000
00020000
00000000
00000100
00000000
00000000
00030000
00021000
00000000
00000000
00030000
,
00020010
00000000
00000000
00000000
00001000
00030000
00020000
00000000
00000100
00000000
00000000
00030000
00020100
00000000
00000000
00030000
,
00200100
00000000
00000000
00000000
00000001
00300000
00200000
00000000
00001000
00000000
00000000
00300000
00201000
00000000
00000000
00300000
,
00200010
00000000
00000000
00000000
00000001
00300000
00200000
00000000
00000010
00000000
00000000
00300000
00201000
00000000
00000000
00300000
,
00201000
00000000
00000000
00300000
00200010
00000000
00000000
00300000
00201000
00000000
00000000
00300000
00200001
00000000
00000000
00300000
,
00200100
00000000
00000000
00300000
00200010
00000000
00000000
00300000
00200100
00000000
00000000
00300000
00201000
00000000
00000000
00300000
,
02000100
00000000
00000000
00000000
00000100
03000000
02000000
00000000
00001000
00000000
00000000
03000000
02000010
00000000
00000000
03000000
,
02000100
00000000
00000000
00000000
00000010
03000000
02000000
00000000
00000001
00000000
00000000
03000000
02000001
00000000
00000000
03000000
,
02000001
00000000
00000000
00000000
00001000
03000000
02000000
00000000
00001000
00000000
00000000
03000000
02000010
00000000
00000000
03000000
,
02000100
00000000
00000000
00000000
00000100
03000000
02000000
00000000
00001000
00000000
00000000
03000000
02001000
00000000
00000000
03000000
,
02001000
00000000
00000000
00000000
00000001
03000000
02000000
00000000
00000001
00000000
00000000
03000000
02000100
00000000
00000000
03000000
,
02000010
00000000
00000000
00000000
00000010
03000000
02000000
00000000
00001000
00000000
00000000
03000000
02000010
00000000
00000000
03000000
,
02001000
00000000
00000000
03000000
02000010
00000000
00000000
03000000
02000001
00000000
00000000
03000000
02000010
00000000
00000000
03000000
,
02000100
00000000
00000000
03000000
02001000
00000000
00000000
03000000
02000001
00000000
00000000
03000000
02000001
00000000
00000000
03000000
,
20000001
00000000
00000000
00000000
00001000
30000000
20000000
00000000
00000100
00000000
00000000
30000000
20000010
00000000
00000000
30000000
,
20000001
00000000
00000000
00000000
00001000
30000000
20000000
00000000
00000100
00000000
00000000
30000000
20001000
00000000
00000000
30000000
,
20000001
00000000
00000000
00000000
00000001
30000000
20000000
00000000
00001000
00000000
00000000
30000000
20000100
00000000
00000000
30000000
,
20000001
00000000
00000000
00000000
00000001
30000000
20000000
00000000
00000100
00000000
00000000
30000000
20001000
00000000
00000000
30000000
,
02001000
00000000
00000000
00000000
00001000
03000000
02000000
00000000
00000110
00000000
00000000
03000000
02001001
00000000
00000000
03000000
,
02001000
00000000
00000000
00000000
00001000
03000000
02000000
00000000
00001001
00000000
00000000
03000000
02000101
00000000
00000000
03000000
,
02002002
00000000
00000000
03000000
02000000
00000000
00000000
03000000
02000000
00000000
00000000
03000000
02000000
00000000
00000000
03000000
,
02000000
00000000
00000000
03000000
02000000
00000000
00000000
03000000
02000000
00000000
00000000
03000000
02000000
00000000
00000000
03003003
,
00201000
00000000
00000000
00000000
00000010
00300000
00200000
00000000
00000001
00000000
00000000
00300000
00201000
00000000
00000000
00300000
,
00200001
00000000
00000000
00000000
00001000
00300000
00200000
00000000
00000100
00000000
00000000
00300000
00200001
00000000
00000000
00300000
,
00200010
00000000
00000000
00000000
00001000
00300000
00200000
00000000
00001000
00000000
00000000
00300000
00200001
00000000
00000000
00300000
,
00201000
00000000
00000000
00000000
00000001
00300000
00200000
00000000
00000010
00000000
00000000
00300000
00201000
00000000
00000000
00300000
,
00021000
00000000
00000000
00000000
00001000
00030000
00020000
00000000
00000110
00000000
00000000
00030000
00021001
00000000
00000000
00030000
,
00020100
00000000
00000000
00000000
00000100
00030000
00020000
00000000
00000011
00000000
00000000
00030000
00021100
00000000
00000000
00030000
,
00022002
00000000
00000000
00030000
00020000
00000000
00000000
00030000
00020000
00000000
00000000
00030000
00020000
00000000
00000000
00030000
,
00020000
00000000
00000000
00030000
00020000
00000000
00000000
00030000
00020000
00000000
00000000
00030000
00020000
00000000
00000000
00033003
,
00001001
00001000
00000100
00000001
,
00000100
00000010
00000001
00001000
,
00000100
00000100
00000001
00000010
,
00001000
00000010
00000100
00000001
,
00001000
00000001
00001000
00000001
,
00000001
00000001
00001000
00000001
,
00000001
00000001
00000100
00000010
,
00000001
00000100
00000001
00000001
,
00100010
10001000
01000100
00010001
,
00100010
01000100
10001000
01000100
,
00100010
01000100
00100010
00010001
,
01000100
10001000
10001000
01000100
,
00010001
01000100
10001000
10001000
,
00100010
00010001
01000100
10001000
,
00100010
00000000
00000000
00010001
00000000
00000000
10001000
01000100
,
00000000
00000000
00000000
01000100
00000000
00000000
10011001
00000000
,
20022002
00000000
00000000
00000000
,
30033003
00000000
00000000
00000000
;

//---------------dance-double - Oni----------------
#NOTES:
     dance-double:
     Oni:
     Challenge:
     25:
     1.000,1.000,1.000,1.000,1.000,1324.000,1114.000,470.000,0.000,874.000:
00001100
00001100
00000000
00000011
00000011
00000000
00000110
00000110
00000000
00001100
00001100
00000000
00001001
00000000
00001001
00000000
,
00001100
00001100
00000000
00000110
00000110
00000000
00001100
00001100
00000000
00001010
00001010
00000000
00000110
00000000
00000110
00000000
,
00000011
00000011
00000000
00000110
00000110
00000000
00001100
00001100
00000000
00000101
00000101
00000000
00001010
00000000
00001010
00000000
,
00001010
00001010
00000000
00001100
00001100
00000000
00000110
00000110
00000000
00000011
00000011
00000000
00000101
00000000
00000101
00000000
,
00000011
00000011
00000000
00000101
00000101
00000000
00001010
00001010
00000000
00000101
00000101
00000000
00001100
00000000
00001100
00000000
,
00000110
00000110
00000000
00001100
00001100
00000000
00000011
00000011
00000000
00000110
00000110
00000000
00000011
00000000
00000011
00000000
,
00000101
00000101
00000000
00000101
00000101
00000000
00001010
00001010
00000000
00001010
00001010
00000000
00000110
00000000
00000110
00000000
,
00000011
00000011
00000000
00001100
00001100
00000000
00000011
00000011
00000000
00001100
00001100
00000000
00000101
00000000
00000101
00000000
,
20001100
00001100
00000000
00000011
00000011
30000000
20000110
00000110
00000000
00001100
00001100
30000000
00021010
00000000
00001010
00030000
,
00021100
00001100
00000000
00000110
00000110
00030000
20001100
00001100
00000000
00001010
00001010
30000000
20001001
00000000
00001001
30000000
,
20000011
00000011
00000000
00000110
00000110
30000000
00021100
00001100
00000000
00000101
00000101
00030000
00020110
00000000
00000110
00030000
,
00020110
00000110
00000000
00001100
00001100
00030000
00020110
00000110
00000000
00000011
00000011
00030000
20001001
00000000
00001001
30000000
,
20000011
00000011
00000000
00000101
00000101
30000000
20001010
00001010
00000000
00000101
00000101
30000000
20001010
00000000
00001010
30000000
,
20000110
00000110
00000000
00001100
00001100
30000000
20000011
00000011
00000000
00000110
00000110
30000000
20000101
00000000
00000101
30000000
,
00020101
00000101
00000000
00030101
00020101
00000000
00001010
00001010
00200000
00001010
00001010
00300000
00200110
00000000
00000110
00000000
,
02000011
00000011
00000000
03001100
02001100
00000000
00000011
00000011
20000000
00001100
00001100
30000000
20001001
00000000
00001001
33330000
,
20001100
00001100
00000000
00000011
00000011
30000000
20000110
00000110
00000000
00001100
00001100
30000000
00021001
00000000
00001001
00030000
,
00021100
00001100
00000000
00000110
00000110
00030000
20001100
00001100
00000000
00001010
00001010
30000000
20000110
00000000
00000110
30000000
,
20000011
00000011
00000000
00000110
00000110
30000000
00021100
00001100
00000000
00000101
00000101
00030000
00021001
00000000
00001001
00030000
,
00021010
00001010
00000000
00001100
00001100
00030000
00020110
00000110
00000000
00000011
00000011
00030000
20001100
00000000
00001100
30000000
,
20000011
00000011
00000000
00000101
00000101
30000000
20001010
00001010
00000000
00000101
00000101
30000000
20000011
00000000
00000011
30000000
,
20000110
00000110
00000000
00001100
00001100
30000000
20000011
00000011
00000000
00000110
00000110
30000000
00021001
00000000
00001001
00030000
,
00020101
00000101
00000000
00030101
20000101
00000000
00001010
30001010
20000000
00001010
00001010
30000000
20000110
00000000
00000110
30000000
,
00020011
00000011
00000000
00031100
00021100
00000000
00000011
00030011
20000000
00001100
00001100
30000000
20001101
00000000
00001101
30000000
,
22011111
00000000
00000000
00000000
00001111
33000000
22001000
00001100
00001110
00000000
00000001
33000000
00220011
00000000
00000111
00330000
,
00221111
00000000
00000000
00000000
00001111
00330000
20200001
00000011
00000111
00000000
00001000
30300000
02021100
00000000
00001110
03030000
,
02021111
00000000
00000000
00000000
00001111
03030000
02020100
00001100
00001101
00000000
00000010
03030000
20200110
00000000
00001110
30300000
,
02021111
00000000
00000000
00000000
00001111
03030000
02020010
00001010
00001011
00000000
00000100
03030000
20020110
00000000
00000111
30030000
,
20021111
00000000
00000000
00000000
00001111
30030000
20201101
00001101
00001101
00000000
00001000
30300000
20200011
00000000
00001101
30300000
,
20201111
00000000
00000000
00000000
00001111
30300000
20201011
00001011
00001011
00000000
00000001
30300000
02021100
00000000
00001011
03030000
,
02021111
00000000
00000000
03030000
22001111
00000000
00001110
33001110
22001110
00000000
00000001
33000000
00221010
00000000
00000111
00330000
,
00221111
00000000
00000000
00330000
02021111
00000000
00000111
03030111
02020111
00000000
00000000
03031111
20021111
00000000
00001111
30030000
,
22022222
00000000
00000000
00003333
00001111
33030000
22021100
00000101
00001100
00000000
00000010
33030000
22020101
00000000
00001110
33030000
,
22021111
00000000
00000000
00000000
00000011
33030000
20220011
00001001
00000011
00000000
00001000
30330000
20221010
00000000
00000111
30330000
,
20221111
00000000
00000000
00000000
00001111
30330000
22201010
00001001
00001010
00000000
00000100
33300000
22201001
00000000
00000111
33300000
,
22201111
00000000
00000000
00000000
00001111
33300000
02220101
00001001
00000101
00000000
00000010
03330000
02221001
00000000
00001110
03330000
,
02221111
00000000
00000000
00000000
00001111
03330000
22221110
00001110
00001110
00000000
00000001
33330000
22220101
00000000
00001110
33330000
,
22221111
00000000
00000000
00000000
00001111
33330000
22220111
00000111
00000111
00000000
00001000
33330000
22221010
00000000
00000111
33330000
,
22221111
00000000
00000000
33330000
00021111
00000000
00001011
00031011
00021011
00000000
00001000
00000000
00201010
00000000
00001101
00300000
,
00201111
00000000
00000000
00000000
02001111
00000000
00001111
03001111
02001111
00000000
00000000
00000101
20000101
00000000
00001010
33330000
,
20011100
00001100
00000000
00000011
01000011
30000000
00020101
00000101
00000000
00001010
01031010
00000000
10000110
00000000
00100110
00000000
,
00021001
00001001
00000000
00001100
00001100
00030000
00100110
00000110
00000000
00000110
10000110
00000000
02001001
00000000
00001001
00000000
,
03011100
00001100
01000000
00001100
10001100
00000000
00100110
00000110
02000000
00000011
00000011
00000000
03100101
00000000
00020101
00000000
,
00000110
00000110
00000000
00001001
20031001
00000000
30020110
00000110
00000000
00001100
00231100
00000000
01001010
00300000
00011010
00000000
,
10001010
00001010
00100000
00000101
01000101
00000000
10001010
00001010
02000000
00001100
00001100
00000000
03100011
00000000
20000011
00000000
,
00000110
00000110
00000000
00001001
31001001
00000000
00200110
00000110
00000000
00000011
00310011
00000000
10001100
00000000
01001100
00000000
,
00200011
00000011
00000000
00001100
00001100
00000000
00021100
00001100
00300000
00000011
20030011
00000000
01001001
00000000
31001001
00000000
,
00200101
00000101
00000000
00000011
00000011
00000000
00321100
00001100
00000000
00001100
20031100
00000000
00020101
00000000
30000101
00030000
,
02000101
00000101
00000000
00001010
13001010
00000000
00020011
00000011
00000000
00000110
10030110
00000000
01001010
00000000
00021010
00000000
,
20000101
00000101
00030000
00000011
00000011
00000000
30101100
00001100
00000000
00000110
00020110
00000000
00101001
00000000
00001001
00030000
,
10001100
00001100
01000000
00000011
00100011
00000000
02000110
00000110
00010000
00000101
00000101
03000000
01000110
00000000
00200110
00000000
,
00001100
00001100
00000000
00000110
00000110
00000000
00320110
00000110
00000000
00001001
01031001
00000000
00100011
00000000
00010011
00000000
,
10000101
00000101
01000000
00001100
00011100
00000000
00100011
00000011
02000000
00001100
00001100
00000000
03011100
00000000
20001100
00000000
,
00000110
00000110
00000000
00001001
00001001
00000000
30011100
00001100
00000000
00000101
01000101
00000000
00101001
00000000
00011001
00000000
,
02000101
00000101
00000000
00001010
00001010
00000000
03200101
00000101
00000000
00000011
00000011
00300000
01000110
00000000
00200110
00000000
,
00000011
00000011
00000000
00001100
00001100
00300000
00100110
00000110
00010000
00001010
10001010
00000000
10000101
00000000
00010101
00000000
,
11110011
00000011
00000000
00001100
00011100
00000000
00100110
00000110
00000000
00001001
00101001
00000000
01001100
00000000
00001100
00000000
,
10000011
00000011
00100000
00000101
00000101
00000000
00101001
00001001
10000000
00000011
00100011
00000000
10000110
00000000
00010110
00000000
,
11110110
00000110
00000000
00001001
10001001
00000000
00010110
00000110
00000000
00000011
00010011
00000000
10001001
00000000
00001001
00000000
,
01000110
00000110
10000000
00001100
00001100
00000000
00010011
00000011
00100000
00001001
00011001
00000000
10000101
00000000
00010101
00000000
,
11111100
00001100
00000000
00000011
00100011
00000000
01000011
00000011
00000000
00001100
01001100
00000000
00011010
00000000
00001010
00000000
,
10000110
00000110
01000000
00000101
00000101
00000000
01000011
00000011
00010000
00001100
01001100
00000000
10000011
00000000
00010011
00000000
,
11110110
00000110
00000000
00000110
01000110
00000000
10000110
00000110
00000000
00000110
10000110
00000000
00011100
00000000
00001100
00000000
,
00101001
00001001
00010000
00001001
00001001
00000000
10001001
00001001
00010000
00001001
10001001
00000000
01000110
00000000
00100110
00000000
,
11111100
00001100
00000000
00000011
01000011
00000000
10001100
00001100
00000000
00000011
00010011
00000000
01001001
00000000
00001001
00000000
,
00010110
00000110
10000000
00001001
00001001
00000000
00100110
00000110
00010000
00001001
00011001
00000000
00011001
00000000
00011001
00000000
,
11110110
00000110
00000000
00001001
00101001
00000000
00100110
00000110
00000000
00001001
01001001
00000000
10001010
00000000
00001010
00000000
,
01000110
00000110
00100000
00000011
00000011
00000000
00100011
00000011
01000000
00000110
01000110
00000000
01000101
00000000
01000101
00000000
,
11110110
00000110
00000000
00001001
00101001
00000000
00010110
00000110
00000000
00001100
10001100
00000000
00101010
00000000
00001010
00000000
,
10000110
00000110
01000000
00000011
00000011
00000000
00011100
00001100
00100000
00000101
10000101
00000000
00100011
00000000
01000011
00000000
,
11110110
00000110
00000000
00001100
00101100
00000000
00100011
00000011
00000000
00001010
01001010
00000000
00011100
00000000
00001100
00000000
,
01000110
00000110
00100000
00000101
00000101
00000000
00100001
00001000
00100010
00000100
00100001
00001000
00100010
00000100
00100001
00000000
,
11011101
11011101
11011101
00000000
00022000
00000000
00200200
00000000
00000000
00000000
02000020
00000000
20000002
00000000
00000000
33333333
,
10111011
10111011
10111011
00000000
20000002
00000000
02000020
00000000
00000000
00000000
00200200
00000000
00022000
00000000
00000000
33333333
,
01111110
01111110
01111110
00000000
00022000
00000000
00200200
00000000
00000000
00000000
02000020
00000000
20000002
00000000
00000000
33333333
,
11100111
11100111
11100111
00000000
20000002
00000000
02000020
00000000
00000000
00000000
00200200
00000000
00022000
00000000
00000000
33333333
,
10000001
00011000
10000001
00011000
22000022
00000000
00000000
33000033
00022000
00000000
00000000
00000000
11100111
00000000
00000000
00033000
,
00011000
10000001
00011000
10000001
00222200
00000000
00000000
00000000
20333302
00000000
00000000
00000000
01111110
00000000
00000000
30000003
,
20022002
00000000
00000000
00033000
00200200
00000000
00000000
00300300
02000020
00000000
00000000
03000030
00200200
00000000
00000000
00300300
,
00022000
00000000
00000000
00033000
00200200
00000000
00000000
00300300
02000020
00000000
00000000
03000030
00200200
00000000
00000000
30300303
,
11011101
11011101
11011101
00000000
00022000
00000000
00200200
00000000
00000000
00000000
02000020
00000000
20000002
00000000
00000000
33333333
,
10111011
10111011
10111011
00000000
20000002
00000000
02000020
00000000
00000000
00000000
00200200
00000000
00022000
00000000
00000000
33333333
,
01111110
01111110
01111110
00000000
00022000
00000000
00200200
00000000
00000000
00000000
02000020
00000000
20000002
00000000
00000000
33333333
,
11100111
11100111
11100111
00000000
20000002
00000000
02000020
00000000
00000000
00000000
00200200
00000000
00022000
00000000
00000000
33333333
,
10000001
00011000
10000001
00011000
22000022
00000000
00000000
33000033
00022000
00000000
00000000
00000000
11100111
00000000
00000000
00033000
,
00011000
10000001
00011000
10000001
00222200
00000000
00000000
00000000
20333302
00000000
00000000
00000000
01111110
00000000
00000000
30000003
,
20022002
00000000
00000000
00033000
00200200
00000000
00000000
00300300
02000020
00000000
00000000
03000030
00200200
00000000
00000000
00300300
,
00022000
00000000
00000000
00033000
00200200
00000000
00000000
00300300
02000020
00000000
00000000
03000030
00200200
00000000
00000000
30300303
,
10101001
00000000
00001000
00000010
01011000
00000000
01100001
00000100
00000001
00000000
01011000
00000100
10010001
00000000
00000001
00000100
,
10101000
00000000
11000010
00000001
00001000
00000000
01010100
00001000
01100001
00000000
00111000
00000100
11000010
00000001
00110100
00000010
,
11000001
00000000
00000010
00000100
01011000
00000000
10100100
00000010
00000001
00000000
10101000
00000001
10010100
00000000
00001000
00000001
,
01100100
00000000
10010001
00001000
00000010
00000000
01101000
00000001
01010010
00000100
10101000
00000001
01010010
00000100
01101000
00000100
,
01101000
00000000
00000100
00000001
10010100
00000000
11000010
00001000
00000010
00000000
00110001
00001000
11000100
00000000
00001000
00000001
,
01101000
00000000
01010001
00001000
00000001
00000000
10010010
00000100
01100001
00001000
01100010
00000100
10010001
00001000
01100010
00000100
,
10010001
00000000
00000100
00001000
01100100
00000000
01010010
00000100
00000010
00000000
10100001
00000010
00110001
00000000
00000100
00000010
,
11000100
00000000
01100001
00001000
00000100
00000000
00111000
00000001
01100100
00000000
10101101
00000000
10010001
00001100
01010001
00000000
,
01101101
00000000
00001000
00000001
01100100
00000000
10010010
00000001
00000100
00000000
00110001
00000010
00110001
00000000
00001000
00000100
,
01101000
00000000
01100010
00000100
00000010
00000000
10011000
00000100
10010001
00000000
10010001
00000010
10010100
00000000
10011000
00000100
,
10010001
00000000
00000001
00000010
10100100
00000000
10101000
00000100
00000010
00000000
01101000
00000010
01101000
00000001
00000100
00000001
,
01011000
00000000
01011000
00000001
00000010
00000000
10010010
00000100
10010010
00000000
10010001
00000010
10010100
00001000
10010100
00001000
,
10010001
00000000
00000100
00000010
00111000
00000000
00110001
00000100
00000010
00000000
01100001
00000100
01101000
00000000
00000100
00000010
,
01101000
00000000
01100100
00000010
00000100
00000000
10010010
00000100
10010001
00000010
01100100
00001000
10100001
00000010
01100100
00001000
,
10010010
00000100
00000001
00000010
01100100
00001000
01100001
00000010
00000100
00000010
10010100
00000010
01100100
00001000
00000000
00000000
,
01101101
00001101
10010000
00001011
00001011
00000000
11111111
00000000
11111111
00001111
11110000
00001111
11111111
00000000
11111111
00000000
,
00021001
00001001
00001001
00000000
00001111
00030000
00020001
00000000
00000011
00000000
00000111
00030000
00021111
00000000
00000000
00030000
,
00021001
00001001
00001001
00000000
00001111
00030000
00201000
00000000
00001100
00000000
00001110
00300000
00201111
00000000
00001001
00300000
,
00200011
00000011
00000011
00000000
00000001
00300000
00200101
00000000
00001101
00000000
00001111
00300000
00201111
00000000
00000000
00300000
,
00201100
00001100
00001100
00000000
00001000
00300000
00201001
00000000
00001011
00000000
00001111
00300000
00201111
00000000
00001001
00300000
,
02001001
00000100
00001001
00000100
00001001
03000000
02000000
00000110
00000110
00000000
00000000
03000110
02001001
00000000
00000000
03000000
,
02001001
00000010
00001001
00000010
00001001
03000000
02000000
00000110
00001001
00000000
00000000
03001001
00020101
00000000
00000000
00030101
,
00021001
00000000
00000100
00000000
00201010
00000000
00000001
00300000
00200101
00000000
00000001
00000000
02000110
00000000
00000000
03000000
,
02001010
00000000
00000110
00000000
20000101
00000000
00000011
30000000
20001001
00001001
00001001
33330000
22221001
00001001
00001001
33330000
,
20001001
00001001
00001001
00000000
00001000
30000000
20001100
00000000
00001110
00000000
00001111
30000000
20001111
00000000
00000000
30000000
,
20001001
00001001
00001001
00000000
00000001
30000000
20000011
00000000
00001111
00000000
00001111
30000000
20001111
00000000
00001001
30000000
,
02000100
00000110
00001111
00000000
00001111
03000000
02001001
00000000
00001010
00000000
00001001
03000000
02001010
00000000
00000000
03000000
,
02000010
00000110
00001111
00000000
00001000
03000000
02001100
00000000
00001110
00000000
00001111
03000000
02001111
00000000
00001001
03000000
,
00201010
00000100
00001010
00000100
00001001
00300000
00200000
00001001
00000110
00000000
00000000
00301001
00200110
00000000
00000000
00300000
,
00201001
00000010
00001001
00000010
00001001
00300000
00200000
00001100
00000011
00000000
00000000
00300011
00201100
00000000
00000000
00300110
,
00020110
00000000
00000001
00030000
00200110
00000000
00001010
00300000
02000101
00000000
00001001
03000000
20000011
00000000
00000010
30000000
,
20001001
00000000
00000101
30001000
02000011
00000100
00000011
03001000
00200101
00000010
00000101
00301000
00020011
00000100
00001010
00030001
,
10011100
00000010
00001100
00000000
10000002
00000003
02000020
00000000
00000000
00000030
03100200
00000300
00012000
00000000
00020000
00003000
,
01030001
00000100
02000001
00000000
03102000
00003000
00200200
00000000
00000000
00000300
00310020
00000030
20000002
00000000
31000000
00000003
,
02001000
00000100
03011000
00000000
01000002
00000003
00200200
00000000
00020000
00000300
00300020
00000030
00132000
00000000
20000000
00003000
,
00000001
00000010
32000001
00000000
03202000
00003000
00320020
00000000
02030000
00000030
23000200
00000300
30020002
00000000
00200000
00000003
,
20331001
00000010
32001001
00000010
03022002
00000000
02030000
00003003
23002002
00000000
00000000
00003003
30012002
00000000
00010000
00003003
,
00001001
00000100
00201001
00000100
00312002
00000000
20000000
00003003
00002002
00000000
31000000
00003003
00012002
00000000
20000000
00003003
,
00022002
00000000
30000000
00033003
00020200
00000000
02030000
00000300
00000002
00000000
23000000
00000003
30200200
00000000
00320000
00000300
,
00002000
00030000
20000000
00003000
32000020
00000000
03020000
00000030
00000002
00000000
20030000
00000003
30020020
00000000
20030000
00000030
,
30101100
00001100
00000000
00000110
10000110
00000000
01001001
00001001
00000000
00000110
00100110
00000000
00011001
00000000
00011001
00000000
,
00000110
00000110
00000000
00001001
00001001
00000000
10000011
00000011
00000000
00001100
00011100
00000000
01000101
00000000
00000101
00000000
,
00100110
00000110
10000000
00001001
01001001
00000000
00000110
00000110
00100000
00000011
00000011
00000000
00011010
00000000
01001010
00000000
,
00000110
00000110
00000000
00001001
00001001
00000000
10000101
00000101
00000000
00001010
01001010
00000000
01001100
00000000
00101100
00000000
,
00010011
00000011
10000000
00001100
01001100
00000000
00010110
00000110
10000000
00001001
00001001
00000000
10000011
00000000
01000011
00000000
,
00000101
00000101
00000000
00000110
00000110
00000000
00101010
00001010
00000000
00000101
00010101
00000000
10000110
00000000
01000110
00000000
,
00101010
00001010
00000000
00000101
00000101
00000000
01000011
00000011
00000000
00001100
00101100
00000000
10001001
00000000
00011001
00000000
,
00000110
00000110
00000000
00000011
00000011
00000000
01001100
00001100
00000000
00001100
00001100
00000000
11111111
00000000
11111111
00000000
,
22222222
00000000
00000000
00000000
,
33333333
00000000
00000000
00000000
;

//---------------dance-double - Destiny----------------
#NOTES:
     dance-double:
     Destiny:
     Beginner:
     6:
     0.907,1.000,1.000,1.000,0.000,561.000,283.000,314.000,0.000,62.000:
00001000
00000000
00000100
00000000
,
00000100
00000000
00001000
00000000
,
00000010
00000000
00000100
00000000
,
00000010
00000000
00000001
00000000
,
00000001
00000000
00000100
00000000
,
00000100
00000000
00000010
00000000
,
00000100
00000000
00001000
00000000
,
00000010
00000000
00000010
00000000
,
00021000
00000000
00000000
00000000
00000001
00030000
00020000
00000000
00000100
00000000
00000000
00030000
00020001
00000000
00000000
00030000
,
00020100
00000000
00000000
00000000
00000100
00030000
00020000
00000000
00001000
00000000
00000000
00030000
00020100
00000000
00000000
00030000
,
00020010
00000000
00000000
00000000
00000010
00030000
00020000
00000000
00000100
00000000
00000000
00030000
00021000
00000000
00000000
00030000
,
00020010
00000000
00000000
00000000
00000100
00030000
00020000
00000000
00000100
00000000
00000000
00030000
00021000
00000000
00000000
00030000
,
00020001
00000000
00000000
00000000
00000001
00030000
00020000
00000000
00000100
00000000
00000000
00030000
00021000
00000000
00000000
00030000
,
00020100
00000000
00000000
00000000
00000100
00030000
00020000
00000000
00000010
00000000
00000000
00030000
00021000
00000000
00000000
00030000
,
00020100
00000000
00000000
00030000
00020100
00000000
00000000
00030000
00021000
00000000
00000000
00030000
00020100
00000000
00000000
00030000
,
00020010
00000000
00000000
00030000
00020100
00000000
00000000
00030000
00020010
00000000
00000000
00030000
00020100
00000000
00000000
00030000
,
00021000
00000000
00000000
00000000
00000001
00030000
00020000
00000000
00001000
00000000
00000000
00030000
00020001
00000000
00000000
00030000
,
00020100
00000000
00000000
00000000
00000100
00030000
00020000
00000000
00000001
00000000
00000000
00030000
00020100
00000000
00000000
00030000
,
00020010
00000000
00000000
00000000
00000010
00030000
00020000
00000000
00000001
00000000
00000000
00030000
00021000
00000000
00000000
00030000
,
00020010
00000000
00000000
00000000
00000100
00030000
00020000
00000000
00000010
00000000
00000000
00030000
00021000
00000000
00000000
00030000
,
00020001
00000000
00000000
00000000
00000001
00030000
00020000
00000000
00000001
00000000
00000000
00030000
00021000
00000000
00000000
00030000
,
00020100
00000000
00000000
00000000
00000100
00030000
00020000
00000000
00001000
00000000
00000000
00030000
00021000
00000000
00000000
00030000
,
00020100
00000000
00000000
00030000
00020100
00000000
00000000
00030000
00020010
00000000
00000000
00030000
00020100
00000000
00000000
00030000
,
00020010
00000000
00000000
00030000
00020100
00000000
00000000
00030000
00020001
00000000
00000000
00030000
00020100
00000000
00000000
00030000
,
00021001
00000000
00000000
00000000
00000000
00030000
00020000
00000000
00001000
00000000
00000000
00030000
00020101
00000000
00000000
00030000
,
00021100
00000000
00000000
00000000
00000000
00030000
00020000
00000000
00000100
00000000
00000000
00030000
00021001
00000000
00000000
00030000
,
00020011
00000000
00000000
00000000
00000000
00030000
00020000
00000000
00000001
00000000
00000000
00030000
00020101
00000000
00000000
00030000
,
00021001
00000000
00000000
00000000
00000000
00030000
00020000
00000000
00000100
00000000
00000000
00030000
00020110
00000000
00000000
00030000
,
00021001
00000000
00000000
00000000
00000000
00030000
00020000
00000000
00000001
00000000
00000000
00030000
00020101
00000000
00000000
00030000
,
00021001
00000000
00000000
00000000
00000000
00030000
00020000
00000000
00001000
00000000
00000000
00030000
00021100
00000000
00000000
00030000
,
00021001
00000000
00000000
00030000
00020000
00000000
00000000
00030000
00020010
00000000
00000000
00030000
00021010
00000000
00000000
00030000
,
00021100
00000000
00000000
00030000
00020000
00000000
00000000
00030000
00020001
00000000
00000000
00030000
00020100
00000000
00000000
00030000
,
00020202
00000000
00000000
00000303
00000000
00030000
00020000
00000000
00001000
00000000
00000000
00030000
00020101
00000000
00000000
00030000
,
00021100
00000000
00000000
00000000
00000000
00030000
00020000
00000000
00000100
00000000
00000000
00030000
00021100
00000000
00000000
00030000
,
00021001
00000000
00000000
00000000
00000000
00030000
00020000
00000000
00001000
00000000
00000000
00030000
00021001
00000000
00000000
00030000
,
00021100
00000000
00000000
00000000
00000000
00030000
00020000
00000000
00000001
00000000
00000000
00030000
00020101
00000000
00000000
00030000
,
00021001
00000000
00000000
00000000
00000000
00030000
00020000
00000000
00001000
00000000
00000000
00030000
00020101
00000000
00000000
00030000
,
00020110
00000000
00000000
00000000
00000000
00030000
00020000
00000000
00000100
00000000
00000000
00030000
00020110
00000000
00000000
00030000
,
00021010
00000000
00000000
00030000
00020000
00000000
00000000
00030000
00020001
00000000
00000000
00030000
00020110
00000000
00000000
00030000
,
00021001
00000000
00000000
00030000
00020000
00000000
00000000
00030000
00021000
00000000
00000000
00030000
00020100
00000000
00000000
00030000
,
00021000
00000000
00000000
00000000
00000001
00030000
00020000
00000000
00000001
00000000
00000000
00030000
00020100
00000000
00000000
00030000
,
00021000
00000000
00000000
00000000
00000100
00030000
00020000
00000000
00001000
00000000
00000000
00030000
00020001
00000000
00000000
00030000
,
00020100
00000000
00000000
00030000
00021000
00000000
00000000
00030000
00020100
00000000
00000000
00000000
00000001
00030000
00020000
00000000
,
00000100
00000000
00000000
00000000
00001000
00030000
00020000
00000000
00000001
00000000
00000000
00030000
00020100
00000000
00000000
00030000
,
00021000
00000000
00000000
00030000
00020100
00000000
00000000
00030000
00020100
00000000
00000000
00000000
00000010
00030000
00020000
00000000
,
00000010
00000000
00000000
00000000
00001000
00030000
00020000
00000000
00000001
00000000
00000000
00030000
00020100
00000000
00000000
00030000
,
00020001
00000000
00000000
00000000
00001000
00030000
00020000
00000000
00000100
00000000
00000000
00030000
00021000
00000000
00000000
00030000
,
00020100
00000000
00000000
00000000
00000001
00000000
00000000
00030000
00020001
00000000
00000000
00030000
00020010
00000000
00000000
00030000
,
00020001
00000000
00000000
00000000
00001000
00030000
00020000
00000000
00001000
00000000
00000000
00030000
00020010
00000000
00000000
00030000
,
00020100
00000000
00000000
00000000
00000001
00030000
00020000
00000000
00000010
00000000
00000000
00030000
00020001
00000000
00000000
00030000
,
00020100
00000000
00000000
00030000
00020001
00000000
00000000
00030000
00020100
00000000
00000000
00000000
00000010
00030000
00020000
00000000
,
00001000
00000000
00000000
00000000
00000100
00030000
00020000
00000000
00000100
00000000
00000000
00030000
00020010
00000000
00000000
00030000
,
00020100
00000000
00000000
00030000
00021000
00000000
00000000
00030000
00020100
00000000
00000000
00000000
00001000
00030000
00020000
00000000
,
00000010
00000000
00000000
00000000
00001000
00030000
00020000
00000000
00000010
00000000
00000000
00030000
00020010
00000000
00000000
00030000
,
00020100
00000000
00000000
00000000
00000010
00030000
00020000
00000000
00001000
00000000
00000000
00030000
00020100
00000000
00000000
00030000
,
00020010
00000000
00000000
00000000
00001000
00000000
00000000
00030000
00021000
00000000
00000000
00030000
00020001
00000000
00000000
00030000
,
00011001
00011000
00010001
00010100
,
00010010
00010001
00011000
00010100
,
00010110
00011000
00010010
00011000
,
00010100
00010100
00011000
00010001
,
00011001
00010001
00011000
00010010
,
00010100
00010100
00010001
00010010
,
00011010
00010100
00010010
00010001
,
00011000
00010001
00010001
00010100
,
00011100
00010010
00011000
00010100
,
00010010
00011000
00010100
00010001
,
00010011
00010001
00010100
00011000
,
00010010
00010010
00010001
00011000
,
00010101
00010001
00010100
00010001
,
00010010
00010010
00010100
00010001
,
00010110
00010100
00010001
00010001
,
00010100
00010100
00010010
00010010
,
00010001
00000000
00000000
00000000
00020000
00000000
00000000
00030000
00020000
00000000
00000000
00030000
20020000
00000000
00000000
30030000
,
00001000
00000000
00000000
00000000
20000000
00000000
00000000
30000000
20000000
00000000
00000000
30000000
20020000
00000000
00000000
30030000
,
00000010
00000000
00000000
00000000
00020000
00000000
00000000
00030000
00020000
00000000
00000000
00030000
20020000
00000000
00000000
30030000
,
00000100
00000000
00000000
00000000
20000000
00000000
00000000
30000000
20000000
00000000
00000000
30000000
20020000
00000000
00000000
30030000
,
00000001
00000000
00000000
00000000
00022000
00000000
00000000
00033000
00022000
00000000
00000000
00000000
00000000
00000000
00000000
00033000
,
00001000
00000000
00000000
00000000
00022000
00000000
00000000
00033000
00022000
00000000
00000000
00000000
00000000
00000000
00000000
00033000
,
00021000
00000100
00000001
00000100
,
00001000
00000000
00000000
00000000
00000100
00000000
00000000
00000000
00000001
00000000
00000000
00000000
00000100
00000000
00000000
00030000
,
00000001
00000000
00000000
00000000
00020000
00000000
00000000
00030000
00020000
00000000
00000000
00030000
20020000
00000000
00000000
30030000
,
00001000
00000000
00000000
00000000
20000000
00000000
00000000
30000000
20000000
00000000
00000000
30000000
20020000
00000000
00000000
30030000
,
00000010
00000000
00000000
00000000
00020000
00000000
00000000
00030000
00020000
00000000
00000000
00030000
20020000
00000000
00000000
30030000
,
00000100
00000000
00000000
00000000
20000000
00000000
00000000
30000000
20000000
00000000
00000000
30000000
20020000
00000000
00000000
30030000
,
00000001
00000000
00000000
00000000
00022000
00000000
00000000
00033000
00022000
00000000
00000000
00000000
00000000
00000000
00000000
00033000
,
00001000
00000000
00000000
00000000
00022000
00000000
00000000
00033000
00022000
00000000
00000000
00000000
00000000
00000000
00000000
00033000
,
00020001
00000010
00001000
00000010
,
00000001
00000000
00000000
00000000
00000010
00000000
00000000
00000000
00001000
00000000
00000000
00000000
00000010
00000000
00000000
00030000
,
00021000
00000000
00000000
00000000
00000100
00030000
00020000
00000000
00000010
00000000
00000000
00030000
00020001
00000000
00000000
00030000
,
00020010
00000000
00000000
00000000
00001000
00030000
00020000
00000000
00000100
00000000
00000000
00030000
00021000
00000000
00000000
00030000
,
00020100
00000000
00000000
00000000
00000001
00030000
00020000
00000000
00000100
00000000
00000000
00030000
00021000
00000000
00000000
00030000
,
00020010
00000000
00000000
00000000
00001000
00030000
00020000
00000000
00000100
00000000
00000000
00030000
00020100
00000000
00000000
00030000
,
00020100
00000000
00000000
00000000
00000001
00030000
00020000
00000000
00001000
00000000
00000000
00030000
00021000
00000000
00000000
00030000
,
00020010
00000000
00000000
00000000
00000001
00030000
00020000
00000000
00000010
00000000
00000000
00030000
00021000
00000000
00000000
00030000
,
00021000
00000000
00000000
00030000
00020010
00000000
00000000
00030000
00021000
00000000
00000000
00030000
00020001
00000000
00000000
00030000
,
00020100
00000000
00000000
00030000
00020010
00000000
00000000
00030000
00020100
00000000
00000000
00030000
00021000
00000000
00000000
00030000
,
00020100
00000000
00000000
00000000
00000100
00030000
00020000
00000000
00001000
00000000
00000000
00030000
00020010
00000000
00000000
00030000
,
00020100
00000000
00000000
00000000
00000010
00030000
00020000
00000000
00000001
00000000
00000000
00030000
00020001
00000000
00000000
00030000
,
00020001
00000000
00000000
00000000
00001000
00030000
00020000
00000000
00001000
00000000
00000000
00030000
00020010
00000000
00000000
00030000
,
00020100
00000000
00000000
00000000
00000100
00030000
00020000
00000000
00001000
00000000
00000000
00030000
00021000
00000000
00000000
00030000
,
00021000
00000000
00000000
00000000
00000001
00030000
00020000
00000000
00000001
00000000
00000000
00030000
00020100
00000000
00000000
00030000
,
00020010
00000000
00000000
00000000
00000010
00030000
00020000
00000000
00001000
00000000
00000000
00030000
00020010
00000000
00000000
00030000
,
00021000
00000000
00000000
00030000
00020010
00000000
00000000
00030000
00020001
00000000
00000000
00030000
00020010
00000000
00000000
00030000
,
00020100
00000000
00000000
00030000
00021000
00000000
00000000
00030000
00020001
00000000
00000000
00030000
00020001
00000000
00000000
00030000
,
00020001
00000000
00000000
00000000
00001000
00030000
00020000
00000000
00000100
00000000
00000000
00030000
00020010
00000000
00000000
00030000
,
00020001
00000000
00000000
00000000
00001000
00030000
00020000
00000000
00000100
00000000
00000000
00030000
00021000
00000000
00000000
00030000
,
00020001
00000000
00000000
00000000
00000001
00030000
00020000
00000000
00001000
00000000
00000000
00030000
00020100
00000000
00000000
00030000
,
00020001
00000000
00000000
00000000
00000001
00030000
00020000
00000000
00000100
00000000
00000000
00030000
00021000
00000000
00000000
00030000
,
00021000
00000000
00000000
00000000
00001000
00030000
00020000
00000000
00000110
00000000
00000000
00030000
00021001
00000000
00000000
00030000
,
00021000
00000000
00000000
00000000
00001000
00030000
00020000
00000000
00001001
00000000
00000000
00030000
00020101
00000000
00000000
00030000
,
00022002
00000000
00000000
00030000
00020000
00000000
00000000
00030000
00020000
00000000
00000000
00030000
00020000
00000000
00000000
00030000
,
00020000
00000000
00000000
00030000
00020000
00000000
00000000
00030000
00020000
00000000
00000000
00030000
00020000
00000000
00000000
00033003
,
00021000
00000000
00000000
00000000
00000010
00030000
00020000
00000000
00000001
00000000
00000000
00030000
00021000
00000000
00000000
00030000
,
00020001
00000000
00000000
00000000
00001000
00030000
00020000
00000000
00000100
00000000
00000000
00030000
00020001
00000000
00000000
00030000
,
00020010
00000000
00000000
00000000
00001000
00030000
00020000
00000000
00001000
00000000
00000000
00030000
00020001
00000000
00000000
00030000
,
00021000
00000000
00000000
00000000
00000001
00030000
00020000
00000000
00000010
00000000
00000000
00030000
00021000
00000000
00000000
00030000
,
00021000
00000000
00000000
00000000
00001000
00030000
00020000
00000000
00000110
00000000
00000000
00030000
00021001
00000000
00000000
00030000
,
00020100
00000000
00000000
00000000
00000100
00030000
00020000
00000000
00000011
00000000
00000000
00030000
00021100
00000000
00000000
00030000
,
00022002
00000000
00000000
00030000
00020000
00000000
00000000
00030000
00020000
00000000
00000000
00030000
00020000
00000000
00000000
00030000
,
00020000
00000000
00000000
00030000
00020000
00000000
00000000
00030000
00020000
00000000
00000000
00030000
00020000
00000000
00000000
00033003
,
00001001
00001000
00000100
00000001
,
00000100
00000010
00000001
00001000
,
00000100
00000100
00000001
00000010
,
00001000
00000010
00000100
00000001
,
00001000
00000001
00001000
00000001
,
00000001
00000001
00001000
00000001
,
00000001
00000001
00000100
00000010
,
00000001
00000100
00000001
00000001
,
00100010
00000000
01000100
00000000
,
00100010
00000000
10001000
00000000
,
00100010
00000000
00100010
00000000
,
01000100
00000000
10001000
00000000
,
00010001
00000000
10001000
00000000
,
00100010
00000000
01000100
00000000
,
00100010
00000000
00000000
00010001
00000000
00000000
10001000
01000100
,
00000000
00000000
00000000
01000100
00000000
00000000
10000001
00000000
,
00022000
00000000
00000000
00000000
,
00033000
00000000
00000000
00000000
;
