#TITLE:Deku Palace;
#SUBTITLE:;
#ARTIST:Zelda MM;
#TITLETRANSLIT:;
#SUBTITLETRANSLIT:;
#ARTISTTRANSLIT:;
#CREDIT:;
#BANNER:bag.png;
#BACKGROUND:bag-bg.png;
#LYRICSPATH:;
#CDTITLE:Dance Dance Revolution Extreme.png;
#MUSIC:145-deku_nut's_palace.mp3;
#OFFSET:2.133;
#SAMPLESTART:4.300;
#SAMPLELENGTH:12.000;
#SELECTABLE:YES;
#BPMS:0.000=112.040;
#STOPS:;
#BGCHANGES:;
// cache tags:
#FIRSTBEAT:12.000;
#LASTBEAT:252.000;
#SONGFILENAME:Songs/newbie/DP MM/bag.sm;
#HASMUSIC:1;
#HASBANNER:0;
#MUSICLENGTH:140.826;
// end cache tags

//---------------dance-single - ----------------
#NOTES:
     dance-single:
     :
     Hard:
     8:
     0.552,0.514,0.220,0.327,0.362,467.000,31.000,46.000,0.000,0.000:
0000
0000
0000
0000
,
0000
0000
0000
0000
,
0000
0000
0000
0000
,
1000
0000
0100
0010
0100
0000
0010
0000
0010
0100
0010
0100
0010
0000
0100
0000
,
0010
0000
0010
1000
0010
0000
0100
0000
0001
0100
0010
0100
1001
0000
0000
0000
,
0010
0000
1000
0100
0010
0000
0010
0000
0010
0100
0010
0100
0010
0000
0100
0000
,
0010
0000
0010
1000
0010
0000
0100
0000
0001
0100
0010
0100
0010
0000
0000
0000
,
0010
0000
1000
0001
0010
0000
0010
0000
0010
0100
0010
0100
0010
0000
0100
0000
,
0010
0000
0010
1000
0010
0000
0100
0000
0001
0100
0010
0000
1010
0000
0000
0000
,
0010
0000
1000
0010
0100
0000
0001
0000
0010
0100
0010
1000
0001
0000
0100
0000
,
0010
0000
0010
1000
0010
0000
0100
0000
0001
0100
0010
0000
1001
0000
0000
0000
,
0010
0000
1000
0000
0010
0100
0001
0100
0010
0000
0011
0000
1100
0000
0010
0000
,
0001
0000
1000
0000
0010
1000
0010
0100
0020
0000
0000
0000
0000
0000
0030
0000
,
0010
0000
1000
0000
0010
0100
0001
0000
0110
0000
1000
0000
0010
0000
0100
0000
,
1001
0000
0010
0000
0010
1000
0100
0010
0200
0000
0000
0000
0300
0000
0000
0000
,
1000
0000
0100
0000
0010
1000
0010
0100
0001
0000
0100
0000
0010
0000
1000
0000
,
0010
0000
1000
0000
0010
0100
0001
0100
0020
0000
0000
0000
0000
0000
0000
0030
,
1000
0000
0100
0000
0010
0100
0001
0100
0010
0000
0100
0000
0010
0000
1000
0000
,
0010
0000
0010
0100
0010
0000
1000
0010
0100
0010
0100
0000
0110
0000
0000
0000
,
0010
0000
0010
1000
0010
0000
0100
0000
0010
0000
0010
0100
0010
0000
0010
0000
,
0010
0000
0010
1000
0010
0000
0100
0000
0001
0100
0010
0000
1010
0000
0000
0000
,
0010
0000
1000
0010
0100
0000
0001
0000
0010
0100
0010
0100
0010
0000
1000
0000
,
0010
0000
0010
1000
0010
0000
0001
0000
0010
0100
0010
0000
0100
0000
0000
0000
,
2002
0000
0000
0000
0000
3003
0000
0000
0220
0000
0000
0000
0000
0330
0000
0000
,
1020
0000
0000
0000
0130
0000
0001
0000
0200
0000
0000
0000
0000
0300
0000
0000
,
0022
0000
0000
0000
0000
0033
0000
0000
0220
0000
0000
0000
0000
0330
0000
0000
,
2200
0000
0300
0000
0010
0000
0010
0000
0020
0000
3000
0000
0000
0030
0000
0000
,
0200
0000
0320
0000
,
2030
0000
3001
0100
0020
0000
0000
0030
,
0200
0000
0000
0000
0000
0000
0300
0000
0020
0000
0000
0000
0000
0000
0000
0030
,
2000
0000
0000
0000
0001
0000
0010
3000
0010
0000
0000
0000
0000
0000
0000
0000
,
0010
0000
0010
0100
0010
0000
0100
0000
0010
0000
0010
0100
1000
0000
0000
0000
,
0010
0000
1000
0010
1000
0000
0010
0000
0100
0000
0010
0100
0010
0000
0000
0000
,
0100
0000
0001
0010
1000
0000
1000
0000
0100
0010
1000
0010
0100
0000
0100
0000
,
0001
0000
0100
0010
0001
0000
1000
0000
0010
0100
1000
0100
1001
0000
0000
0000
,
0001
0000
1000
0100
0001
0000
0100
0000
0001
0010
0100
0010
0001
0000
0001
0000
,
0100
0000
0010
0100
1000
0000
0010
0000
0001
0010
0100
1000
0100
0000
0000
0000
,
1000
0000
0001
0010
0001
0000
0010
0000
0100
0001
1000
0100
0001
0000
0001
0000
,
0100
0000
0010
1000
0001
0000
0100
0000
0001
1000
0010
0000
0110
0000
0000
0000
,
0100
0000
0100
1000
0010
0000
0100
0000
0010
0001
0100
0010
0001
0000
0100
0000
,
0010
0000
0100
1000
0010
0000
0100
0000
0001
0100
0010
0000
0011
0000
0000
0000
,
0100
0000
0010
0000
0001
0010
0100
1000
0100
0000
1100
0000
0101
0000
1000
0000
,
0010
0000
0100
0000
0100
0001
0100
0010
0002
0000
0000
0000
0000
0000
0003
0000
,
1000
0000
0100
0000
1000
0010
0001
0000
1100
0000
0100
0000
0001
0000
1000
0000
,
1001
0000
1000
0000
0100
1000
0001
0100
2000
0000
0000
0000
3000
0000
0000
0000
,
0001
0000
0010
0000
1000
0001
0100
0010
0001
0000
0100
0000
0010
0000
0010
0000
,
0010
0000
0010
0000
1000
0001
0010
1000
0002
0000
0000
0000
0000
0000
0000
0003
,
0010
0000
0001
0000
0010
0001
0010
0001
1000
0000
0001
0000
0010
0000
0010
0000
,
0010
0000
0100
0001
1000
0000
0100
0010
1000
0010
1000
0000
0101
0000
0000
0000
,
1000
0000
0010
0100
1000
0000
0100
0000
0010
0000
0001
0100
0010
0000
0001
0000
,
0100
0000
0010
0100
0001
0000
0010
0000
0010
0001
0010
0000
0011
0000
0000
0000
,
0100
0000
1000
0010
0001
0000
0100
0000
0010
0100
1000
0001
0010
0000
0010
0000
,
1000
0000
0010
0100
0010
0000
0001
0000
1000
0001
0100
0000
0001
0000
0000
0000
,
0220
0000
0000
0000
0000
0330
0000
0000
2002
0000
0000
0000
0000
3003
0000
0000
,
0102
0000
0000
0000
0103
0000
0100
0000
2000
0000
0000
0000
0000
3000
0000
0000
,
0202
0000
0000
0000
0000
0303
0000
0000
2002
0000
0000
0000
0000
3003
0000
0000
,
2020
0000
3000
0000
1000
0000
0100
0000
0002
0000
0030
0000
0000
0003
0000
0000
,
2000
0000
3002
0000
,
0023
0000
1030
0001
0002
0000
0000
0003
,
2000
0000
0000
0000
0000
0000
3000
0000
0002
0000
0000
0000
0000
0000
0000
0003
,
0020
0000
0000
0000
1000
0000
0100
0030
1000
0000
0000
0000
0000
0000
0000
0000
,
0100
0000
0010
0001
0100
0000
0010
0000
1000
0000
0100
0010
1000
0000
0000
0000
,
0001
0000
0010
0100
1000
0000
0001
0000
0001
0000
0010
1000
0001
0000
0000
0000
,
1001
0000
0000
0000
;

//---------------dance-single - ----------------
#NOTES:
     dance-single:
     :
     Medium:
     5:
     0.425,0.379,0.291,0.362,0.000,327.000,41.000,51.000,0.000,0.000:
0000
0000
0000
0000
,
0000
0000
0000
0000
,
0000
0000
0000
0000
,
1000
0100
0010
0100
0001
0100
0010
0100
,
0010
1000
0010
0100
0001
0100
1010
0000
,
0010
1000
0010
0100
0001
0100
0010
1000
,
1000
0100
0010
0001
0010
0100
1001
0000
,
0010
1000
0010
0100
0001
0100
0010
1000
,
0010
1000
0100
0010
0001
0010
1001
0000
,
0010
1000
0010
0100
0001
0100
0010
1000
,
0100
0010
0001
0010
0100
0010
1000
0000
,
1001
0000
1010
0000
0001
0001
0001
0000
,
1100
0000
0011
0000
1000
1000
1000
0000
,
0110
0000
1001
0000
0010
0010
0010
0000
,
0110
0000
1001
0000
0100
0100
0100
0000
,
1100
0000
0011
0000
0010
0100
0010
0000
,
0101
0000
1010
0000
1000
0100
0010
0000
,
0101
0000
0011
0000
0001
0010
0100
0000
,
1000
0001
1000
0010
0200
0000
0300
0000
,
2100
0000
0100
3000
0100
0100
0100
0010
,
1000
0001
0100
0010
1001
0001
1001
0000
,
0010
0000
1010
0000
0001
1000
0100
0010
,
1000
0010
0100
0010
1000
0001
0100
0000
,
0002
0000
0200
0300
,
0200
0300
0100
0100
0200
0000
0303
0000
,
2200
0300
0200
0300
,
0200
0300
0100
0100
0200
0000
3300
0000
,
0220
0000
0000
0300
0200
0000
0000
0300
,
0200
0000
0300
0100
0200
0000
0000
0330
,
0220
0000
0000
0030
0020
0000
0000
0030
,
0020
0000
0030
0010
0020
0000
0300
0000
,
1030
0001
0100
0010
1000
0001
0100
0000
,
0010
1000
0010
0100
1001
0000
0000
0000
,
0010
1000
0010
0100
0001
0100
0010
1000
,
0100
0010
0001
0010
1000
0010
1001
0000
,
0010
1000
0100
0010
0001
0010
0100
0010
,
1000
0100
0010
0001
1000
0010
1100
0000
,
0010
1000
0001
0100
0010
0010
0010
0100
,
0001
1000
0010
0100
1000
0100
1100
0000
,
0010
1000
0100
0010
0001
0010
0100
1000
,
0100
0010
1000
0010
0001
0010
0011
0000
,
0010
0100
0001
1000
0020
0100
0130
0000
,
1000
0100
0010
0001
0200
0000
0000
0000
,
0310
1000
0010
0100
0001
1000
0010
0100
,
0010
1000
0010
0100
0001
0010
0001
0000
,
0001
0100
0010
1000
0001
0100
0010
1000
,
0001
0100
0010
1000
0002
0000
0003
0000
,
1000
0100
0010
0001
0100
0010
1000
0001
,
0100
0010
1000
0010
2000
0000
0000
3000
,
0102
0000
2003
0000
0010
3010
0200
0300
,
0010
0000
2001
0000
0010
0010
3010
0000
,
0201
0000
0320
0000
1030
1000
1000
0000
,
2100
0000
3020
0000
0130
0001
1000
0000
,
0102
0000
0200
0300
,
0100
0000
0100
0100
0200
0000
0000
0303
,
2010
0000
0000
0000
0020
0000
0000
0030
,
0010
0000
0010
0010
0020
0000
0030
3000
,
0120
1030
0201
0310
,
1001
0000
0010
0100
0020
0000
0030
0000
,
2200
0000
0000
3300
0202
0000
0000
0303
,
0220
0330
0001
1000
0020
0000
0030
0000
,
2000
0100
0010
3001
,
0002
0100
0010
1003
;

//---------------dance-single - ----------------
#NOTES:
     dance-single:
     :
     Easy:
     3:
     0.299,0.291,0.156,0.412,0.000,215.000,22.000,58.000,0.000,0.000:
0000
0000
0000
0000
,
0000
0000
0000
0000
,
0000
0000
0000
0000
,
1000
0100
0010
0001
,
0010
0100
1000
1001
,
0010
1000
0100
0010
,
0001
0100
0010
1010
,
0100
0010
1000
0001
,
0100
0001
0010
1100
,
0010
0100
0001
0100
,
0010
1000
0010
0101
,
2000
0001
0001
3001
,
0002
1000
2000
3003
,
0020
0100
0100
0130
,
0200
0010
0010
0310
,
2000
0100
0100
3100
,
0002
0100
0100
0103
,
0020
0001
0001
0031
,
0020
1000
1000
1030
,
1000
0100
0010
0001
,
0100
0010
1000
1001
,
0010
0100
0010
1000
,
0100
0001
0010
1001
,
2000
0000
3002
0003
,
0200
0320
2030
3000
,
0002
0000
2003
3000
,
0020
0230
0302
0003
,
2000
3000
0002
0003
,
2000
3200
0320
0030
,
0002
0003
0200
0300
,
2000
3020
0230
0300
,
0001
1000
1001
1001
,
0010
0100
1100
0101
,
0011
0010
0100
1000
,
1000
1000
0001
0110
,
0010
0010
0010
0100
,
0100
0001
1000
1010
,
0001
0100
1000
0001
,
0100
0100
0001
0110
,
0010
1000
0100
0001
,
1000
0010
0100
0011
,
0002
0010
0010
0103
,
0020
0001
0002
0033
,
0200
0001
1000
0301
,
2000
0001
0001
3001
,
0002
0100
0010
0013
,
0020
0100
1000
1030
,
0200
0001
1000
1300
,
0200
0001
0001
0301
,
0001
1000
0010
0100
,
0100
0001
1000
0011
,
0010
0100
0010
0010
,
0100
0001
1000
0011
,
0002
0000
0023
0030
,
2000
3200
0302
0003
,
0020
0000
0032
0003
,
0200
2300
3020
0030
,
0002
0003
0020
0030
,
0002
2003
3200
0300
,
0020
0030
2000
3000
,
0002
0203
2300
3000
,
0001
0100
0101
1010
,
0001
1000
0101
1100
,
0011
0000
0000
0000
;
