#TITLE:Master Maid;
#SUBTITLE:;
#ARTIST:DJ Sharpnel;
#TITLETRANSLIT:;
#SUBTITLETRANSLIT:;
#ARTISTTRANSLIT:;
#CREDIT:;
#BANNER:master maid bn.png;
#BACKGROUND:master maid bg.png;
#LYRICSPATH:;
#CDTITLE:;
#MUSIC:Master Maid.ogg;
#OFFSET:-1.254;
#SAMPLESTART:88.648;
#SAMPLELENGTH:19.691;
#SELECTABLE:YES;
#DISPLAYBPM:195.000;
#BPMS:0.000=195.000;
#STOPS:;
#BGCHANGES:;
// cache tags:
#FIRSTBEAT:28.000;
#LASTBEAT:959.500;
#SONGFILENAME:Songs/SHARPNELSTREAMZ v2/Master Maid/Master Maid.sm;
#HASMUSIC:1;
#HASBANNER:1;
#MUSICLENGTH:297.795;
// end cache tags

//---------------dance-single - 16 (TYLR)----------------
#NOTES:
     dance-single:
     16 (TYLR):
     Challenge:
     16:
     1.000,1.000,0.020,0.017,1.000,3027.000,6.000,5.000,85.000,0.000:
0000
0000
0000
0000
,
0000
0000
0000
0000
,
0000
0000
0000
0000
,
0000
0000
0000
0000
,
0000
0000
0000
0000
,
0000
0000
0000
0000
,
0000
0000
0000
0000
,
1000
0000
1000
0000
0010
0000
0100
0001
0100
0001
1000
0001
0010
0000
0000
0000
,
0001
0000
0001
0000
0010
0000
0100
1000
0100
1000
0001
0000
0000
0000
0010
0000
,
0001
0000
0001
0000
0100
0000
0010
1000
0010
1000
0001
1000
0100
0000
0000
0000
,
1000
0000
1000
0000
0100
0000
0010
0001
0010
0001
1000
0000
0000
0000
0010
0000
,
1000
0000
1000
0000
0100
0000
0010
0001
0010
0001
1000
0001
0100
0000
0000
0000
,
0001
0000
0001
0000
0100
0000
0010
1000
0010
1000
0001
0000
0000
0000
0100
0000
,
0001
0000
0001
0000
0010
0000
0100
1000
0100
1000
0001
0000
0100
0000
0010
1000
,
0010
1000
0001
0000
0010
0000
0100
1000
0100
1000
0001
0000
0100
0000
0000
0000
,
0110
0010
1000
0010
0100
0001
0010
0100
,
1000
0100
0010
0001
0100
0001
1000
0010
,
0100
0001
0010
0100
1000
0100
0010
0001
,
0100
0010
1000
0001
1000
0100
0010
0010
,
0010
0100
1000
0001
0100
0010
1000
0001
,
1000
0100
0010
0001
0100
0010
1000
0001
,
1000
0100
1000
0001
0010
0100
1000
0001
1000
0010
0100
0001
1000
0001
0010
0100
,
1000
0010
0100
0001
0010
0001
0100
0010
1000
0100
0010
0001
0100
0000
0001
0000
,
1001
0000
1000
0000
0100
0000
1000
0000
0001
0000
0100
0000
0010
1000
0100
0010
,
0001
0000
1000
0000
0001
0000
0100
0000
0001
0000
0010
0000
0100
1000
0001
0100
,
0001
0000
1000
0000
0001
0000
0100
0000
0010
0000
0100
0000
0001
0010
0100
1000
,
0001
0000
0100
0000
0001
0000
1000
0100
1000
0000
0001
0010
0001
1000
0010
0100
,
0001
0000
1000
0000
0010
0000
1000
0000
0001
0000
0010
0000
0100
1000
0010
0100
,
0001
0000
1000
0000
0001
0000
0010
0000
0001
0000
0100
0000
0010
1000
0001
0010
,
0001
0000
1000
0000
0001
0000
0010
0000
0100
0000
0010
0000
0001
0100
0010
1000
,
0001
0000
0010
0000
0001
0000
1000
0010
1000
0000
0100
0010
0001
1000
0001
1000
,
0001
0000
1000
0000
0100
0000
1000
0000
0001
0000
0100
0000
0010
1000
0100
0010
,
0001
0000
1000
0000
0001
0000
0100
0000
0001
0000
0010
0000
0100
1000
0001
0100
,
0001
0000
1000
0000
0001
0000
0100
0000
0010
0000
0100
0000
0001
0010
0100
1000
,
0001
0000
0100
0000
0001
0000
1000
0100
1000
0000
0001
0010
0001
1000
0010
0100
,
0001
0000
1000
0000
0010
0000
1000
0000
0001
0000
0010
0000
0100
1000
0010
0100
,
0001
0000
1000
0000
0001
0000
0010
0000
0001
0000
0100
0000
0010
1000
0001
0010
,
0001
0000
1000
0000
0001
0000
0010
0000
0100
0000
0010
0000
0001
0100
0010
1000
,
0001
0010
0001
0100
0010
1000
0100
1000
0010
0100
0001
0010
0100
1000
0010
0100
,
0001
1000
0010
1000
0001
1000
0010
0100
0001
1000
0100
1000
0001
0100
0001
0010
,
0100
1000
0001
1000
0100
0010
0001
1000
0010
1000
0001
0010
0001
0100
0010
1000
,
0100
1000
0001
1000
0100
1000
0001
0100
0001
1000
0010
1000
0001
0010
0001
0100
,
0010
1000
0001
1000
0010
0100
0001
1000
0100
0010
0001
0100
0001
0010
0100
0010
,
0001
1000
0010
1000
0001
1000
0010
0100
0001
1000
0100
1000
0001
0100
0001
0010
,
0100
1000
0001
1000
0100
0010
0001
1000
0010
1000
0001
0010
0001
0100
0010
1000
,
0100
1000
0001
1000
0100
1000
0001
0100
0001
1000
0010
1000
0001
0010
0001
0100
,
0010
1000
0001
1000
0010
0100
0001
1000
0010
0100
0001
0010
0001
0100
0010
1000
,
0001
1000
0100
1000
0001
1000
0100
0010
0001
1000
0010
1000
0001
0010
0001
0100
,
0010
1000
0001
1000
0010
0100
0001
1000
0100
1000
0001
0100
0001
0010
0100
1000
,
0010
1000
0001
1000
0010
1000
0001
0010
0001
1000
0100
1000
0001
0100
0001
0010
,
0100
1000
0001
1000
0100
0010
0001
1000
0010
0100
0001
0010
0001
0100
0010
0100
,
0001
1000
0100
1000
0001
1000
0100
0010
0001
1000
0010
1000
0001
0010
0001
0100
,
0010
1000
0001
1000
0010
0100
0001
1000
0100
1000
0001
0100
0001
0010
0100
1000
,
0010
1000
0001
1000
0010
1000
0001
0010
0001
1000
0100
1000
0010
0100
0001
0010
,
0100
0000
1000
0100
0000
1000
0001
0100
0010
0000
1000
0001
0000
0010
0100
0000
,
1000
0000
0001
0100
0010
1000
0001
0000
1000
0010
0100
0001
1000
0000
0100
0010
,
0001
0000
1000
0001
0010
0100
1000
0000
0001
1000
0100
0010
0001
0000
1000
0001
,
0100
0000
0010
1000
0001
1000
0100
0000
0010
0001
1000
0001
0100
0000
0001
1000
,
0010
0000
0100
0001
0010
0100
1000
0000
0100
0010
0001
0100
0010
0000
0100
0001
,
1000
0000
0001
0010
0100
1000
0001
0000
1000
0100
0010
0001
1000
0000
0010
0100
,
0001
0000
1000
0001
0100
0010
1000
0000
0001
1000
0010
0100
0001
0000
1000
0001
,
0010
0000
0100
1000
0001
1000
0010
0000
0100
0001
1000
0001
0010
0000
0001
1000
,
0100
0000
0010
0001
0100
0010
1000
0000
0010
0100
0001
0010
0100
0000
0010
0001
,
1000
0000
0001
0100
0010
1000
0001
0000
1000
0010
0100
0001
1000
0000
0100
0010
,
0001
0000
1000
0001
0010
0100
1000
0000
0001
1000
0100
0010
0001
0000
1000
0001
,
0100
0000
0010
1000
0001
1000
0100
0000
0010
0001
1000
0001
0100
0000
0001
1000
,
0010
0000
0100
0001
0010
0100
1000
0000
0100
0010
0001
0100
0010
0000
0100
0001
,
1000
0000
0001
0010
0100
1000
0001
0000
1000
0100
0010
0001
1000
0000
0010
0100
,
0001
0000
1000
0001
0100
0010
1000
0000
0001
1000
0010
0100
0001
0000
1000
0001
,
1000
0100
1000
0001
0010
0001
1000
0001
0100
0010
1000
0001
1000
0010
0100
0001
,
0010
0100
1000
0001
0010
0001
0100
0010
1000
0100
0010
0100
1000
0010
0100
0001
,
1000
0100
1000
0001
0100
0001
1000
0001
0010
0001
1000
0010
1000
0001
0100
0001
,
1000
0100
1000
0001
0100
0001
1000
0100
0010
0100
1000
0001
0100
0001
0010
0001
,
1000
0100
1000
0001
0010
0001
1000
0001
0100
0010
1000
0001
1000
0010
0100
0001
,
0010
0100
1000
0001
1000
0010
0100
0001
0010
0001
0100
0010
0100
0001
1000
0100
,
1000
0001
0100
0001
1000
0100
0010
0100
1000
0001
0010
0001
1000
0010
0100
0001
,
1000
0100
1000
0001
0100
0001
1000
0100
0010
0100
1000
0001
0100
0001
0010
0100
,
1000
0001
0100
0001
1000
0100
0010
0100
1000
0001
0010
0001
1000
0010
0100
0001
,
1000
0000
0100
0010
0100
0010
0100
0000
1000
0001
1000
0001
1000
0000
0000
0000
,
1001
0000
0001
1000
0100
0010
0001
1000
0001
0100
0010
0100
0001
1000
0100
1000
,
0001
0010
0100
1000
0010
0100
0001
0100
0010
1000
0001
0010
0001
1000
0010
0100
,
0001
1000
0001
1000
0100
0010
0001
1000
0001
0100
0010
0100
0001
1000
0100
1000
,
0001
0010
0100
1000
0010
0100
0010
1000
0100
0010
0100
1000
0010
0100
0001
1000
,
0100
1000
0001
1000
0100
0010
0001
1000
0001
0100
0010
0100
0001
1000
0100
1000
,
0001
0010
0100
1000
0010
0100
0001
0100
0010
1000
0001
0010
0001
1000
0010
0100
,
0001
1000
0001
1000
0100
0010
0001
1000
0001
0100
0010
0100
0001
1000
0100
1000
,
0001
0000
0M00
00M0
0M00
00M0
M000
0000
00M0
0M00
00M0
0M00
000M
0000
00M0
0M00
,
1000
0100
1000
0001
0100
0001
1000
0001
0010
0001
1000
0010
1000
0001
0100
0001
,
1000
0100
1000
0001
0100
0001
1000
0100
0010
0100
1000
0001
0100
0001
0010
0001
,
1000
0100
1000
0001
0010
0001
1000
0001
0100
0010
1000
0001
1000
0010
0100
0001
,
0010
0100
1000
0001
1000
0010
0100
0001
0010
0001
0100
0010
0100
0001
1000
0100
,
1000
0001
0100
0001
1000
0100
0010
0100
1000
0001
0010
0001
1000
0010
0100
0001
,
1000
0100
1000
0001
0100
0001
1000
0100
0010
0100
1000
0001
0100
0001
0010
0100
,
1000
0001
0100
0001
1000
0100
0010
0100
1000
0001
0010
0001
1000
0010
0100
0001
,
1000
0000
0100
0010
0100
0010
0100
0000
1000
0001
1000
0001
1000
0000
0000
0000
,
1001
0000
0001
1000
0100
0010
0001
1000
0001
0100
0010
0100
0001
1000
0100
1000
,
0001
0010
0100
1000
0010
0100
0001
0100
0010
1000
0001
0010
0001
1000
0010
0100
,
0001
1000
0001
1000
0100
0010
0001
1000
0001
0100
0010
0100
0001
1000
0100
1000
,
0001
0010
0100
1000
0010
0100
0010
1000
0100
0010
0100
1000
0010
0100
0001
1000
,
0100
1000
0001
1000
0100
0010
0001
1000
0001
0100
0010
0100
0001
1000
0100
1000
,
0001
0010
0100
1000
0010
0100
0001
0100
0010
1000
0001
0010
0001
1000
0010
0100
,
0001
1000
0001
1000
0100
0010
0001
1000
0001
0100
0010
0100
0001
1000
0100
1000
,
0010
0100
0001
0010
0001
0100
0010
1000
0100
0010
0100
1000
0010
0100
0001
0010
,
0200
0000
1300
0000
0100
0000
0010
0000
0001
0000
0010
0100
0000
1000
0100
0000
,
1000
0000
0001
0000
0100
0000
0010
0000
1000
0000
0001
0100
0010
0100
0001
0000
,
1000
0000
0001
0000
0010
0000
0100
0000
1000
0000
0100
0010
0000
0100
1000
0000
,
0001
0000
0100
0000
0010
0000
1000
0000
0001
0000
1000
0100
0010
0100
1000
0001
,
0200
0000
0301
0000
0100
0000
0010
0000
1000
0000
0010
0100
0000
0001
0100
0000
,
0001
0000
1000
0000
0100
0000
0010
0000
0001
0000
1000
0100
0010
0100
1000
0000
,
0001
0000
1000
0000
0010
0000
0100
0000
0001
0000
0100
0010
0000
0100
0001
0000
,
1000
0000
0100
0000
0010
0000
0001
0000
1000
0000
0001
0010
0100
0010
0001
1000
,
0020
0000
1030
0000
0010
0000
0100
0000
0001
0000
0100
0010
0000
1000
0010
0000
,
1000
0000
0001
0000
0010
0000
0100
0000
1000
0000
0001
0010
0100
0010
0001
0000
,
1000
0000
0001
0000
0100
0000
0010
0000
1000
0000
0010
0100
0000
0010
1000
0000
,
0001
0000
0010
0000
0100
0000
1000
0000
0001
0000
1000
0010
0100
0010
1000
0001
,
0020
0000
0031
0000
0010
0000
0100
0000
1000
0000
0100
0010
0000
0001
0010
0000
,
0001
0000
1000
0000
0010
0000
0100
0000
0001
0000
1000
0010
0100
0010
1000
0000
,
0001
0000
1000
0000
0100
0000
0010
0000
0001
0000
0010
0100
0000
0010
0001
0000
,
1000
0001
1000
0001
1000
0001
1000
0001
1000
0001
1000
0001
1000
0001
1000
0001
,
1000
0000
0001
1000
0100
0010
0001
1000
0010
0100
0001
1000
0001
0100
0010
1000
,
0100
1000
0001
0100
0010
1000
0001
0010
0100
0010
0001
1000
0010
1000
0001
0100
,
0001
1000
0100
1000
0001
1000
0010
0100
0001
0100
0010
1000
0001
0010
0100
1000
,
0001
1000
0010
1000
0100
0010
0001
0010
0100
1000
0001
0100
0001
1000
0010
1000
,
0001
0010
0100
1000
0001
1000
0100
1000
0010
0100
0001
1000
0001
0100
0010
1000
,
0100
1000
0001
0100
0010
1000
0001
0010
0100
0010
0001
1000
0010
1000
0001
0100
,
0001
1000
0100
1000
0001
1000
0010
0100
0001
0100
0010
1000
0001
0010
0100
1000
,
0010
0000
0100
0001
0100
0001
0100
0001
1000
0000
0100
0010
0001
0000
0000
0000
,
1001
0000
1000
0001
0010
0100
1000
0001
0100
0010
1000
0001
1000
0010
0100
0001
,
0010
0001
1000
0010
0100
0001
1000
0100
0010
0100
1000
0001
0100
0001
1000
0010
,
1000
0001
0010
0001
1000
0001
0100
0010
1000
0010
0100
0001
1000
0100
0010
0001
,
1000
0001
0100
0001
0010
0100
1000
0100
0010
0001
1000
0010
1000
0001
0100
0001
,
1000
0100
0010
0001
1000
0001
0010
0001
0100
0010
1000
0001
1000
0010
0100
0001
,
0010
0001
1000
0010
0100
0001
1000
0100
0010
0100
1000
0001
0100
0001
1000
0010
,
1000
0001
0010
0001
1000
0001
0100
0010
1000
0010
0100
0001
1000
0100
0010
0001
,
0100
0000
0010
1000
0010
1000
0010
1000
0001
0000
0010
0100
1000
0000
0010
0100
,
0001
1000
0001
0100
0010
1000
0001
1000
0100
0010
0001
1000
0001
0010
0100
1000
,
0010
1000
0001
0010
0100
1000
0001
0100
0010
0100
0001
1000
0100
1000
0001
0010
,
0001
1000
0010
1000
0001
1000
0100
0010
0001
0010
0100
1000
0001
0100
0010
1000
,
0001
1000
0100
1000
0010
0100
0001
0100
0010
1000
0001
0010
0001
1000
0100
1000
,
0001
0100
0010
1000
0001
1000
0010
1000
0100
0010
0001
1000
0001
0010
0100
1000
,
0010
1000
0001
0010
0100
1000
0001
0100
0010
0100
0001
1000
0100
1000
0001
0010
,
0001
1000
0010
1000
0001
1000
0100
0010
0001
0010
0100
1000
0001
0100
0010
1000
,
0100
0000
0010
0001
0010
0001
1000
0000
0001
0000
0100
0010
1000
0000
0100
0010
,
0001
1000
0001
1000
0010
0100
0001
1000
0100
0010
0001
1000
0001
0010
0100
1000
,
0010
1000
0001
0010
0100
1000
0001
0100
0010
0100
0001
1000
0100
1000
0001
0010
,
0001
1000
0010
1000
0001
1000
0100
0010
0001
0010
0100
1000
0001
0100
0010
1000
,
0001
1000
0100
1000
0010
0100
0001
0100
0010
1000
0001
0010
0001
1000
0100
1000
,
0001
0100
0010
1000
0001
1000
0010
1000
0100
0010
0001
1000
0001
0010
0100
1000
,
0010
1000
0001
0010
0100
1000
0001
0100
0010
0100
0001
1000
0100
1000
0001
0010
,
0001
1000
0010
1000
0001
1000
0100
0010
0001
0010
0100
1000
0001
0100
0010
1000
,
0100
0010
0100
1000
0010
0100
0001
0010
0001
0100
0010
1000
0100
0010
0001
0100
,
0020
0000
0000
0000
0000
0000
0000
0000
0000
0000
0000
0000
0000
0000
0000
0000
0000
0000
0000
0000
0000
0000
0000
0000
0000
0000
0000
0000
0000
0000
0000
0000
0000
0000
0000
0000
0000
0000
0000
0000
0000
0000
0000
0000
0000
0000
0000
0000
0030
0000
0000
0000
0000
0000
0000
0000
0000
0000
0000
0000
0000
0000
0000
0000
0000
0000
0000
0000
0000
0000
0000
0000
0000
0000
0000
0000
0000
0000
0000
0000
0000
0000
0000
0000
0000
0000
0000
0000
0000
0000
0000
0000
0000
0000
0000
0000
00M0
0000
0000
0000
0000
0000
0000
0000
0000
0000
0000
0000
00M0
0000
0000
0000
0000
0000
0000
0000
00M0
0000
0000
0000
0000
0000
0000
0000
00M0
0000
0000
0000
0000
00M0
0000
0000
0000
0000
0000
00M0
0000
0000
00M0
0000
0000
00M0
0000
0000
00M0
0000
0000
0000
0000
0000
0000
0000
0000
0000
0000
0000
0000
0000
0000
0000
0000
0000
0000
0000
0000
0000
0000
0000
0000
0000
0000
0000
0000
0000
0000
0000
0000
0000
0000
0000
0000
0000
0000
0000
0000
0000
0000
0000
0000
0000
0000
0000
,
1001
0000
0000
0000
,
0000
0000
0000
0000
,
0000
0000
0000
0000
000M
00M0
0M00
M000
000M
00M0
0M00
M000
000M
00M0
0M00
M000
,
000M
00M0
0M00
M000
000M
00M0
0M00
M000
0000
0000
0000
0000
0000
0000
0000
0000
,
0000
0000
0000
0000
0000
0000
0000
0000
M000
00M0
0M00
000M
M000
0M00
00M0
000M
,
M000
0M00
00M0
000M
M000
0M00
00M0
000M
M000
0M00
00M0
000M
M000
0M00
00M0
000M
,
M000
0M00
00M0
000M
M000
0M00
00M0
000M
M000
0M00
00M0
000M
0000
0000
0000
0000
,
0000
0000
0000
0000
0000
0000
0000
0000
0001
1000
0001
1000
0001
1000
0001
1000
,
0001
0000
1000
0000
0100
0010
0000
0001
1000
0000
1000
0000
0100
0010
0000
0001
,
1000
0000
1000
0000
0100
0010
0000
0001
1000
0000
1000
0000
M01M
0000
0000
0000
,
1000
0000
1000
0000
0001
0010
0000
0100
1000
0000
1000
0000
0001
0010
0000
0100
,
1000
0000
1000
0000
0001
0010
0000
0100
1000
0000
1000
0001
M100
0000
0000
0000
,
0001
0000
0001
0000
0100
0010
0000
1000
0001
0000
0001
0000
0100
0010
0000
1000
,
0001
0000
0001
0000
0100
0010
0000
1000
0001
0000
0001
0000
M01M
0000
0000
0000
,
0001
0000
0001
0000
1000
0010
0000
0100
0001
0000
0001
0000
1000
0010
0000
0100
,
0001
0000
1000
0001
1000
0001
1000
0000
0100
0000
0010
0001
0100
0000
0001
1000
,
0100
0000
0100
0000
0010
0001
0000
1000
0100
0000
0100
0000
0010
0001
0000
1000
,
0100
0000
0100
0000
0010
0001
0000
1000
0100
0000
0100
0000
M010
0000
0100
0000
,
1000
0000
1000
0000
0001
0100
0000
0010
1000
0000
1000
0000
0001
0100
0000
0010
,
1000
0000
1000
0000
0001
0100
0000
0010
1000
0000
1000
0001
M010
0000
0001
0000
,
0100
0000
0100
0000
0010
1000
0000
0001
0100
0000
0100
0000
0010
1000
0000
0001
,
0100
0000
0100
0000
0010
1000
0000
0001
0100
0000
0100
0001
1M00
0000
0100
0000
,
0010
0000
0010
0000
0001
1000
0000
0100
0010
0000
0010
0000
0001
1000
0000
0100
,
0010
0000
0100
0000
1000
0000
0010
0000
0100
0000
0001
0010
0001
0100
0010
1000
,
0001
0010
0001
1000
0010
0100
0010
0100
0001
0010
0001
1000
0010
0100
0010
1000
,
0001
0010
0001
1000
0010
0100
0001
1000
0001
0010
0001
0010
0100
1000
0001
1000
,
0001
0100
0001
1000
0100
0010
0100
0010
0001
0100
0001
1000
0100
0010
0100
1000
,
0001
0100
0001
1000
0100
0010
0001
1000
0001
0100
0001
1000
0100
0010
0001
1000
,
0010
0100
0010
1000
0001
1000
0001
1000
0010
0100
0010
1000
0001
1000
0001
0100
,
0010
0100
0010
1000
0001
0100
0010
1000
0010
0100
0010
1000
0100
1000
0001
0010
,
0001
1000
0001
0100
0010
1000
0010
1000
0001
1000
0001
0100
0010
1000
0010
0100
,
0001
0000
1000
0000
0100
0000
1000
0000
0001
0000
0100
0010
1000
0000
0001
0000
,
1000
0010
1000
0001
0010
0100
0010
0100
1000
0010
1000
0001
0010
0100
0010
0001
,
1000
0010
1000
0001
0010
0100
1000
0001
1000
0010
1000
0010
0100
0001
1000
0001
,
1000
0100
1000
0001
0100
0010
0100
0010
1000
0100
1000
0001
0100
0010
0100
0001
,
1000
0100
1000
0001
0100
0010
1000
0001
1000
0100
1000
0001
0100
0010
1000
0001
,
0010
0100
0010
0001
1000
0001
1000
0001
0010
0100
0010
0001
1000
0001
1000
0100
,
0010
0100
0010
0001
1000
0100
0010
0001
0010
0100
0010
0001
0100
0001
1000
0010
,
1000
0001
1000
0100
0010
0001
0010
0001
1000
0001
1000
0100
0010
0001
0010
0100
,
1000
0001
0100
0001
1000
0100
0010
0001
0100
0010
1000
0100
1000
0010
0100
0001
,
1000
0000
0001
0000
0010
0000
0001
0000
1000
0000
0010
0000
0100
0001
0010
0100
,
1000
0000
0001
0000
1000
0000
0010
0000
1000
0000
0100
0000
0010
0001
1000
0010
,
1000
0000
0001
0000
1000
0000
0010
0000
0100
0000
0010
0000
1000
0100
0010
0001
,
1000
0000
0010
0000
1000
0000
0001
0010
0001
0000
1000
0100
1000
0001
0100
0010
,
1000
0000
0001
0000
0100
0000
0001
0000
1000
0000
0100
0000
0010
0001
0100
0010
,
1000
0000
0001
0000
1000
0000
0100
0000
1000
0000
0010
0000
0100
0001
1000
0100
,
1000
0000
0001
0000
1000
0000
0100
0000
0010
0000
0100
0000
1000
0010
0100
0001
,
1000
0000
0100
0000
1000
0000
0001
0100
0001
0000
0010
0100
1000
0001
1000
0001
,
1000
0000
0001
0000
0010
0000
0001
0000
1000
0000
0010
0000
0100
0001
0010
0100
,
1000
0000
0001
0000
1000
0000
0010
0000
1000
0000
0100
0000
0010
0001
1000
0010
,
1000
0000
0001
0000
1000
0000
0010
0000
0100
0000
0010
0000
1000
0100
0010
0001
,
1000
0000
0010
0000
1000
0000
0001
0010
0001
0000
1000
0100
1000
0001
0100
0010
,
1000
0000
0001
0000
0100
0000
0001
0000
1000
0000
0100
0000
0010
0001
0100
0010
,
1000
0000
0001
0000
1000
0000
0100
0000
1000
0000
0010
0000
0100
0001
1000
0100
,
1000
0000
0001
0000
1000
0000
0100
0000
0010
0000
0100
0000
1000
0010
0100
0001
,
1000
0100
1000
0010
0100
0001
0010
0001
0100
0010
1000
0100
0010
0001
0100
0010
,
1000
0001
0100
0001
1000
0001
0100
0010
1000
0001
0010
0001
1000
0010
1000
0100
,
0010
0001
1000
0001
0010
0100
1000
0001
0100
0001
1000
0100
1000
0010
0100
0001
,
0010
0001
1000
0001
0010
0001
1000
0010
1000
0001
0100
0001
1000
0100
1000
0010
,
0100
0001
1000
0001
0100
0010
1000
0001
0010
0100
1000
0010
1000
0100
0010
0100
,
1000
0001
0100
0001
1000
0001
0100
0010
1000
0001
0010
0001
1000
0010
1000
0100
,
0010
0001
1000
0001
0010
0100
1000
0001
0100
0001
1000
0100
1000
0010
0100
0001
,
0010
0001
1000
0001
0010
0001
1000
0010
1000
0001
0100
0001
1000
0100
1000
0010
,
0100
0001
1000
0001
0100
0010
1000
0001
0100
0010
1000
0100
1000
0010
0100
0001
,
1000
0001
0010
0001
1000
0001
0010
0100
1000
0001
0100
0001
1000
0100
1000
0010
,
0100
0001
1000
0001
0100
0010
1000
0001
0010
0001
1000
0010
1000
0100
0010
0001
,
0100
0001
1000
0001
0100
0001
1000
0100
1000
0001
0010
0001
1000
0010
1000
0100
,
0010
0001
1000
0001
0010
0100
1000
0001
0100
0010
1000
0100
1000
0010
0100
0010
,
1000
0001
0010
0001
1000
0001
0010
0100
1000
0001
0100
0001
1000
0100
1000
0010
,
0100
0001
1000
0001
0100
0010
1000
0001
0010
0001
1000
0010
1000
0100
0010
0001
,
0100
0001
1000
0001
0100
0001
1000
0100
1000
0001
0010
0001
0100
0010
1000
0100
,
0010
0000
0001
0010
0000
0001
1000
0010
0100
0000
0001
1000
0000
0100
0010
0000
,
0001
1000
0010
1000
0001
1000
0010
0100
0001
1000
0100
1000
0001
0100
0001
0010
,
0100
1000
0001
1000
0100
0010
0001
1000
0010
1000
0001
0010
0001
0100
0010
1000
,
0100
1000
0001
1000
0100
1000
0001
0100
0001
1000
0010
1000
0001
0010
0001
0100
,
0010
1000
0001
1000
0010
0100
0001
1000
0100
0010
0001
0100
0001
0010
0100
0010
,
0001
1000
0010
1000
0001
1000
0010
0100
0001
1000
0100
1000
0001
0100
0001
0010
,
0100
1000
0001
1000
0100
0010
0001
1000
0010
1000
0001
0010
0001
0100
0010
1000
,
0100
1000
0001
1000
0100
1000
0001
0100
0001
1000
0010
1000
0001
0010
0001
0100
,
0010
1000
0001
1000
0010
0100
0001
1000
0010
0100
0001
0010
0001
0100
0010
1000
,
0001
1000
0100
1000
0001
1000
0100
0010
0001
1000
0010
1000
0001
0010
0001
0100
,
0010
1000
0001
1000
0010
0100
0001
1000
0100
1000
0001
0100
0001
0010
0100
1000
,
0010
1000
0001
1000
0010
1000
0001
0010
0001
1000
0100
1000
0001
0100
0001
0010
,
0100
1000
0001
1000
0100
0010
0001
1000
0010
0100
0001
0010
0001
0100
0010
0100
,
0001
1000
0100
1000
0001
1000
0100
0010
0001
1000
0010
1000
0001
0010
0001
0100
,
0010
1000
0001
1000
0010
0100
0001
1000
0100
1000
0001
0100
0001
0010
0100
1000
,
0010
1000
0001
1000
0010
1000
0001
0010
0001
1000
0100
1000
0010
0100
0001
0010
,
0100
0000
1000
0100
0000
1000
0001
0100
0010
0000
1000
0001
0000
0010
0100
0000
;
