#TITLE:Exaltation;
#SUBTITLE:;
#ARTIST:Matisyahu;
#TITLETRANSLIT:;
#SUBTITLETRANSLIT:;
#ARTISTTRANSLIT:;
#CREDIT:Arch0wl;
#BANNER:exaltation-bn.png;
#BACKGROUND:exaltation-bg.png;
#LYRICSPATH:;
#CDTITLE:!Arch0wlTitle.png;
#MUSIC:exaltation.ogg;
#OFFSET:-0.230;
#SAMPLESTART:23.389;
#SAMPLELENGTH:23.155;
#SELECTABLE:YES;
#BPMS:0.000=83.000;
#STOPS:;
#BGCHANGES:0.000=exaltation-bg.png=1.000=0=0=1,
99999=-nosongbg-=1.000=0=0=0 // don't automatically add -songbackground-
;
// cache tags:
#FIRSTBEAT:0.000;
#LASTBEAT:156.000;
#SONGFILENAME:Songs/Archmage and Dark0wl Hammer of Thor UltraHyperMegaPack/Exaltation/exaltation.sm;
#HASMUSIC:1;
#HASBANNER:1;
#MUSICLENGTH:105.000;
// end cache tags

//---------------dance-single - Arch0wl----------------
#NOTES:
     dance-single:
     Arch0wl:
     Hard:
     9:
     0.676,0.706,0.676,0.000,0.786,424.000,71.000,0.000,0.000,2.000:
1001
0000
1001
0000
1100
0000
0100
0010
1100
0000
1100
0000
0110
0000
0001
0000
,
1001
0000
0000
0000
0010
0000
0000
0000
1001
0000
0000
0000
0010
0000
0100
0001
0100
0000
0000
0000
0100
0000
0000
0000
1001
0000
0000
0000
0100
0000
0000
0000
,
1010
0000
0000
0000
0100
0000
0000
0000
1010
0000
0000
0000
0100
0000
0001
0100
0001
0000
0100
0000
0010
0000
0000
0000
1010
0000
0000
0000
0100
0000
0000
0000
,
0101
0000
0000
0000
0010
0000
0000
0000
0101
0000
0000
0000
0010
0000
0100
0000
1010
0000
0000
0000
1010
0000
0000
0000
0110
0000
0000
0000
1001
0000
0010
0100
,
0010
0000
0000
0000
0010
0000
0000
0000
1100
0000
0000
0000
0010
0000
0001
1000
0001
0000
1000
0000
0100
0000
0000
0000
0110
0000
0000
0000
0001
0000
0000
0000
,
0101
0000
0101
0000
0110
0000
1000
0001
0110
0000
0110
0000
0101
0000
0010
0000
,
1010
0000
0000
0000
1010
0000
0000
0000
1001
0000
0000
0000
0010
0000
0100
1000
0100
0000
1000
0000
0001
0000
0000
0000
1001
0000
0000
0000
0100
0000
0010
0000
,
1001
0000
1001
0000
0101
0000
1000
0000
0100
0010
0000
0000
0100
0010
0100
0000
,
1000
0000
0100
0000
1000
0000
0100
0010
0100
0010
0001
0000
0010
0000
0100
1000
,
0001
0000
0000
1000
0000
0000
0001
0000
0010
0000
0100
0000
0010
0000
0001
0000
1000
0000
0100
0000
1000
0000
0010
0000
0100
0000
0000
0000
0100
0000
0000
0000
,
0100
0001
0000
0001
0000
0001
0010
0100
1000
0100
0010
0001
1000
0000
1000
0000
,
0000
0000
0000
0000
0000
0010
0001
0010
0001
0010
0000
0001
0010
0000
0010
0000
,
1000
0000
0100
0000
1000
0000
0010
0100
0010
1000
0100
0000
0010
0000
0100
1000
,
0010
0000
0000
1000
0000
0000
0010
0000
0100
0000
0001
0000
0100
0000
0010
0000
1000
0000
0010
0000
0100
0000
0001
0000
0010
0000
0000
0000
0010
0000
0000
0000
,
0100
1000
0000
1000
0000
1000
0010
0001
0010
1000
0010
0100
0001
0000
0001
0000
,
0000
0000
0000
0000
0010
0000
1000
0000
0010
0000
0100
0000
0010
0000
0001
0000
0010
0000
0000
0010
0000
0000
0010
0000
0010
0000
0000
0000
0000
0000
0000
0000
,
0110
0000
0000
0000
1100
0000
0000
0000
0000
0001
0000
0000
0011
0000
0000
0000
0000
0000
0110
0000
0000
1100
0000
0000
0011
0000
0000
0000
0110
0000
0000
0000
0000
1100
0000
0000
0011
0000
0000
0000
0000
0000
0100
0000
0000
0000
0000
0000
,
1000
1010
0000
0110
0000
0110
1000
0100
0000
0100
1000
0010
0001
0010
1000
0100
,
1010
0000
0000
0000
0100
0000
0000
0000
0000
0001
0000
0000
1010
0000
0000
0000
0100
0000
0000
0000
0000
0001
0000
0000
1010
0000
0000
0000
0000
0000
0000
0000
0000
0000
0000
0000
1000
0000
0000
0000
0000
0000
0000
0000
0000
0001
0000
0000
,
0110
0000
0000
0000
1000
0000
0000
0000
0000
0001
0000
0000
0110
0000
0000
0000
1000
0000
0000
0000
0000
0001
0000
0000
0110
0000
0000
0000
1000
0000
0000
0000
0000
0001
0000
0000
0110
0000
0000
0000
0000
0000
1110
0000
0000
0000
0000
0000
,
0111
0000
0000
0000
0000
0000
0000
0000
0000
0000
0000
0000
0100
0000
0000
0010
0000
0000
0100
0000
0000
0000
0001
0000
0000
0000
0000
1000
0000
0000
0010
0000
0000
0001
0000
0000
1000
0000
0000
0000
0100
0000
0000
0000
0000
0001
0000
0000
,
0000
0000
1000
0000
0000
0000
0010
0000
0000
0001
0000
0000
1000
0000
0000
0100
0000
0000
0001
0000
0000
0010
0000
0000
0100
0000
0000
0000
0000
0000
0010
0000
0000
0100
0000
0000
0000
0000
0000
0000
0000
0000
1100
0000
0000
0000
0000
0000
,
0110
0000
1010
0000
0011
0000
0000
0000
0001
0010
0100
0010
1010
0000
0000
0011
,
0000
1001
0000
0100
1001
0000
1001
0000
1010
0000
0100
0001
1010
0000
1010
0000
,
0100
0000
0001
0000
0100
0000
0001
0010
0001
0010
0100
0000
0100
0000
1000
0010
,
0100
0000
0000
0010
0000
0000
0100
0000
0001
0000
0010
0000
0001
0000
0010
0000
0100
0000
1000
0000
0100
0000
1000
0000
0001
0000
0000
0000
0001
0000
0000
0000
,
1000
0010
0000
0010
0000
0100
0001
0010
0001
1000
0010
0100
0001
0000
0001
0000
,
0000
0000
0000
0000
0000
1000
0100
0010
0001
1000
0000
0001
1000
0000
1000
0000
,
0010
0000
0100
0000
0010
0000
0100
0001
0010
0001
1000
0000
0010
0000
0100
1000
,
0100
0000
0000
0010
0000
0000
0100
0000
0001
0000
0010
0000
1000
0000
0010
0000
0001
0000
0100
0000
0010
0000
1000
0000
0100
0000
0000
0000
0100
0000
0000
0000
,
1000
0010
0000
0010
0000
0010
0100
0001
0100
0010
0100
0001
0010
0000
0010
0000
,
0000
0000
0000
0000
0100
0000
1000
0000
0100
0000
0010
0000
0100
0000
0001
0000
0100
0000
0000
0100
0000
0000
0100
0000
0100
0000
0000
0000
0000
0000
0000
0000
,
1000
0000
0100
0000
1000
0000
0010
0100
0010
1000
0100
0000
0010
0000
0100
1000
,
0010
0000
0000
1000
0000
0000
0010
0000
0100
0000
0001
0000
0100
0000
0010
0000
1000
0000
0010
0000
0100
0000
0001
0000
0010
0000
0000
0000
0010
0000
0000
0000
,
0100
1000
0000
1000
0000
1000
0010
0001
0010
1000
0010
0100
0001
0000
0001
0000
,
0000
0000
0000
0000
0010
0000
1000
0000
0010
0000
0100
0000
0010
0000
0001
0000
0010
0000
0000
0010
0000
0000
0010
0000
0010
0000
0000
0000
0000
0000
0000
0000
,
0001
0000
1000
0010
1000
0000
0001
0010
0001
0000
1100
0000
1000
0000
0101
0000
,
0001
0000
1000
0010
1000
0000
0001
0100
0001
0000
1010
0000
1000
0000
0011
0000
,
0001
0000
1000
0010
1000
0000
0001
0100
0001
0000
0010
0100
0010
0000
1001
0000
,
0100
0000
0000
0000
;
