#TITLE:Narcissus At Oasis;
#SUBTITLE:;
#ARTIST:Ryu*;
#TITLETRANSLIT:;
#SUBTITLETRANSLIT:;
#ARTISTTRANSLIT:;
#CREDIT:;
#BANNER:NarcissusAtOasis-bn.png;
#BACKGROUND:NarcissusAtOasis-bg.png;
#LYRICSPATH:;
#CDTITLE:!joeCDtitle.png;
#MUSIC:Narcissus At Oasis.mp3;
#OFFSET:0.940;
#SAMPLESTART:100.000;
#SAMPLELENGTH:12.000;
#SELECTABLE:YES;
#BPMS:0.000=170.000;
#STOPS:;
#BGCHANGES:;
// cache tags:
#FIRSTBEAT:6.000;
#LASTBEAT:332.500;
#SONGFILENAME:Songs/Fabulously Fresh Flock of Fantastic Files F5/(-joe-) Narcissus At Oasis/NarcissusAtOasis.sm;
#HASMUSIC:1;
#HASBANNER:1;
#MUSICLENGTH:125.469;
// end cache tags

//---------------dance-single - ----------------
#NOTES:
     dance-single:
     :
     Hard:
     11:
     0.865,1.000,0.956,0.080,0.562,630.000,120.000,10.000,0.000,0.000:
0000
0000
0000
0000
,
0000
0000
1000
0000
,
0000
0000
0000
0000
,
0000
0000
0000
0000
,
1001
0010
0100
0001
0010
0100
1000
0001
,
0100
0001
0010
0001
1000
0100
0000
1000
,
0011
0100
0001
0010
0001
1000
0010
1000
,
0011
0100
0010
1000
0001
1000
0100
0001
,
0110
1000
0010
0001
0010
1000
0001
0100
,
1001
0010
0100
0001
0001
0100
0000
0001
,
1100
0100
1000
0001
0010
1000
0001
0100
,
0011
1000
0100
0001
0001
1000
0010
0000
,
0101
1000
0100
0001
0010
0100
0001
1000
,
0110
1000
0100
0001
0001
0100
0000
1000
,
0101
0010
0001
0010
0001
0010
1000
0010
,
0110
1000
0001
0010
1000
0100
0010
1000
,
1001
1000
0100
0010
0001
1000
0101
0110
,
1001
1000
0001
0100
0010
1000
0010
0100
,
0011
1000
0100
0010
0001
0010
0100
1000
,
1001
0100
0010
0001
1000
0100
1001
0000
,
0000
0000
0000
0000
,
0000
0001
1000
0001
0000
0000
0000
0000
0000
0000
0000
0000
0000
0000
0000
0000
,
1001
0000
0000
0000
0001
0000
0100
0000
0001
0000
1100
0000
0010
0000
0001
0010
,
0100
0000
0001
0000
0010
0001
1000
0000
1000
0000
0011
0000
0100
0000
0001
0100
,
0001
0000
0100
0000
0001
0000
0010
0000
0001
0000
1100
0000
0001
0000
0001
0100
,
1000
0000
0010
0000
1001
0000
0000
0010
0100
0000
1010
0000
0010
0000
0001
1000
,
0001
0000
0010
0000
1001
0000
0100
0000
0010
0000
0011
0000
1000
0000
0010
0001
,
1000
0000
0010
0000
0001
0000
0000
0010
0100
0000
1010
0000
0001
0000
0100
1000
,
0001
0000
1000
0000
0101
0000
0001
0000
0010
0000
1100
0000
0100
0000
0001
0010
,
1100
0000
0001
0000
1010
0000
0001
1000
0100
0000
1001
0000
0010
0000
0100
0010
,
1001
0000
0001
0000
0000
1000
0000
0001
,
0110
0000
0000
0000
0001
0000
0000
1000
0001
0000
1000
0000
0010
0000
0100
1000
,
0001
0000
1001
0010
0000
1000
0000
0010
,
1001
1001
0000
1010
0000
0110
0101
0101
,
1010
1010
0110
0110
1100
1100
0011
0011
,
0101
0101
1010
1010
0110
0110
1001
1001
,
0100
0001
0010
0001
0100
0001
0010
0001
0100
0001
0010
0001
0100
0001
0010
0001
,
0100
0001
0010
0001
0100
0001
0010
0001
2000
0000
0000
0000
0002
3000
0000
0000
,
1003
0000
1001
0000
0000
1010
0000
0000
,
1100
0000
0011
0000
0000
1001
2002
0000
,
0000
0000
0000
0000
,
0000
0000
0000
0000
,
0000
0000
0000
3003
,
1000
0000
0000
0001
0000
0000
1000
0000
,
0001
0000
0000
1000
1000
0000
0000
0001
,
0010
0000
0000
0001
0000
0000
0001
0000
,
0010
0000
0000
0100
0000
0000
1000
0000
,
0010
0000
0000
1000
0000
0000
0001
0000
,
0001
0000
0000
1000
1000
0000
0000
1000
,
0001
0000
0000
0010
0000
0000
0001
0000
,
0100
0000
0000
0010
0010
0000
1000
0000
,
1001
0000
1000
0000
0010
0000
0100
0010
1000
0001
0010
0000
1001
0000
0010
0000
,
1001
0000
1000
0000
0010
0000
1000
0010
0001
0100
0001
0000
1100
0000
0100
0000
,
0100
0000
1000
0000
0010
0000
1000
0100
0010
0001
1000
0000
0011
0000
0100
0000
,
1000
0000
1000
0000
0010
0000
0100
0010
0100
0001
1000
0000
1001
0000
0010
0000
,
1010
1010
0101
0101
0110
0110
1001
1001
,
1100
1100
0011
0011
1010
1010
0101
0101
,
1001
0010
0100
1000
0001
0100
0010
1000
0002
0000
0000
0000
2000
0003
0000
0000
,
3001
0000
1000
0000
0001
0010
1000
0000
0001
0000
0010
0000
0101
0000
0001
0000
,
1001
0100
0010
1000
0001
0010
0001
0100
0001
0010
0001
1000
0010
0100
0010
1000
,
0010
0100
0001
0100
0010
1000
0001
0100
0010
1000
0001
0010
0001
0100
0010
1000
,
0100
1000
0010
0100
0001
0010
0001
0100
0001
0010
0001
0100
0010
1000
0010
1000
,
0100
1000
0010
0100
0001
1000
0010
0100
0001
0010
0001
1000
0001
0100
0010
1000
,
0010
0100
0001
0100
0010
1000
0100
1000
0010
0100
0001
1000
0010
0100
0001
0010
,
0001
1000
0010
0100
0001
1000
0010
1000
0100
0010
0001
1000
0100
0010
0001
1000
,
0001
0010
0100
1000
0001
0100
0010
1000
0001
0100
0010
0001
1000
0100
0010
0001
,
2000
0000
0000
0010
3010
0100
0001
1000
,
0001
0100
0010
1000
0001
0100
0001
1000
0010
1000
0010
0100
0001
0010
0001
1000
,
0100
1000
0010
0100
0001
0100
0001
0010
0001
1000
0100
1000
0010
0100
0001
1000
,
0001
0010
0100
1000
0001
0100
0010
0100
0001
1000
0010
0100
0001
1000
0001
0100
,
0010
1000
0001
0100
0001
0010
0001
0010
0100
1000
0010
1000
0001
0100
1000
0001
,
1010
1100
0101
0110
0101
1001
1010
0110
,
0101
0110
1001
1010
0101
0011
0110
0101
,
0011
0100
0010
1000
0001
0010
0001
1000
0010
0100
0001
1000
0100
1000
0010
0100
,
0001
0010
0001
1000
0010
1000
0001
0100
0020
0000
0000
0000
0200
0030
0000
0000
,
0301
0000
1000
0100
0001
0000
1000
0000
,
0010
0000
0011
1000
0101
0000
1001
0010
,
1001
0000
0011
1000
1001
0000
0100
0000
,
0101
0000
0011
0100
1010
0000
0110
0000
,
1001
0100
1001
0100
,
1001
0010
1010
0010
,
0011
1000
0002
0000
,
0000
0000
0000
0000
,
0000
0003
0000
0000
0000
0000
0000
0000
;

//---------------dance-single - 4 Finger Only----------------
#NOTES:
     dance-single:
     4 Finger Only:
     Challenge:
     13:
     1.000,1.000,1.000,0.024,0.737,685.000,229.000,3.000,0.000,66.000:
0000
0000
0000
0000
,
0000
0000
1000
0000
,
0000
0000
0000
0000
,
0000
0000
0000
0000
,
1001
0010
0100
0001
0010
0100
1000
0001
,
0100
0001
0010
0001
1000
0100
0000
1000
,
0011
0100
0001
0010
0001
1000
0010
1000
,
0101
0100
0010
1000
0001
1000
0100
0001
,
1010
1000
0010
0001
0010
1000
0001
0100
,
1001
0010
0100
0001
0001
0100
0000
0001
,
1010
0100
1000
0001
0010
1000
0001
0100
,
1010
1000
0100
0001
0001
1000
0010
0000
,
0011
1000
0100
0001
0010
0100
0001
1000
,
0110
1000
0100
0001
0001
0100
0000
1000
,
0101
0010
0001
0010
0001
0010
1000
0010
,
0101
1000
0001
0010
1000
0100
0010
1000
,
1100
1000
0100
0010
0001
1000
0101
0110
,
0011
1000
0001
0100
0010
1000
0010
0100
,
0011
1000
0100
0010
0001
0010
0100
1000
,
1001
0100
0010
0001
1000
0100
1001
0000
,
0000
0000
0000
0000
,
0000
0001
0010
1100
0000
0000
0000
0000
0000
0000
0000
0000
0000
0000
0000
0000
,
1101
0000
0001
0000
0010
0000
0100
0000
0001
0000
1101
0000
0010
0000
0001
0010
,
1101
0000
0001
0000
0010
0001
1000
0000
1000
0000
1011
0000
0100
0000
0001
0100
,
1011
0000
0100
0000
0001
0000
0010
0000
0001
0000
1110
0000
0001
0000
0001
1000
,
0111
0000
0010
0000
1001
0000
0000
0010
0100
0000
1011
0000
0010
0000
0100
0001
,
1110
0000
0010
0000
1001
0000
0100
0000
0010
0000
1011
0000
1000
0000
0001
0010
,
1101
0000
0010
0000
1001
0000
0000
0010
0100
0000
1110
0000
0001
0000
0100
1000
,
0111
0000
1000
0000
0101
0000
0001
0000
0010
0000
1101
0000
0100
0000
0001
0100
,
1011
0000
0001
0000
1010
0000
0001
1000
0100
0000
1101
0000
0010
0000
0010
0001
,
1110
0000
0101
0000
0000
1110
0000
0001
,
0111
0000
0000
0000
0101
0000
0000
0100
1000
0000
1011
0000
0011
0000
0100
1000
,
0111
0000
1011
1110
0000
1101
0000
0010
,
1101
0000
1011
0000
0100
0000
1010
0001
0100
0000
1101
0000
1101
0000
0011
0100
,
1011
0011
1101
0101
0011
1011
0101
0011
,
0111
1001
1101
0101
0101
1101
1101
0011
,
1101
0010
0001
0010
1101
0010
0001
0010
0101
0010
1001
0010
0101
0010
0101
0010
,
1001
0000
0000
0000
0000
0000
0000
0000
0000
0000
0000
0000
0100
0000
0000
0000
0000
0000
0000
0000
0000
0000
0000
0000
0001
0000
0000
0000
0000
0000
0000
0000
0000
0000
0000
0000
0100
0000
0000
0000
0000
0000
0000
0000
0000
0000
0000
0000
1011
0000
0000
0000
0000
0000
0000
0000
0000
0000
0000
0000
0100
0000
0000
0000
0000
0000
0000
0000
0000
0000
0000
0000
0010
0000
0000
0000
0000
0000
0000
0000
0000
0000
0000
0000
0100
0000
0000
0000
0000
0000
0000
0000
0000
0000
0000
0000
1001
0000
0000
0000
0000
0000
0000
0000
0010
0000
0000
0000
0000
0000
0000
0000
0100
0000
0000
0000
0000
0000
0000
0000
1000
0000
0000
0000
0000
0000
0000
0000
0100
0000
0000
0000
0000
0000
0000
0000
0010
0000
0000
0000
0000
0000
0000
0000
0001
0000
0000
0000
0000
0000
0010
0000
0000
0000
0000
0000
0100
0000
0000
0000
0000
0000
1000
0000
0000
0000
0000
0000
0001
0000
0000
0000
0000
0000
0010
0000
0000
0000
0000
0000
0100
0000
0000
0000
0000
0000
1000
0000
0000
0000
0000
0000
,
0011
0000
1001
0000
0000
1010
0000
0000
,
1100
0000
0011
0000
0000
1001
2002
0000
,
0000
0000
0000
0000
,
0000
0000
0000
0000
,
0000
0000
0000
3003
,
1000
0000
0000
0001
0000
0000
1000
0000
,
0001
0000
0000
1000
1000
0000
0000
0001
,
0010
0000
0000
0001
0000
0000
0001
0000
,
0010
0000
0000
0100
0000
0000
1000
0000
,
1000
0000
0000
0010
0000
0000
0001
0000
,
0001
0000
0000
1000
1000
0000
0000
1000
,
0001
0000
0000
0010
0000
0000
0001
0000
,
0100
0000
0000
0010
0010
0000
1100
0000
,
0111
0000
1000
0000
0010
0000
1001
0010
1000
0010
1000
0000
0110
0000
0010
0000
,
1001
0000
1000
0000
0010
0000
1001
0010
0101
0010
1000
0000
0100
0000
0101
0000
,
1100
0000
1000
0000
0010
0000
1100
0001
0100
0001
1010
0000
0011
0000
0100
0000
,
1010
0000
1000
0000
0010
0000
0110
0001
0100
0010
1000
0000
1001
0000
0001
0000
,
1101
0101
1001
0101
1011
0011
1101
0101
,
1110
1100
0111
1100
1101
1010
1011
1100
,
1011
0000
0000
0000
0000
0000
0000
0000
0000
0000
0000
0000
0100
0000
0000
0000
0000
0000
0000
0000
0000
0000
0000
0000
1000
0000
0000
0000
0000
0000
0000
0000
0000
0000
0000
0000
0010
0000
0000
0000
0000
0000
0000
0000
0000
0000
0000
0000
1001
0000
0000
0000
0000
0000
0000
0000
0000
0000
0000
0000
0010
0000
0000
0000
0000
0000
0000
0000
0000
0000
0000
0000
1000
0000
0000
0000
0000
0000
0000
0000
0000
0000
0000
0000
0001
0000
0000
0000
0000
0000
0000
0000
0000
0000
0000
0000
1100
0000
0000
0000
0000
0000
0000
0000
0001
0000
0000
0000
0000
0000
0000
0000
0010
0000
0000
0000
0000
0000
0000
0000
0100
0000
0000
0000
0000
0000
0000
0000
1000
0000
0000
0000
0000
0000
0000
0000
0100
0000
0000
0000
0000
0000
0000
0000
0010
0000
0000
0000
0000
0000
0001
0000
0000
0000
0000
0000
0010
0000
0000
0000
0000
0000
0100
0000
0000
0000
0000
0000
1000
0000
0000
0000
0000
0000
0001
0000
0000
0000
0000
0000
0010
0000
0000
0000
0000
0000
0100
0000
0000
0000
0000
0000
,
1001
0000
1000
0000
0001
0010
1000
0000
0001
0000
0010
0000
0101
0000
0001
0000
,
1011
0100
0010
0100
0001
0100
1001
0100
0010
0100
1000
0100
1001
0100
0011
0100
,
1011
0100
1000
0100
0010
0100
1001
0100
0011
0100
1000
0100
0010
0100
1010
0001
,
1110
0001
1000
0010
0100
0010
1001
0010
1100
0010
1000
0010
1001
0010
1001
0010
,
1101
0010
1000
0010
0001
0010
1001
0010
0100
0010
1000
0010
0101
0010
1001
0100
,
1011
0100
0001
1000
0010
1000
0101
1000
0010
1000
0100
1000
0011
1000
0110
1000
,
0111
1000
0100
1000
0001
1000
0101
1000
0011
1000
0100
1000
0010
1000
0101
0010
,
1101
0010
0100
0001
1000
0001
1010
0001
1000
0001
0100
0001
1010
0001
1100
0001
,
1110
0001
1000
0001
0010
0001
1100
0001
1010
0001
1000
0001
0110
0001
1100
0010
,
1101
0010
1000
0100
0001
0100
1010
0100
1010
0100
0011
0100
1000
0100
0011
0100
,
1011
0100
0010
0100
1010
0100
1001
0100
1001
0100
0010
0100
1010
0100
1001
0010
,
1101
0010
0001
0010
1001
0100
1010
0001
0110
1000
0011
0100
1010
0001
0110
1000
,
0111
1000
0001
0100
0011
1000
0110
0001
1100
0010
0001
1000
0011
0100
1010
0100
,
1011
0000
0001
0000
1101
0000
0011
0100
1011
0100
0011
0000
1001
0000
1001
0000
,
0111
0000
1001
0000
1011
0000
1100
0010
1101
0010
1100
0000
0110
0000
0011
0000
,
1110
0001
1100
0010
1001
0100
0011
1000
0011
0100
1001
0010
1100
0001
1100
0010
,
1001
0000
0000
0000
0000
0000
0000
0000
0000
0000
0000
0000
0100
0000
0000
0000
0000
0000
0000
0000
0000
0000
0000
0000
0011
0000
0000
0000
0000
0000
0000
0000
0000
0000
0000
0000
1000
0000
0000
0000
0000
0000
0000
0000
0000
0000
0000
0000
0101
0000
0000
0000
0000
0000
0000
0000
0000
0000
0000
0000
0010
0000
0000
0000
0000
0000
0000
0000
0000
0000
0000
0000
1100
0000
0000
0000
0000
0000
0000
0000
0000
0000
0000
0000
0001
0000
0000
0000
0000
0000
0000
0000
0000
0000
0000
0000
1000
0000
0000
0000
0000
0000
0000
0000
0100
0000
0000
0000
0000
0000
0000
0000
0010
0000
0000
0000
0000
0000
0000
0000
0001
0000
0000
0000
0000
0000
0000
0000
0010
0000
0000
0000
0000
0000
0000
0000
0100
0000
0000
0000
0000
0000
0000
0000
1000
0000
0000
0000
0000
0000
0100
0000
0000
0000
0000
0000
0010
0000
0000
0000
0000
0000
0001
0000
0000
0000
0000
0000
1000
0000
0000
0000
0000
0000
0100
0000
0000
0000
0000
0000
0010
0000
0000
0000
0000
0000
0001
0000
0000
0000
0000
0000
,
1000
0000
1000
0100
0001
0000
1001
0000
,
0010
0000
0011
1000
0101
0000
1001
0010
,
1001
0000
0011
1000
1001
0000
0100
0000
,
0101
0000
0011
0100
1010
0000
0110
0000
,
1001
0110
1001
0100
,
0001
0011
1010
0110
,
0011
0110
0002
0000
,
0000
0000
0003
0000
;
