#TITLE:Onigiri;
#SUBTITLE:;
#ARTIST:DJ Sharpnel;
#TITLETRANSLIT:;
#SUBTITLETRANSLIT:;
#ARTISTTRANSLIT:;
#CREDIT:;
#BANNER:onigiri-bn.PNG;
#BACKGROUND:Onigiri-bg.PNG;
#LYRICSPATH:;
#CDTITLE:cdtitle.PNG;
#MUSIC:DJ Sharpnel - Onigiri.mp3;
#OFFSET:0.043;
#SAMPLESTART:14.810;
#SAMPLELENGTH:14.600;
#SELECTABLE:YES;
#BPMS:0.000=215.331;
#STOPS:;
#BGCHANGES:;
// cache tags:
#FIRSTBEAT:0.000;
#LASTBEAT:427.000;
#SONGFILENAME:Songs/keyboard/onigiri/Onigiri.sm;
#HASMUSIC:1;
#HASBANNER:1;
#MUSICLENGTH:120.450;
// end cache tags

//---------------dance-single - ----------------
#NOTES:
     dance-single:
     :
     Hard:
     12:
     1.000,1.000,1.000,0.042,0.826,893.000,270.000,5.000,0.000,0.000:
2000
0000
0000
0000
,
0000
0000
0000
3000
,
1001
0110
0011
1100
,
0110
0101
0110
1010
,
1100
0110
0011
0110
,
1100
0000
0110
0000
0011
0000
0110
0110
,
1001
0011
1100
1001
,
0110
0000
1010
0000
0011
0000
1001
0110
,
1100
0011
0110
0000
0011
0000
0110
0011
,
1100
0000
0000
0000
0000
0000
1000
0100
0010
0000
0001
0000
0010
0000
0100
0000
,
1010
0001
0110
1000
0101
0010
1100
0001
,
0110
1000
0101
0010
1001
0100
0011
1000
,
0011
0100
1010
0001
1100
0010
1001
0100
,
0011
1000
0101
0010
1001
0100
0011
1100
,
0110
0001
1100
0010
0101
0010
1001
0100
,
1000
0100
0010
0100
1000
0100
0010
0001
0010
0100
0010
0001
0010
0100
1000
0100
,
0010
0001
0010
0100
1000
0100
0010
0001
0100
0010
0001
0010
0100
1000
0100
0010
,
1001
0000
0000
0000
0110
0000
0000
0000
1010
0000
0000
0011
1100
0000
0010
0000
,
1001
0000
0100
0000
0010
0000
0100
0010
0001
0010
1000
0100
0010
0000
0001
0000
,
0100
0000
0010
0000
1000
0100
0010
0001
0010
0100
1000
0000
0010
0000
0000
0000
,
1000
0000
0100
0000
0001
0000
0010
0100
0001
1000
0100
0010
0100
0000
0001
0000
,
0100
0000
0010
0000
0100
1000
0001
0100
0010
0100
1000
0000
0011
0000
0000
0000
,
1001
1100
0110
0101
,
1001
1100
0101
1100
,
0110
0011
1010
0110
,
0011
0110
0101
1010
,
1001
1000
1100
0100
0110
0010
0011
0001
,
1001
1000
1100
0100
0110
0100
1100
1000
,
1001
0001
0011
0010
0110
0100
0101
0001
,
1001
1000
1100
1000
1010
0010
0011
0001
,
0101
0100
0110
0100
1100
1000
1100
0001
,
0010
0001
0100
0010
0001
1000
0100
0010
0001
0010
0100
1000
0001
0010
0100
1000
,
0100
0010
0001
1000
0100
0010
1000
0100
0001
0010
0100
1000
0100
0010
0001
0010
,
1001
0000
0000
0000
0000
0000
0000
0000
1001
0010
1001
0000
0010
0000
0100
0000
,
0011
0000
0100
0000
1000
0000
0001
0100
0010
1000
0100
0000
0010
0000
0001
0000
,
0100
0000
1000
0000
0010
0100
0001
0100
0010
1000
0100
0000
0001
0000
0000
0000
,
1000
0000
0100
0000
0010
0000
0100
0001
1000
0100
0001
0000
0010
0000
0100
0000
,
1000
0000
0001
0000
0100
0001
1000
0010
1000
0100
0001
0000
0010
0000
0000
0000
,
0010
0000
0100
0000
0001
0000
1000
0100
1000
0010
1000
0000
0001
0000
0100
0000
,
0010
0000
1000
0000
0001
0010
0100
0001
1000
0100
0010
0000
0100
0000
0000
0000
,
0001
0000
1000
0000
0100
0000
0010
1000
0100
0001
0010
0000
0100
0000
1000
0000
,
0010
0000
0100
0000
0010
0100
0001
0010
0100
1000
0100
0000
0002
0000
0023
0000
,
1030
0000
0100
0000
0010
0000
0100
1000
0100
0010
0001
0000
0010
0000
0100
0000
,
1000
0000
0001
0000
0100
1000
0010
0100
0001
0100
0010
0000
1000
0000
0000
0000
,
0001
0000
0010
0000
0100
0000
0010
1000
0100
0001
0100
0000
0010
0000
0001
0000
,
0100
0000
0010
0000
1000
0100
0001
1000
0100
0010
0100
0000
0001
0000
0000
0000
,
0001
0000
0100
0000
0010
0000
1000
0100
0001
0100
1000
0000
0010
0000
0100
0000
,
0001
0000
0100
0000
0001
0100
0001
0010
0100
0010
0001
0000
0010
0000
0000
0000
,
0100
0000
0010
0000
0100
0000
0001
0100
1000
0010
0001
0000
0100
0000
0010
0000
,
1001
0110
1001
0000
0101
0000
1100
0000
,
1001
0000
0100
0000
1010
0000
0100
0010
0101
0010
0100
0000
1010
0000
0100
0000
,
0011
0000
0100
0000
1010
0100
0010
0001
0110
1000
0100
0010
1100
0000
0000
0000
,
0011
0000
0100
0000
1010
0000
0001
0100
0011
0100
1000
0000
0110
0000
0001
0000
,
1010
0000
0001
0000
1100
0010
0001
1000
0110
0001
0010
0100
0011
0000
0000
0000
,
1100
0000
0010
0000
0101
0000
0010
1000
0110
0001
0010
0000
1100
0000
0001
0000
,
0110
0000
0001
0000
1010
0001
0010
0100
1010
0100
0010
0001
1100
0000
0000
0000
,
0011
0000
0100
0000
1010
0000
0001
0010
0101
0010
1000
0000
0101
0000
0010
0000
,
1001
0000
0000
0000
1100
0011
0000
0011
,
1100
0011
0110
1001
,
1100
0101
0110
1001
,
0011
0101
1100
1010
,
0110
1001
0101
1100
,
0011
1001
1010
0110
,
1100
0101
0110
1010
,
0001
0010
0100
0001
0010
0100
1000
0100
0010
0001
1000
0100
0010
1000
0100
0010
,
0001
0100
0010
0001
1000
0100
0010
0001
0010
0100
0001
0010
0100
1000
0100
0010
,
1001
1000
1000
0010
0000
0010
0000
0010
,
0000
0010
0000
0110
0011
0110
1100
0110
,
1001
0010
0010
0001
0000
0001
0000
0001
,
0000
0001
0000
0101
1100
0011
1100
0101
,
0110
0000
1000
0000
0100
0000
0001
0010
0100
0000
1000
0100
0010
0001
0010
0000
,
1000
0000
0010
0000
0100
0000
0001
1000
0100
0000
0010
1000
0001
0010
0100
0000
,
0010
0000
0100
0000
0001
0000
0100
0010
0100
0000
0001
0100
0001
1000
0100
0000
,
0010
0000
0001
0000
1000
0000
0001
0010
0100
0000
0100
0010
0001
0000
0000
0000
,
1010
0000
0010
0000
0011
0000
0100
1000
0011
0000
0100
0010
0101
0010
1000
0000
,
0110
0000
1000
0000
0101
0000
0010
0001
1100
0000
0001
0010
1001
0100
0010
0000
,
1100
0000
0010
0000
0101
0000
0010
1000
0110
0000
0001
0010
1100
0010
0001
0000
,
1100
0000
0001
0000
1010
0000
0001
1000
0110
0000
1000
0001
0110
0000
0000
0000
,
1010
0000
0001
0000
0110
0000
0001
0010
1001
0000
0100
1000
0011
0100
0001
0000
,
1010
0000
0100
0000
0011
0000
1000
0010
0101
0000
0010
0100
0011
1000
0100
0000
,
0011
0000
0100
0000
1000
0000
0001
1000
0110
0000
0001
0100
1010
0100
0010
0000
,
1001
0000
0100
0000
0001
0000
0100
0010
0001
0000
1000
0100
0010
0100
0010
0000
,
1001
0011
0110
1010
,
1100
0110
0101
0011
,
0110
1010
0101
1001
,
1100
0000
0000
0000
0011
0000
0000
0000
1100
0011
1100
0000
1001
0000
1010
0000
,
0110
1000
1000
0011
0000
0100
0000
0100
,
0000
0100
0000
0100
1100
0100
0101
1100
,
0010
0100
1000
0001
0010
0100
0010
0001
1000
0100
0010
1000
0001
0010
0100
1000
,
0100
0010
0001
1000
0100
0010
1000
0100
0010
0001
0010
0100
0001
0010
0100
0010
,
1001
0000
0100
0000
0010
0000
0100
0010
0001
0000
0010
1000
0100
0010
0100
0000
,
1001
0000
0000
0000
0000
0000
0110
0110
,
1001
0000
0100
0000
0010
0000
1000
0100
1000
0000
0010
0100
0001
1000
0100
0000
,
0010
0000
0100
0000
0010
0000
0001
1000
0100
0000
0010
0100
0001
1000
0100
0000
,
0010
0000
0001
0000
0100
0000
0001
0100
0001
0000
1000
0100
1000
0010
0100
0000
,
1001
0000
0000
0000
0000
0000
1100
1100
,
0011
0000
1000
0000
0100
0000
0001
0010
0001
1000
0010
1000
0100
0001
0000
0000
,
0010
0000
0001
0000
1000
0000
0010
0100
0001
0000
0001
0100
1000
0010
0100
0000
,
0011
0000
0011
0000
0011
0010
0010
0011
,
1100
0100
0100
0110
0000
0110
1001
0000
,
1100
0000
1100
0000
0011
0010
0010
0110
,
1100
0100
0100
1100
0000
0011
0110
0000
,
1100
0000
0010
0000
0011
0000
0100
0010
1001
0000
0100
0010
1100
0010
0100
0000
,
0011
0000
0100
0000
0011
0000
0100
0010
1100
0000
0010
0001
1100
0010
0100
0000
,
0011
0000
0100
0000
0110
0000
0100
1000
0101
0000
0010
0001
1100
0010
0001
0000
,
0110
0000
0000
0000
0110
1001
1010
0011
,
2200
0000
0000
3300
;
