#TITLE:Caprice;
#SUBTITLE:;
#ARTIST:Paganini, Shlomo Mintz;
#TITLETRANSLIT:;
#SUBTITLETRANSLIT:;
#ARTISTTRANSLIT:;
#CREDIT:;
#BANNER:caprice(1).png;
#BACKGROUND:caprice.png;
#LYRICSPATH:;
#CDTITLE:;
#MUSIC:Paganini - Caprice 05 - Shlomo Mintz .mp3;
#OFFSET:0.000;
#SAMPLESTART:15.000;
#SAMPLELENGTH:12.000;
#SELECTABLE:YES;
#BPMS:0.000=400.000;
#STOPS:;
#BGCHANGES:;
// cache tags:
#FIRSTBEAT:5.000;
#LASTBEAT:807.667;
#SONGFILENAME:Songs/Essential Sim Collection/(Hyrogashi) caprice/Caprice.sm;
#HASMUSIC:1;
#HASBANNER:1;
#MUSICLENGTH:130.059;
// end cache tags

//---------------dance-single - ----------------
#NOTES:
     dance-single:
     :
     Hard:
     10:
     1.000,1.000,0.115,0.000,0.004,1287.000,15.000,0.000,0.000,0.000:  // measure 1
0000
0000
0000
0000
,  // measure 2
0000
0000
0001
0000
0000
0100
0000
0000
,  // measure 3
1000
0010
0001
0100
1000
0010
0001
0100
,  // measure 4
0010
0000
0000
0000
,  // measure 5
0001
0010
0100
1000
0010
0001
0010
0100
,  // measure 6
1000
0010
0001
0010
0100
1000
0001
0010
,  // measure 7
0100
1000
0001
0010
0100
1000
0000
0000
,  // measure 8
0000
0000
0000
0000
0100
0000
0000
0001
,  // measure 9
0010
0001
1000
0010
0001
0010
0001
0010
,  // measure 10
0000
0000
0000
0000
,  // measure 11
0000
0000
0000
0000
0000
0000
0001
1000
,  // measure 12
0010
0100
0001
1000
0010
0100
0001
1000
,  // measure 13
0010
0100
0001
1000
0010
0100
0001
1000
,  // measure 14
0010
0100
0001
1000
0010
0100
0001
1000
,  // measure 15
0010
0100
0001
0000
0000
0000
0000
0000
,  // measure 16
0000
0000
0000
1000
0100
0010
0001
1000
,  // measure 17
0100
0010
0001
1000
0001
0100
0010
0010
,  // measure 18
0000
0000
0000
0000
,  // measure 19
0000
0000
0000
0000
0001
0010
1000
0100
,  // measure 20
0001
0010
1000
0001
0100
1000
0100
0001
,  // measure 21
0010
1000
0100
0001
1000
0010
0100
0001
,  // measure 22
0010
0001
0100
1000
0010
0100
0000
0000
,  // measure 23
0000
0000
0000
0000
0001
0010
1000
0100
,  // measure 24
0001
0010
1000
0100
0001
0010
0100
1000
,  // measure 25
0100
0010
0001
0010
0000
0000
0000
0000
,  // measure 26
0000
0000
0000
0000
,  // measure 27
0000
0001
0010
0100
1000
0001
0010
0100
,  // measure 28
1000
0001
0010
0100
1000
0001
0010
0100
,  // measure 29
1000
0100
1000
0001
0010
0100
1000
0001
,  // measure 30
0010
0100
1000
0001
0010
0100
1000
0100
,  // measure 31
0000
0000
0000
0000
,  // measure 32
0000
0000
0000
0000
1000
0100
0010
0001
,  // measure 33
1000
0100
0010
0001
1000
0100
0010
0001
,  // measure 34
0010
0100
1000
0001
0010
0100
1000
0001
,  // measure 35
0010
0100
1000
0001
0010
1000
0001
0010
,  // measure 36
0100
1000
0001
0010
0100
1000
0001
0010
,  // measure 37
0100
1000
0100
0010
0001
1000
0100
0010
,  // measure 38
1000
0010
0100
0000
0000
0000
0000
0000
,  // measure 39
0000
0000
0000
0100
,  // measure 40
0000
0000
0000
0000
,  // measure 41
0000
0101
0000
0000
,  // measure 42
0000
0000
0000
0000
,  // measure 43
0000
0000
0000
0000
,  // measure 44
0000
0000
0000
0000
,  // measure 45
0000
0000
0000
1000
0100
0010
0100
1000
,  // measure 46
0001
0010
0001
0100
0001
0010
1000
0100
,  // measure 47
0010
0001
1000
0100
0010
0001
1000
0100
,  // measure 48
0010
0001
0010
0100
1000
0001
0010
0100
,  // measure 49
1000
0001
0010
0100
1000
0100
0001
0010
,  // measure 50
1000
0100
0001
0010
1000
0100
0001
0010
,  // measure 51
1000
0100
0001
0010
1000
0100
0001
0100
,  // measure 52
1000
0010
0001
0100
1000
0010
0001
0100
,  // measure 53
1000
0010
0001
1000
0010
0100
0001
1000
,  // measure 54
0010
0100
0001
1000
0010
0100
0001
1000
,  // measure 55
0010
0100
0001
1000
0001
0100
0010
1000
,  // measure 56
0001
0100
0010
1000
0001
0100
0010
1000
,  // measure 57
0001
0100
0010
0100
0001
0010
0100
1000
,  // measure 58
0000
1001
0000
0001
0010
0000
0110
0000
,  // measure 59
0010
1000
0100
0001
0010
1000
0001
0010
,  // measure 60
0100
1000
0001
1000
0100
0010
0001
0010
,  // measure 61
0100
1000
0100
0010
0001
0010
0100
1000
,  // measure 62
0001
0010
0100
1000
0001
0010
0100
1000
,  // measure 63
0001
0010
0100
1000
0001
0010
0100
1000
,  // measure 64
0100
1000
0100
1000
0100
1000
0100
1000
,  // measure 65
0100
0001
0010
1000
0100
0001
0100
1000
,  // measure 66
0100
0001
0100
1000
0010
0001
0010
1000
,  // measure 67
0010
0001
1000
0010
0001
0100
1000
0010
,  // measure 68
0001
1000
0001
0100
0010
1000
0001
0010
,  // measure 69
0100
0001
0010
0100
1000
0001
0010
0100
,  // measure 70
1000
0001
1000
0010
0001
0100
1000
0010
,  // measure 71
0001
0100
1000
0001
0010
0100
1000
0100
,  // measure 72
0010
0001
1000
0100
0010
0001
1000
0100
,  // measure 73
0010
0001
1000
0100
0001
0010
0001
0010
,  // measure 74
0001
0010
0001
0100
1000
0010
0001
0100
,  // measure 75
0001
0100
0001
0100
0001
1000
0010
0001
,  // measure 76
0100
0100
0000
0000
0000
0100
1000
0100
,  // measure 77
1000
0010
0001
0100
1000
0010
1000
0010
,  // measure 78
1000
0010
1000
0000
0010
0001
0100
1000
,  // measure 79
0001
0010
0100
1000
0100
1000
0100
1000
,  // measure 80
0100
1000
0001
1000
0100
1000
0001
0100
,  // measure 81
0001
0010
1000
0100
1000
0001
0100
1000
,  // measure 82
0001
0010
1000
0001
0100
1000
0100
1000
,  // measure 83
0010
0001
1000
0100
0001
0010
1000
0100
,  // measure 84
0001
0010
0001
0100
1000
0100
0010
0100
,  // measure 85
0001
0010
0001
0100
1000
0001
0010
0100
,  // measure 86
1000
0100
0001
1000
0010
0001
0010
0100
,  // measure 87
1000
0001
0010
0100
1000
0001
0010
0100
,  // measure 88
1000
0001
0010
0100
1000
0001
0010
0000
,  // measure 89
1000
0001
0010
0100
1000
0001
0010
0100
,  // measure 90
1000
0001
0010
0100
1000
0001
0010
0100
,  // measure 91
1000
0001
0010
0100
1000
0001
0010
0100
,  // measure 92
1000
0001
0010
0100
1000
0001
0010
0100
,  // measure 93
1000
0001
0010
0000
1000
0100
0001
0010
,  // measure 94
1000
0100
0001
0010
1000
0100
0001
0010
,  // measure 95
1000
0100
0001
0010
0000
0001
0010
0100
,  // measure 96
0001
0010
0100
1000
0100
0010
1000
0100
,  // measure 97
0010
1000
0001
0010
0100
1000
1010
0001
,  // measure 98
0010
0100
0001
0010
0100
1000
0100
0010
,  // measure 99
0001
0010
0100
1000
0100
0000
0000
0000
,  // measure 100
0000
0001
0010
0001
0010
0100
0010
0100
,  // measure 101
0010
1000
0010
1000
0010
0001
0100
1000
,  // measure 102
0001
0010
0100
1000
0001
0010
0100
1000
,  // measure 103
0001
0010
0100
1000
0001
0010
0100
1000
,  // measure 104
0001
0010
0100
1000
0001
0010
0100
1000
,  // measure 105
0001
0010
0100
1000
0100
0010
0001
1000
,  // measure 106
0100
0010
0001
1000
0100
0010
0001
1000
,  // measure 107
0100
0010
0001
0010
0100
1000
0100
0010
,  // measure 108
0001
0010
0100
1000
0100
0001
0010
1000
,  // measure 109
0100
0001
0010
1000
0001
0010
0100
1000
,  // measure 110
0010
0001
0100
1000
0010
0001
0100
1000
,  // measure 111
0001
0010
0100
1000
0100
0010
0001
0100
,  // measure 112
1000
0010
1000
0100
0001
0010
1000
0001
,  // measure 113
0010
0100
0001
1000
0010
0100
0001
0100
,  // measure 114
0010
1000
0100
0010
0000
0101
0000
0100
,  // measure 115
0000
1100
0000
0010
0000
0011
0000
0010
,  // measure 116
0000
1010
0000
0001
1000
0010
0100
0001
,  // measure 117
0100
1000
0100
0001
0010
0001
1000
0100
,  // measure 118
1000
0001
0010
1000
0100
0001
0010
0001
,  // measure 119
1000
0100
1000
0001
0100
0001
0010
1000
,  // measure 120
0010
0001
0010
0001
0010
0100
1000
0100
,  // measure 121
0010
0001
0100
1000
0001
1000
0100
1000
,  // measure 122
0010
0001
1000
0100
0001
1000
0100
0010
,  // measure 123
0001
1000
0100
0001
0100
1000
0010
0001
,  // measure 124
1000
0100
0001
1000
0001
0100
1000
0010
,  // measure 125
0001
0000
0001
0010
0100
1000
0000
1000
,  // measure 126
0100
0010
0001
0000
0001
0100
1000
0000
,  // measure 127
1000
0100
0001
0000
1000
0010
0001
0000
,  // measure 128
0001
0010
1000
0100
1000
0100
0001
0010
,  // measure 129
1000
0100
0001
0010
1000
0100
0001
0001
,  // measure 130
0010
0100
1000
0100
0010
0000
1001
0000
,  // measure 131
0010
1001
0010
1001
,  // measure 132
0010
0000
1001
0000
1000
0100
0000
0001
,  // measure 133
0100
0000
0001
0010
0000
1000
0010
0000
,  // measure 134
0001
0100
0000
1000
0100
0000
0001
0010
,  // measure 135
0000
1000
0010
0000
1000
0100
0000
0100
,  // measure 136
0010
0000
0010
0001
0000
0001
0100
0000
,  // measure 137
0100
0010
0000
0010
1000
0100
0001
1000
,  // measure 138
0010
0001
0100
0001
0100
0001
0100
0001
,  // measure 139
0100
0010
1000
0001
0100
0001
0100
0001
,  // measure 140
0100
1000
0010
1000
0001
0100
0010
1000
,  // measure 141
0100
0010
0001
1000
0100
0010
0001
1000
,  // measure 142
0100
0010
0001
1000
0100
0010
0001
1000
,  // measure 143
0001
0100
0010
0001
1000
0010
0000
0000
,  // measure 144
0000
0000
0001
0010
0100
1000
0100
0010
,  // measure 145
0001
1000
0100
0010
0001
0000
0001
0010
,  // measure 146
0100
1000
0100
0010
0001
1000
0100
0010
,  // measure 147
0001
1000
0100
0010
0001
0010
0100
1000
,  // measure 148
0100
0010
0001
0010
0100
1000
0100
0010
,  // measure 149
0001
1000
0010
0100
0001
1000
0010
0100
,  // measure 150
0001
1000
0010
1000
0001
1000
0010
0100
,  // measure 151
0001
1000
0010
0100
0001
1000
0010
0100
,  // measure 152
0001
1000
0010
0100
0001
1000
0010
0100
,  // measure 153
0001
1000
0010
0100
0001
0010
0100
1000
,  // measure 154
0001
0010
0100
1000
0001
0010
0100
1000
,  // measure 155
0100
0010
0100
1001
0000
0000
0000
0000
,  // measure 156
0000
0000
0001
0100
1000
0100
0001
0100
,  // measure 157
1000
0100
0001
0010
1000
0100
0010
0100
,  // measure 158
1000
0100
0010
0100
1000
0100
0001
0100
,  // measure 159
0010
0100
0001
0100
0010
0100
0001
0010
,  // measure 160
1000
0010
0001
0010
1000
0010
0001
1000
,  // measure 161
0010
0100
0001
1000
0010
0100
0001
0010
,  // measure 162
1000
0001
0100
0010
1000
0100
0001
1000
,  // measure 163
0010
0100
0001
0000
1000
0000
0100
0000
,  // measure 164
0000
0001
0000
1000
0000
0010
0000
0100
,  // measure 165
0000
0000
0000
0001
0000
0110
0000
0000
,  // measure 166
0000
0000
0000
0000
,  // measure 167
0000
1000
0000
0000
0100
0000
0000
0010
,  // measure 168
0000
0001
0000
0000
0100
0000
0000
0000
,  // measure 169
0000
0000
0000
0000
0000
0000
0000
1000
,  // measure 170
0100
0010
0001
1000
0010
0100
1000
0100
,  // measure 171
0010
0001
1000
0010
0100
0001
0010
0100
,  // measure 172
0001
0100
0000
1000
0000
0000
0000
0000
,  // measure 173
0000
0000
0001
0010
0100
1000
0100
0010
,  // measure 174
0001
0010
0100
1000
0100
0010
0001
0000
,  // measure 175
0000
0000
0000
0000
0000
0000
0000
0001
,  // measure 176
0010
0100
1000
0001
0010
0100
1000
0001
,  // measure 177
0010
0100
1000
0001
0010
0100
1000
0001
,  // measure 178
0010
0100
0010
0001
0100
1000
0000
0000
,  // measure 179
0000
0000
0000
0000
1000
0001
0010
0100
,  // measure 180
1000
0001
0010
0100
1000
0001
0010
0100
,  // measure 181
1000
0001
0010
0100
0010
0000
0000
0000
,  // measure 182
0000
0000
0000
0000
0001
1000
0100
0010
,  // measure 183
0001
1000
0100
0010
0001
1000
0100
0010
,  // measure 184
0001
1000
0100
0010
0001
1000
0100
0010
,  // measure 185
0001
0100
0000
0000
0000
0000
0000
0000
,  // measure 186
1000
0100
0010
0001
0010
0100
1000
0001
,  // measure 187
1000
0010
0100
0001
1000
0100
0010
0000
,  // measure 188
0000
0000
0000
0000
0000
0000
0000
0100
,  // measure 189
0001
0010
1000
0010
0001
0100
1000
0001
,  // measure 190
0100
0001
1000
0100
1000
0010
1000
0001
,  // measure 191
0010
1000
0001
1000
0010
0100
1000
0001
,  // measure 192
0100
0010
0100
0000
0000
0000
0000
0000
,  // measure 193
0000
0000
0000
0000
,  // measure 194
0000
1000
0100
0010
0001
1000
0100
0010
,  // measure 195
0001
1000
0100
0010
0001
1000
0100
0010
,  // measure 196
0001
0010
0100
1000
0001
0010
0100
1000
,  // measure 197
0001
0010
0100
1000
0001
0010
0100
1000
,  // measure 198
0001
1000
0010
0100
0001
1000
0010
0100
,  // measure 199
0001
1000
0010
0100
0000
0000
1001
0000
,  // measure 200
0000
0000
0000
0000
,  // measure 201
0000
0000
0000
0000
,  // measure 202
0000
0000
0000
0000
0000
0000
0000
0000
0000
0000
0000
0000
0000
0000
0000
0000
0000
0000
0000
0000
0000
0010
0100
0000
;
