#TITLE:Indian Crystals;
#SUBTITLE:;
#ARTIST:Kaikkialla;
#TITLETRANSLIT:;
#SUBTITLETRANSLIT:;
#ARTISTTRANSLIT:;
#CREDIT:;
#BANNER:../Jawn - ban.png;
#BACKGROUND:../Jawn - bg.png;
#LYRICSPATH:;
#CDTITLE:;
#MUSIC:Indian Crystals.ogg;
#OFFSET:0.009;
#SAMPLESTART:172.792;
#SAMPLELENGTH:19.691;
#SELECTABLE:YES;
#BPMS:0.000=200.000;
#STOPS:;
#BGCHANGES:;
// cache tags:
#FIRSTBEAT:0.000;
#LASTBEAT:1440.000;
#SONGFILENAME:Songs/Jimmy Jawns/Indian Crystals - [Aoreo]/Indian Crystals.sm;
#HASMUSIC:1;
#HASBANNER:1;
#MUSICLENGTH:434.797;
// end cache tags

//---------------dance-single - J. Nero----------------
#NOTES:
     dance-single:
     J. Nero:
     Challenge:
     18:
     1.000,1.000,0.002,0.005,1.000,5160.000,1.000,2.000,1.000,0.000:
0001
0000
1000
0000
0000
0001
0000
0100
,
0000
0000
0000
0000
0001
0000
0001
1000
,
0100
0000
0010
0000
0000
0001
0000
1000
,
0000
0000
0000
0000
0000
0000
0000
0000
0001
0000
1000
0000
0100
0000
1000
0001
,
1000
0000
0001
0000
0100
0010
0000
0000
0000
0000
0100
0000
0000
0000
0001
0000
,
0000
0000
0000
0000
1000
0000
1000
0010
,
0100
0000
0001
0000
0000
0010
0000
0100
,
0000
0000
0000
0000
0000
0000
0000
0000
1000
0000
0001
0000
0100
0000
0001
1000
,
0001
0100
0010
0000
1000
0000
0001
0100
0001
0000
1000
0000
0100
0000
0000
0000
,
1000
0100
0010
0000
0001
0000
1000
0010
1000
0000
0001
0000
0100
0000
0000
0000
,
0001
1000
0010
0000
0100
0000
0001
0010
0100
0000
1000
0000
0001
0000
0000
0000
,
1000
0100
0010
0000
0001
0000
0100
0001
0100
0000
0010
0000
1000
0000
0001
0100
,
0001
1000
0100
0000
0010
0000
0001
1000
0001
0000
0100
0000
0010
0000
0000
0000
,
1000
0001
0100
0000
0001
0000
1000
0100
1000
0000
0100
0000
0010
0000
0000
0000
,
0001
1000
0010
0000
1000
0000
0001
0100
0001
0000
0010
0000
0100
0000
0000
0000
,
1000
0100
0010
0000
0001
0000
1000
0001
1000
0000
0010
0000
0100
0000
0001
0010
,
0001
0100
0010
0000
1000
0000
0001
1000
0001
0000
1000
0000
0100
0000
0000
0000
,
0010
0001
1000
0000
0001
0000
0100
0010
0100
0000
0001
0000
1000
0000
0000
0000
,
0001
0100
0010
0000
1000
0000
0001
0100
0001
0000
1000
0000
0010
0000
0000
0000
,
1000
0001
0100
0000
0001
0000
0010
0100
0010
0000
0100
0000
1000
0000
0010
0100
,
0010
1000
0100
0000
0010
0000
0001
1000
0001
0000
1000
0000
0100
0000
0000
0000
,
0010
0001
1000
0000
0001
0000
0100
0010
0100
0000
0001
0000
0010
0000
0000
0000
,
0100
1000
0001
0000
1000
0000
0010
0100
0010
0000
1000
0000
0001
0000
0000
0000
,
0010
0100
1000
0000
0001
0000
0100
0001
0100
0000
0010
0000
1000
0000
0001
0010
,
0100
0000
1000
0000
0000
0001
0000
0100
,
0000
0000
0000
0000
0001
0000
0001
1000
,
0100
0000
0010
0000
0000
0001
0000
1000
,
0000
0000
0000
0000
0000
0000
0000
0000
0001
0000
0100
0000
0010
0000
1000
0001
,
1000
0100
0010
0000
0001
0000
1000
0100
1000
0000
0001
0000
0100
0000
0000
0000
,
0001
0100
0010
0000
1000
0000
0100
0010
0100
0000
1000
0000
0001
0000
0000
0000
,
1000
0001
0010
0000
0100
0000
1000
0001
1000
0000
0010
0000
0100
0000
0000
0000
,
0000
0000
0001
0000
1000
0100
0010
0100
1000
0000
0001
0000
0100
0000
0000
0000
,
0001
0100
0001
1000
0100
0010
0001
1000
0100
1000
0001
0100
0010
0100
0001
1000
,
0001
0010
0100
1000
0001
0010
0001
1000
0100
1000
0001
1000
0010
0100
0010
1000
,
0001
0100
0001
1000
0001
0100
0010
0100
0001
1000
0100
0010
0001
1000
0100
1000
,
0001
0100
0001
0000
1000
0000
0010
0000
0000
0000
1000
0000
0001
0000
0000
0000
,
1000
0100
1000
0001
0100
0001
1000
0010
0100
0010
1000
0001
0010
0100
1000
0001
,
0010
0001
1000
0100
1000
0001
0010
0001
1000
0100
0010
0001
1000
0001
0100
0010
,
0100
0001
1000
0100
0010
0001
1000
0001
0100
0010
0100
0001
1000
0001
0010
0100
,
1000
0001
0100
0010
1000
0001
0010
0100
1000
0001
0100
0010
1000
0001
0010
0100
,
1000
0010
1000
0001
0100
0001
0100
0001
0010
0100
1000
0001
1000
0010
1000
0100
,
0010
0001
1000
0001
0100
0010
0100
0001
1000
0100
0010
0100
1000
0001
0100
0001
,
0010
0001
1000
0100
0010
0100
1000
0010
1000
0100
0010
0001
0100
0001
1000
0010
,
1000
0001
1000
0000
0001
0000
0100
0000
0000
0000
0001
0000
1000
0000
0000
0000
,
0001
0100
0001
1000
0100
0010
0001
1000
0010
0100
0010
1000
0001
0010
0001
0010
,
0100
1000
0001
0100
0010
0100
0001
1000
0100
1000
0001
1000
0010
0100
0010
1000
,
0100
0010
0001
1000
0001
0010
0100
1000
0001
0100
0010
0100
0001
1000
0100
0010
,
0001
1000
0001
0100
0001
1000
0010
0100
0010
1000
0001
0010
0100
0000
0000
0000
,
1000
0100
1000
0001
0100
0010
1000
0001
1000
0100
0010
0001
0100
0001
1000
0010
,
1000
0001
0010
0100
1000
0001
0100
0001
1000
0010
0100
0010
1000
0100
0010
0001
,
0100
0001
1000
0010
0100
0010
1000
0001
0010
0100
1000
0001
0100
0010
0100
0010
,
1000
0001
1000
0000
0001
0000
0100
0000
0000
0000
0001
0000
1000
0000
0000
0000
,
0001
0100
0001
1000
0100
0010
0100
1000
0010
1000
0001
0100
0001
0010
0100
1000
,
0001
0100
0010
0100
0001
1000
0100
0010
0001
1000
0100
1000
0001
0100
0010
0100
,
0001
0010
0001
1000
0010
1000
0001
0100
0001
0010
0100
1000
0010
1000
0001
0100
,
0001
1000
0010
0100
0001
0010
0100
1000
0001
0100
0010
1000
0001
0010
0100
1000
,
0010
1000
0001
0100
0001
1000
0100
1000
0010
0100
0010
1000
0001
0010
0100
0010
,
0001
0100
0010
1000
0100
0010
0001
1000
0010
1000
0001
0100
0001
0010
0100
1000
,
0001
0100
0010
0100
0001
1000
0100
0010
0001
1000
0100
1000
0001
0100
0001
1000
,
0100
0010
0001
0000
1000
0000
0010
0000
1000
0100
1000
0010
1000
0001
0100
0001
,
0010
0100
1000
0010
1000
0100
0010
0001
0100
0001
1000
0100
0010
0100
1000
0010
,
0100
0010
1000
0100
0010
0001
0100
0010
0100
0001
1000
0001
0010
0100
1000
0010
,
1000
0001
1000
0000
0001
0000
0100
0000
0000
0000
0001
0000
1000
0000
0000
0000
,
0001
0100
0001
0010
0100
0000
1000
0010
1000
0100
0010
0001
1000
0000
0001
0100
,
0001
0010
0100
1000
0001
0100
0010
0100
0001
1000
0100
0010
0001
1000
0100
1000
,
0001
0100
0010
1000
0010
0100
0001
1000
0100
0010
0100
1000
0001
0100
0010
0100
,
0001
1000
0100
0010
0100
1000
0010
0100
0001
1000
0100
0010
0001
1000
0100
1000
,
0001
0100
0010
1000
0100
1000
0010
1000
0001
0100
0001
0010
0001
1000
0100
0010
,
0100
1000
0010
0100
0010
1000
0001
0010
0001
0100
0001
1000
0100
1000
0010
1000
,
0001
0010
0001
0100
0010
0100
0001
1000
0100
1000
0010
0100
0010
1000
0100
0010
,
0001
1000
0001
0100
0010
0100
0001
1000
0100
0010
0001
0100
0001
1000
0100
1000
,
0001
0100
0010
1000
0001
0010
0100
1000
0001
0100
0010
1000
0001
0010
0100
1000
,
0010
1000
0100
0010
0001
1000
0010
1000
0001
0010
0100
0010
0001
1000
0010
1000
,
0100
0010
0001
0100
0001
1000
0100
0010
0001
1000
0001
0100
0010
0100
0001
1000
,
0100
0010
0100
1000
0001
0100
0001
1000
0100
0010
0001
1000
0010
1000
0100
0010
,
0001
0100
0010
0100
0001
1000
0100
0010
0100
1000
0001
0100
0001
1000
0010
0100
,
0010
1000
0100
0010
0001
0100
0001
1000
0100
0010
0100
1000
0010
0100
0001
1000
,
0100
0010
0001
0100
0001
1000
0100
0010
0100
1000
0010
0100
0010
1000
0100
0010
,
0001
0100
0001
0010
0100
1000
0010
0100
0010
1000
0100
0010
0001
0100
0001
1000
,
0100
0010
0001
0000
1000
0000
0100
0000
0000
0000
1000
0000
0001
0000
0000
0000
,
1000
0100
1000
0001
0100
0010
0100
0001
1000
0100
0010
0100
1000
0001
0100
0010
,
0100
0001
1000
0100
0010
0001
1000
0001
0100
0010
0100
0001
0010
0100
1000
0001
,
0100
0001
1000
0100
0010
0100
1000
0010
0100
0010
1000
0001
0100
0001
1000
0100
,
0010
0100
1000
0010
0100
0010
1000
0001
0010
0100
1000
0010
1000
0000
0000
0000
,
0001
0100
0001
1000
0100
0010
0001
0100
0010
0100
0001
1000
0100
1000
0010
0100
,
0010
1000
0100
0010
0001
1000
0010
1000
0001
0010
0001
0100
0010
0100
0001
0010
,
0001
1000
0100
0010
0001
1000
0010
1000
0100
0010
0001
0100
0010
1000
0100
0010
,
0001
1000
0001
0010
0100
1000
0010
1000
0001
0100
0001
0000
0000
1000
0100
0010
,
0001
0100
0001
1000
0010
1000
0100
0010
0001
0100
0001
1000
0100
0010
0100
1000
,
0001
0100
0010
0100
0001
1000
0100
0010
0001
0100
0001
1000
0010
1000
0001
0100
,
0001
0010
0100
1000
0010
1000
0001
0010
0100
0010
0001
1000
0010
1000
0100
0010
,
0001
1000
0100
1000
0010
0100
0010
1000
0001
0010
0100
1000
0010
1000
0001
0100
,
0010
0100
0001
0010
0100
1000
0001
0100
0010
0100
0001
0010
0100
1000
0001
0010
,
0001
1000
0010
1000
0100
0010
0001
1000
0010
0100
0010
1000
0001
0010
0100
0010
,
0001
0100
0010
0100
0001
1000
0100
0010
0001
0100
0001
1000
0100
0010
0100
1000
,
0010
0100
0001
1000
0100
0010
0001
1000
0010
1000
0100
0010
0001
1000
0010
1000
,
0001
0100
0001
1000
0010
0100
0010
1000
0001
0100
0001
1000
0100
0010
0001
1000
,
0100
1000
0001
0010
0100
1000
0001
0100
0001
1000
0010
0100
0010
1000
0001
0100
,
0001
1000
0100
1000
0001
1000
0010
0100
0010
1000
0001
0010
0100
1000
0001
0100
,
0001
1000
0100
0010
0001
1000
0100
1000
0001
0100
0010
0100
0001
1000
0001
0010
,
0100
1000
0001
0010
0100
0010
0001
1000
0010
1000
0100
0010
0001
1000
0010
1000
,
0001
0100
0010
0100
0001
1000
0100
0010
0001
1000
0100
0010
0100
1000
0001
0100
,
0001
1000
0001
0100
0010
0100
0001
1000
0010
1000
0001
0100
0001
1000
0001
0100
,
0010
0100
0001
1000
0100
0010
0001
1000
0100
1000
0001
0100
0001
1000
0100
0010
,
0001
1000
0010
0100
0010
1000
0001
0100
0001
1000
0100
0010
0001
1000
0100
1000
,
0001
0100
0001
1000
0010
0100
0010
1000
0001
0010
0100
0010
0001
1000
0010
0100
,
0010
1000
0001
0010
0100
1000
0001
0100
0001
1000
0100
0010
0001
1000
0001
0100
,
0010
0100
0001
1000
0100
1000
0001
1000
0010
0100
0010
1000
0001
0100
0001
1000
,
0010
0100
0010
1000
0001
0100
0010
0100
0001
1000
0001
0010
0100
0010
0001
1000
,
0100
1000
0001
0100
0010
0100
0001
0010
0100
1000
0001
0100
0001
1000
0100
0010
,
0100
1000
0001
0100
0010
0100
0001
1000
0100
0010
0001
0100
0010
0100
0001
0010
,
0100
1000
0001
1000
0010
0100
0010
1000
0001
0010
0100
1000
0001
0010
0100
1000
,
0010
1000
0001
0100
0010
0100
0001
1000
0100
0010
0100
1000
0010
0100
0010
1000
,
0001
0010
0100
0010
0001
1000
0010
1000
0100
0010
0001
1000
0001
0000
0000
0000
,
1000
0100
1000
0010
0100
0001
0100
0001
0010
0100
1000
0010
0100
0010
1000
0001
,
0010
0100
0010
0001
1000
0010
0100
0001
0010
0100
1000
0010
1000
0100
0010
0001
,
0100
0001
1000
0100
0010
0001
1000
0001
0100
0010
0100
0001
0010
0100
0010
0001
,
1000
0100
1000
0010
1000
0001
0100
0010
0100
0001
0010
0100
1000
0001
0100
0010
,
1000
0100
1000
0001
0100
0001
1000
0100
0010
0100
0010
0001
0100
0010
0100
0001
,
1000
0100
0010
0001
1000
0001
0100
0010
0100
0001
0010
0100
1000
0000
0001
0000
,
0100
0001
1000
0100
0010
0100
1000
0001
0100
0010
0100
0001
0010
0100
1000
0001
,
1000
0010
0100
0010
1000
0001
0010
0100
1000
0010
1000
0001
0100
0000
0000
0000
,
0001
0100
0001
1000
0100
0010
0001
0100
0010
0100
0001
1000
0100
0010
0100
1000
,
0001
0100
0010
0100
0001
1000
0100
0010
0001
1000
0100
1000
0001
1000
0010
0100
,
0010
1000
0100
0010
0100
1000
0010
0100
0001
0010
0001
0100
0010
0100
0001
1000
,
0100
1000
0010
0100
0010
1000
0100
0010
0001
1000
0100
1000
0001
0100
0010
0100
,
0001
1000
0100
0010
0100
1000
0010
0100
0001
0010
0001
0010
0100
1000
0010
1000
,
0001
0100
0001
0010
0100
1000
0001
0100
0001
0010
0100
1000
0010
1000
0001
0010
,
0100
1000
0010
1000
0001
0100
0010
0100
0001
0010
0100
1000
0001
0100
0001
1000
,
0100
0010
0001
0100
0001
1000
0100
0010
0100
1000
0001
0100
0010
0100
0001
1000
,
0100
0010
0001
1000
0100
1000
0001
1000
0010
0100
0010
1000
0001
0010
0100
1000
,
0001
0100
0001
1000
0100
0010
0100
1000
0001
0100
0010
0100
0001
1000
0100
0010
,
0001
1000
0100
1000
0010
0100
0010
1000
0001
0010
0100
1000
0001
0100
0001
1000
,
0100
0010
0001
1000
0010
1000
0100
0010
0001
1000
0010
0100
0010
1000
0100
0010
,
0100
1000
0001
0100
0010
0100
0001
1000
0001
0010
0100
1000
0010
0100
0010
1000
,
0001
0100
0001
0010
0100
1000
0001
0100
0001
0010
0100
1000
0010
0100
0010
0100
,
0001
0010
0100
1000
0001
0100
0001
0010
0100
0010
0100
1000
0010
1000
0001
0100
,
0001
0010
0001
1000
0100
0010
0100
1000
0010
0100
0010
1000
0001
0010
0100
1000
,
0010
1000
0010
0100
0001
0010
0001
0100
0010
0100
0001
1000
0100
0010
0100
1000
,
0001
0100
0010
1000
0100
0010
0001
0100
0001
1000
0001
0100
0010
0000
1000
0000
,
0100
0010
0001
1000
0010
1000
0001
0010
0100
0010
0001
1000
0100
1000
0010
0100
,
0010
1000
0001
0010
0001
1000
0100
0010
0001
0100
0001
1000
0010
0100
0010
1000
,
0100
0010
0001
1000
0010
1000
0001
0100
0001
0010
0100
0010
0001
0100
0010
1000
,
0010
0100
0001
1000
0001
0010
0100
1000
0001
0100
0010
1000
0001
0010
0100
1000
,
0010
1000
0001
0100
0010
0100
0001
1000
0100
0010
0100
1000
0010
0100
0001
0100
,
0001
1000
0100
0010
0001
1000
0010
1000
0100
0010
0001
0100
0001
1000
0001
0010
,
0001
0100
0010
0100
0001
1000
0100
0010
0001
1000
0100
1000
0010
0100
0010
1000
,
0100
0010
0001
1000
0010
0100
0010
1000
0100
0010
0001
1000
0001
0000
1000
0000
,
0001
1000
0100
0010
0001
1000
0010
1000
0100
0010
0001
1000
0010
1000
0100
0010
,
0100
0010
0001
1000
0001
0100
0010
0100
0001
1000
0100
0010
0001
1000
0001
0100
,
0010
0100
0001
1000
0001
0010
0100
1000
0001
0100
0010
0100
0001
0010
0001
1000
,
0010
0100
0001
1000
0100
0010
0001
1000
0010
0100
0001
0010
0100
1000
0010
1000
,
0100
0010
0001
0100
0001
1000
0100
0010
0100
1000
0001
0100
0001
1000
0010
1000
,
0100
0010
0001
1000
0001
0100
0010
0100
0001
1000
0100
0010
0100
1000
0001
0100
,
0010
0100
0010
1000
0100
0010
0100
1000
0010
0100
0010
0100
0001
0010
0100
1000
,
0001
0010
0001
0100
0010
0100
0001
1000
0100
0010
0100
0010
0001
0100
0010
0100
,
0001
1000
0001
0010
0100
1000
0010
1000
0001
0100
0010
0100
0001
1000
0100
0010
,
0100
1000
0001
0010
0001
1000
0010
0100
0010
1000
0001
0010
0100
1000
0001
0100
,
0010
0100
0001
1000
0100
0010
0001
1000
0100
1000
0010
0100
0010
1000
0001
0010
,
0100
1000
0010
0100
0010
1000
0100
0010
0001
1000
0001
1000
0001
1000
0001
1000
,
0001
0010
0100
1000
0010
1000
0001
0100
0001
0010
0100
1000
0010
1000
0001
0100
,
0010
0100
0001
1000
0100
0010
0100
1000
0001
0010
0001
0100
0001
1000
0010
0100
,
0001
1000
0100
1000
0010
1000
0001
0010
0100
1000
0010
0100
0010
1000
0100
0010
,
0001
0100
0001
0010
0001
1000
0010
0100
0001
1000
0100
1000
0010
1000
0001
0100
,
0010
1000
0001
0010
0001
0100
0001
1000
0010
1000
0100
0010
0001
0100
0001
0010
,
0100
1000
0010
0100
0010
1000
0100
0010
0100
1000
0001
0010
0001
0100
0010
0100
,
0001
0010
0100
1000
0010
0100
0001
0010
0100
1000
0001
1000
0100
0010
0001
0100
,
0010
1000
0100
0010
0001
0100
0001
1000
0010
1000
0001
0100
0001
0010
0100
1000
,
0001
0100
0001
1000
0001
0010
0001
0100
0010
1000
0010
0100
0010
1000
0010
0100
,
0001
1000
0010
1000
0100
1000
0010
1000
0001
0100
0010
0100
0001
0100
0010
0100
,
0001
1000
0001
0010
0001
0100
0001
0010
0100
1000
0100
0010
0100
1000
0100
0010
,
0001
0100
0010
0100
0001
1000
0100
0010
0001
1000
0001
1000
0010
0100
0010
1000
,
0001
0100
0001
0010
0001
1000
0100
0010
0001
1000
0010
1000
0100
1000
0001
0100
,
0001
0010
0100
1000
0010
1000
0100
1000
0001
0010
0001
0100
0001
1000
0010
1000
,
0001
0100
0001
0010
0100
1000
0001
0010
0001
0100
0001
1000
0100
1000
0010
1000
,
0001
0100
0001
1000
0100
0010
0001
1000
0100
1000
0010
1000
0001
0010
0001
0100
,
0001
1000
0100
1000
0010
0100
0010
0100
0001
1000
0001
0010
0100
0010
0100
1000
,
0001
0010
0001
0100
0010
0100
0010
1000
0001
1000
0100
0010
0100
0010
0001
1000
,
0100
1000
0010
0100
0010
0100
0001
1000
0100
0010
0100
0010
0001
1000
0100
1000
,
0010
0100
0010
0100
0001
1000
0010
1000
0100
0010
0100
0010
0001
1000
0100
1000
,
0001
0100
0001
0010
0001
1000
0100
0010
0001
1000
0010
1000
0100
1000
0001
0100
,
0001
1000
0100
1000
0010
1000
0001
0010
0100
1000
0001
0010
0001
0100
0001
1000
,
0010
1000
0100
0010
0001
0100
0010
0100
0001
1000
0100
0010
0001
1000
0100
1000
,
0001
0100
0010
0100
0001
1000
0100
0010
0001
0100
0010
0100
0001
1000
0100
1000
,
0010
0100
0010
0100
0001
1000
0100
0010
0100
1000
0001
0100
0010
0100
0001
1000
,
0001
0010
0100
1000
0001
0010
0001
1000
0010
0100
0010
1000
0100
0010
0001
0100
,
0001
1000
0100
0010
0100
1000
0001
0100
0010
0100
0001
1000
0001
0100
0001
1000
,
0100
0010
0001
1000
0010
1000
0100
0010
0001
0100
0001
0010
0100
1000
0001
0100
,
0001
1000
0100
0010
0100
1000
0010
0100
0010
0100
0001
1000
0100
0010
0001
1000
,
0100
1000
0010
0100
0001
1000
0001
0100
0001
1000
0100
0010
0100
1000
0010
0100
,
0001
1000
0001
0100
0010
0100
0001
1000
0100
0010
0001
1000
0100
1000
0001
0100
,
0010
0100
0001
1000
0001
0100
0001
1000
0100
0010
0001
1000
0001
1000
0100
1000
,
0010
0100
0001
1000
0100
0010
0001
1000
0100
1000
0001
0100
0001
1000
0010
0100
,
0010
1000
0001
0010
0100
1000
0001
0100
0010
0100
0001
1000
0100
0010
0001
1000
,
0001
0100
0010
0100
0001
1000
0001
0100
0001
1000
0100
1000
0001
0100
0010
0100
,
0001
1000
0001
0010
0100
0010
0001
1000
0100
0010
0001
1000
0100
1000
0001
0100
,
0010
0100
0001
1000
0100
0010
0001
1000
0001
0100
0010
0100
0001
1000
0001
0010
,
0100
1000
0001
0100
0001
1000
0100
1000
0001
1000
0010
0100
0010
1000
0001
0100
,
0001
1000
0100
0010
0001
1000
0100
1000
0001
0100
0010
0100
0001
1000
0001
0100
,
0001
1000
0100
0010
0100
1000
0001
0010
0001
1000
0010
0100
0010
1000
0001
0100
,
0001
0000
0100
0000
0001
1000
0000
0000
,
0001
0000
0010
0000
0100
1000
0010
0000
,
1000
0001
1000
0010
0100
0001
1000
0100
0010
0001
1000
0100
1000
0001
0100
0010
,
0100
0001
1000
0001
0010
0100
1000
0001
0100
0001
1000
0100
1000
0001
0100
0010
,
1000
0001
0010
0100
1000
0001
0100
0001
1000
0100
0010
0100
1000
0001
0100
0010
,
1000
0001
1000
0010
0100
0001
1000
0001
0010
0100
1000
0001
0100
0010
0100
0001
,
1000
0100
1000
0001
0100
0001
1000
0010
1000
0001
0100
0001
1000
0100
0010
0001
,
1000
0100
1000
0001
0010
0100
1000
0001
0100
0001
1000
0010
0100
0010
1000
0001
,
0100
0001
1000
0100
1000
0001
0100
0001
1000
0100
1000
0001
0100
0001
1000
0100
,
0010
0001
1000
0100
1000
0001
0010
0100
1000
0001
1000
0010
0100
0010
1000
0001
,
0010
0100
0010
0001
1000
0100
1000
0001
0100
0010
0100
0001
1000
0100
0010
0001
,
1000
0001
1000
0010
0100
0010
1000
0001
0100
0001
1000
0100
1000
0001
0100
0001
,
1000
0010
1000
0001
0010
0100
0010
0001
1000
0100
0010
0001
1000
0010
1000
0001
,
0100
0001
1000
0100
0010
0001
1000
0001
0100
0001
1000
0100
0010
0100
1000
0001
,
1000
0010
0100
0001
1000
0100
1000
0001
0010
0100
1000
0001
0100
0010
0100
0001
,
1000
0100
0010
0001
1000
0100
0010
0001
1000
0100
1000
0001
0100
0010
1000
0010
,
1000
0100
0010
0001
1000
0010
1000
0001
0100
0010
0100
0001
1000
0100
0010
0100
,
1000
0001
0100
0001
0010
0100
0010
0100
1000
0001
0100
0001
1000
0100
1000
0001
,
0100
0001
0010
0100
0010
0100
1000
0010
0100
0010
1000
0001
0100
0001
1000
0100
,
0010
0001
0100
0001
1000
0010
1000
0100
0010
0001
0100
0010
0100
0010
1000
0001
,
0010
0001
0100
0010
0100
0001
0010
0100
1000
0010
1000
0100
0010
0001
1000
0010
,
1000
0001
0010
0001
0100
0001
1000
0100
0010
0001
1000
0010
1000
0001
0100
0010
,
0100
0001
0010
0001
0010
0100
1000
0001
0100
0001
0010
0100
1000
0001
0100
0001
,
1000
0100
0010
0100
1000
0001
0100
0010
0100
0001
1000
0100
0010
0000
0000
0000
,
0001
0100
0001
0010
0100
1000
0001
0100
0010
0100
0001
1000
0100
0010
0001
0100
,
0001
1000
0010
0100
0010
1000
0001
0010
0100
1000
0010
1000
0001
0100
0001
0010
,
0001
1000
0010
0100
0010
1000
0100
1000
0010
0100
0010
1000
0001
0010
0100
0010
,
0001
0100
0010
0100
0001
1000
0100
1000
0010
0100
0001
0010
0100
1000
0001
1000
,
0010
0100
0010
1000
0100
0010
0001
1000
0010
1000
0100
0010
0100
0010
0001
1000
,
0010
1000
0001
0100
0001
0010
0001
1000
0010
1000
0001
0010
0100
0010
0001
1000
,
0010
1000
0100
0010
0001
0100
0001
1000
0010
0100
0010
1000
0100
0010
0001
1000
,
0010
1000
0100
0000
0010
0001
0100
0000
0010
1000
0100
0000
0010
0001
0100
0000
,
0001
0100
0001
1000
0100
0010
0100
1000
0001
0010
0001
0100
0001
1000
0010
0100
,
0010
1000
0100
0010
0001
1000
0001
0010
0100
0010
0001
1000
0010
1000
0100
0010
,
0001
0100
0001
1000
0100
1000
0010
1000
0001
0010
0001
0010
0100
1000
0010
1000
,
0001
0010
0001
0100
0010
0100
0001
0010
0100
1000
0001
1000
0010
0100
0001
1000
,
0100
1000
0010
0100
0010
1000
0100
0010
0001
1000
0001
0100
0001
0010
0001
1000
,
0100
1000
0001
0100
0001
0010
0100
1000
0001
0100
0001
1000
0010
0100
0010
1000
,
0100
0010
0001
1000
0001
0100
0010
0100
0001
1000
0100
0010
0100
1000
0001
0100
,
0010
1000
0100
0000
0010
0001
0100
0000
0010
1000
0010
1000
0100
0010
0100
0010
,
0001
0100
0010
0100
0001
1000
0001
0010
0100
1000
0001
0100
0010
0100
0001
1000
,
0100
0010
0001
1000
0010
1000
0100
0010
0100
1000
0001
0100
0010
0100
0001
1000
,
0001
0010
0100
1000
0010
1000
0001
0100
0001
1000
0010
1000
0100
0010
0001
1000
,
0010
0100
0010
1000
0100
0010
0001
1000
0001
0100
0001
0010
0100
0000
0000
0000
,
1000
0100
1000
0001
0100
0010
0100
0001
0010
0100
1000
0010
1000
0100
0010
0001
,
0100
0001
1000
0100
1000
0001
1000
0010
0100
0001
1000
0001
0100
0001
0010
0100
,
1000
0001
1000
0010
0100
0001
1000
0100
0010
0001
1000
0100
1000
0001
0100
0010
,
0100
0001
1000
0001
0010
0100
1000
0001
0100
0010
1000
0001
1000
0000
0000
0000
,
0001
0100
0001
1000
0001
0010
0100
1000
0001
0100
0001
1000
0010
0000
1000
0000
,
0100
0010
0001
1000
0010
1000
0001
0100
0010
0100
0001
1000
0001
0010
0100
1000
,
0001
0010
0001
0100
0010
0100
0001
0010
0001
1000
0100
0010
0001
0100
0010
0100
,
0001
1000
0100
1000
0001
1000
0001
0100
0001
1000
0100
0010
0001
1000
0001
0100
,
0010
0100
0001
1000
0100
0010
0001
1000
0100
1000
0001
0100
0010
0100
0001
1000
,
0001
0010
0100
0010
0001
1000
0010
1000
0100
0010
0001
1000
0001
0100
0010
0100
,
0001
1000
0001
0100
0001
1000
0010
0100
0001
1000
0100
1000
0001
1000
0100
0010
,
0001
0000
0100
0000
0101
0000
0001
0000
0010
0100
0010
0100
1000
0010
1000
0010
,
0100
0001
1000
0100
0010
0100
1000
0001
0100
0001
1000
0100
0010
0100
1000
0010
,
0100
0001
1000
0100
0010
0001
1000
0001
0100
0010
0100
0001
1000
0100
1000
0001
,
0010
0001
0100
0010
0100
0001
0010
0001
1000
0100
0010
0001
0100
0010
0100
0001
,
1000
0010
1000
0001
0010
0100
1000
0001
0100
0001
1000
0100
0010
0001
1000
0010
,
0100
0010
1000
0001
0010
0100
1000
0001
0100
0001
0010
0001
1000
0100
0010
0100
,
1000
0001
0100
0010
0100
0001
1000
0100
0010
0001
1000
0001
0100
0010
0100
0001
,
1000
0100
1000
0001
0010
0100
0010
0001
0100
0001
1000
0010
1000
0100
0010
0001
,
1000
0001
0100
0010
0100
0001
1000
0001
0010
0100
1000
0001
0100
0000
0001
0000
,
0010
0100
1000
0001
0100
0010
0100
0001
1000
0100
1000
0010
0100
0010
1000
0001
,
1000
0100
0010
0001
0100
0001
1000
0010
1000
0001
0100
0001
1000
0010
1000
0100
,
1000
0001
0100
0001
1000
0100
0010
0001
1000
0001
0100
0010
0100
0001
1000
0001
,
0010
0100
0010
0001
1000
0100
1000
0001
0100
0010
0100
0001
1000
0100
1000
0001
,
0010
0100
1000
0001
0100
0010
0100
0001
1000
0001
0010
0100
1000
0001
0100
0010
,
0100
0001
1000
0100
0010
0100
1000
0001
0100
0001
0010
0001
1000
0100
1000
0001
,
0100
0001
0010
0100
1000
0001
1000
0010
0100
0010
1000
0001
0010
0100
1000
0001
,
0100
0000
0001
0010
0100
0000
1000
0010
,
0100
0001
1000
0001
0010
0100
1000
0010
1000
0001
0100
0010
0100
0001
1000
0010
,
1000
0100
1000
0001
0010
0100
0010
0001
1000
0010
1000
0001
0010
0100
1000
0001
,
0100
0010
0100
0001
1000
0100
1000
0001
0010
0100
1000
0001
0100
0001
1000
0100
,
1000
0001
0010
0100
1000
0001
0100
0010
0100
0001
1000
0100
1000
0001
1000
0001
,
0010
0100
1000
0001
0100
0001
0010
0100
1000
0001
0100
0010
0100
0001
1000
0001
,
0010
0100
1000
0010
1000
0100
1000
0001
0100
0010
0100
0001
0010
0001
1000
0010
,
1000
0001
0010
0100
1000
0001
0100
0010
0100
0001
0010
0100
1000
0001
1000
0100
,
1000
0001
0100
0010
0100
0001
1000
0001
0100
0001
0010
0100
1000
0000
0001
0000
,
0100
0001
1000
0100
0010
0001
1000
0010
1000
0001
0010
0100
0010
0001
1000
0010
,
1000
0100
0010
0001
1000
0100
1000
0001
0100
0010
0100
0001
1000
0010
1000
0001
,
0100
0001
0010
0001
1000
0100
1000
0010
0100
0010
1000
0001
0100
0001
1000
0100
,
0010
0001
1000
0010
0100
0010
1000
0001
1000
0100
0010
0001
0100
0000
0000
0000
,
0001
1000
0010
1000
0100
0010
0001
1000
0010
0100
0010
1000
0001
0010
0001
0100
,
0001
1000
0010
1000
0100
0010
0001
0100
0001
1000
0100
1000
0010
1000
0001
0100
,
0010
0100
0001
1000
0001
0010
0100
1000
0001
1000
0100
0010
0001
1000
0010
0100
,
0001
1000
0010
0100
0001
1000
0100
0010
0001
1000
0010
0100
0001
0010
0100
1000
,
0020
0030
0000
0000
,
0000
0000
0000
0000
,
0000
0000
0000
0000
,
0000
0000
0000
0000
,
1000
0100
1000
0001
0100
0010
0100
0001
1000
0100
0010
0001
1000
0010
1000
0001
,
0100
0010
0100
0001
0010
0100
1000
0001
1000
0010
0100
0010
1000
0001
0010
0100
,
0010
0001
1000
0010
1000
0001
0100
0001
1000
0010
0100
0001
1000
0001
0010
0100
,
1000
0001
1000
0001
0100
0001
1000
0100
0010
0100
1000
0001
0100
0000
0000
0000
,
0001
0100
0001
0010
0100
1000
0001
0100
0010
0100
0001
1000
0100
0010
0001
1000
,
0010
1000
0100
0010
0001
0100
0001
1000
0010
0100
0010
1000
0100
0010
0001
0100
,
0010
0100
0010
1000
0001
0100
0001
0010
0100
1000
0100
1000
0010
0100
0010
1000
,
0100
0010
0001
1000
0001
0100
0010
1000
0001
0010
0100
1000
0001
0000
1000
0000
,
0001
0100
0001
0010
0100
1000
0010
1000
0001
0100
0010
1000
0100
0010
0100
1000
,
0001
0100
0001
0010
0100
1000
0001
0100
0001
1000
0100
0010
0001
0100
0010
0100
,
0001
1000
0010
0100
0001
0010
0100
0010
0001
1000
0010
1000
0100
0010
0001
1000
,
0001
0100
0001
0010
0001
1000
0010
0100
0010
1000
0100
0010
0001
1000
0010
1000
,
0100
0010
0001
0100
0001
1000
0100
0010
0100
1000
0010
0100
0010
1000
0001
0010
,
0100
1000
0010
1000
0001
0010
0001
0100
0001
1000
0010
0100
0001
1000
0100
0010
,
0100
1000
0001
0100
0001
1000
0100
0010
0001
0100
0001
1000
0100
1000
0010
0100
,
0001
0010
0001
0100
0001
1000
0100
1000
0010
0100
0010
1000
0001
0000
0010
0000
,
0100
1000
0010
1000
0100
0010
0001
1000
0010
0100
0010
1000
0001
0010
0100
0010
,
0001
1000
0010
1000
0100
0010
0001
1000
0010
0100
0010
1000
0001
0010
0100
1000
,
0001
0010
0001
0100
0010
0100
0001
1000
0100
0010
0001
1000
0010
1000
0100
0010
,
0100
1000
0010
0100
0001
0010
0100
1000
0010
1000
0001
1000
0100
0010
0001
0100
,
0001
1000
0010
0100
0010
1000
0001
0010
0100
1000
0010
1000
0001
0100
0001
0010
,
0001
1000
0010
1000
0100
0010
0001
0100
0001
0010
0100
1000
0010
1000
0001
0100
,
0001
0010
0100
0010
0001
1000
0010
0100
0001
0010
0001
1000
0010
0100
0001
1000
,
0100
0010
0100
1000
0001
0100
0001
0010
0100
0000
0000
0000
0000
0000
0000
0000
,
1000
0100
1000
0001
0100
0010
0100
0001
0010
0100
1000
0001
0010
0001
0100
0010
,
0100
0001
0010
0100
1000
0001
0100
0001
1000
0100
0010
0001
0100
0001
1000
0010
,
1000
0001
0100
0010
0100
0001
1000
0100
1000
0001
0010
0100
1000
0001
0100
0010
,
1000
0001
0010
0100
1000
0001
0010
0001
1000
0010
1000
0001
0100
0001
0010
0001
,
1000
0010
1000
0100
0010
0001
1000
0010
1000
0001
0100
0010
0100
0001
0010
0100
,
1000
0001
0100
0010
0100
0001
1000
0100
1000
0010
0100
0010
1000
0001
0010
0100
,
1000
0001
0100
0010
0100
0001
0010
0100
1000
0001
0100
0001
1000
0100
0010
0001
,
1000
0001
0100
0010
1000
0100
0010
0001
0100
0010
1000
0001
0010
0100
1000
0001
,
1000
0010
0100
0001
1000
0100
0010
0001
1000
0100
1000
0010
0100
0010
1000
0001
,
0010
0100
1000
0001
0010
0001
1000
0100
0010
0001
1000
0010
1000
0001
0100
0001
,
0010
0001
1000
0100
1000
0001
0100
0010
0100
0001
0010
0100
1000
0001
0100
0001
,
1000
0100
1000
0001
0010
0100
0010
0001
1000
0010
1000
0001
0100
0010
1000
0100
,
0010
0001
0100
0001
1000
0100
1000
0001
0100
0010
1000
0001
1000
0100
1000
0010
,
0100
0010
1000
0100
0010
0001
1000
0001
0100
0010
0100
0001
1000
0100
0010
0001
,
1000
0001
0100
0010
0100
0001
1000
0100
0010
0100
1000
0001
0100
0010
0100
0001
,
0010
0100
1000
0001
0100
0001
0010
0001
0100
0010
0100
0001
1000
0100
0010
0001
,
1000
0100
1000
0001
0100
0010
0100
0001
1000
0001
0010
0100
1000
0001
0100
0010
,
0100
0001
0010
0100
1000
0010
1000
0001
0100
0010
0100
0001
0010
0100
1000
0001
,
0100
0010
0100
0001
1000
0100
0010
0100
1000
0010
0100
0001
1000
0001
0010
0100
,
1000
0001
0100
0001
1000
0010
0100
0010
1000
0001
0010
0100
0010
0001
1000
0010
,
1000
0100
0010
0001
1000
0100
1000
0010
0100
0010
1000
0001
0010
0100
1000
0001
,
1000
0010
0100
0010
1000
0001
0010
0100
1000
0001
0100
0001
1000
0100
0010
0001
,
1000
0010
1000
0001
0010
0100
0010
0001
1000
0010
1000
0001
0100
0001
0010
0100
,
1000
0010
1000
0001
0100
0001
0010
0001
1000
0100
0010
0100
1000
0001
0010
0001
,
0100
0000
0001
0000
,
0000
0000
1000
0000
0000
0000
0001
1000
,
0001
0100
0001
1000
0001
0100
0010
0100
0001
1000
0100
0010
0001
1000
0100
1000
,
0001
0010
0100
1000
0001
0100
0001
1000
0100
1000
0001
0100
0010
0100
0001
1000
,
0100
0010
0001
1000
0010
1000
0100
0010
0001
1000
0010
0100
0010
1000
0001
0010
,
0100
1000
0001
0010
0001
1000
0010
1000
0001
0010
0100
1000
0001
0100
0010
0100
,
0001
1000
0100
0010
0001
1000
0010
0100
0010
1000
0001
0100
0001
1000
0010
1000
,
0001
0000
0000
0000
1000
0000
0000
0001
,
1000
0000
0000
0000
0000
0000
0000
0000
0001
0100
0010
1000
0001
0100
0010
1000
,
0001
0010
0100
1000
0001
0010
0100
1000
0001
0100
0010
0100
0001
1000
0100
0010
,
0001
0100
0001
1000
0010
0100
0010
1000
0001
0010
0100
1000
0001
0100
0010
0100
,
0001
1000
0100
0010
0001
1000
0001
0100
0010
1000
0001
0100
0001
0000
0000
0000
,
0000
0000
0000
0000
1000
0100
0010
0001
1000
0100
1000
0001
0010
0100
1000
0001
,
1000
0010
0100
0010
1000
0001
0010
0100
1000
0001
0100
0010
0100
0001
1000
0100
,
0010
0100
1000
0001
0100
0010
0100
0001
1000
0100
0010
0100
1000
0001
0100
0010
,
0100
0001
0010
0100
1000
0010
1000
0001
0010
0100
1000
0001
0100
0010
0100
0001
,
0020
0000
0030
0000
,
0000
0000
0000
0000
,
0000
0000
0000
0000
,
0000
0000
0000
0000
,
M000
0000
0000
0000
;
