#TITLE:Molto Vivace;
#SUBTITLE:;
#ARTIST:Franz Lizst;
#TITLETRANSLIT:;
#SUBTITLETRANSLIT:;
#ARTISTTRANSLIT:;
#CREDIT:;
#BANNER:;
#BACKGROUND:;
#LYRICSPATH:;
#CDTITLE:;
#MUSIC:molto3.mp3;
#OFFSET:-0.030;
#SAMPLESTART:1.000;
#SAMPLELENGTH:12.000;
#SELECTABLE:YES;
#BPMS:0.000=175.000;
#STOPS:;
#BGCHANGES:;
// cache tags:
#FIRSTBEAT:0.000;
#LASTBEAT:301.500;
#SONGFILENAME:Songs/Essential Sim Collection/(Reach) molto vivace/dfhkn.sm;
#HASMUSIC:1;
#HASBANNER:0;
#MUSICLENGTH:105.952;
// end cache tags

//---------------dance-single - MANIAC----------------
#NOTES:
     dance-single:
     MANIAC:
     Hard:
     15:
     1.000,1.000,1.000,0.000,1.000,920.000,265.000,0.000,0.000,0.000:
0100
0100
0100
0100
0000
0000
1000
1000
,
1000
0000
1000
0000
0000
0000
0000
0000
1000
0100
1000
0100
1000
0100
1000
0000
,
0000
0000
0000
0000
1000
0001
1000
0001
1000
0001
1000
0010
1000
0100
1000
0010
,
1000
0001
1000
0001
0010
0100
1000
0000
0000
0000
1001
0000
0000
0000
0000
0000
,
0000
0000
0000
0000
0000
0000
0000
0000
1000
0100
0010
0001
0010
0100
0010
0001
,
0010
0100
1000
0100
1000
0010
1000
0001
1000
0100
1001
0100
0010
0100
0001
0010
,
0100
1000
0100
0010
0100
1000
0011
0100
1000
0100
1000
0010
1000
0001
1000
0010
,
0100
0010
1001
0100
1000
0100
1000
0100
1000
0100
1000
0100
1000
0100
1000
0100
,
1000
0000
0010
0000
1000
0000
0010
0000
1000
0000
0010
0000
1000
0000
0010
0000
1000
0000
0010
0000
1000
0100
0010
0001
1000
0100
0010
0001
1000
0100
0010
0001
,
1000
0100
0010
0001
1000
0100
0010
0001
1000
0100
0010
0001
0010
0100
1000
0100
0011
0000
0000
0000
1001
0000
0000
0000
1100
0000
0000
0000
1100
0000
0000
0000
,
1001
0000
0000
0000
0000
0000
0000
0000
0000
0000
0000
0000
0000
0000
0000
0000
0000
0000
0000
0000
0000
0000
0000
0000
1001
0000
0000
0000
0000
0000
0000
0000
0000
0000
0000
0000
0000
0000
0000
0000
0000
0000
0000
0000
0000
0000
0000
0000
1000
0000
0000
0000
0000
0000
0000
0000
0100
0000
0000
0000
0000
0000
0000
0000
0010
0000
0000
0000
0000
0000
0000
0000
0001
0000
0000
0000
0000
0000
0000
0000
0010
0000
0000
0000
0000
0000
0000
0000
0001
0000
0000
0000
0000
0000
0000
0000
0010
0000
0000
0000
0000
0000
0000
0000
0001
0000
0000
0000
0000
0000
0000
0000
0010
0000
0000
0000
0000
0000
0000
0000
0001
0000
0000
0000
0000
0000
0000
0000
0010
0000
0000
0000
0000
0000
0000
0000
0100
0000
0000
0000
0000
0000
0000
0000
1000
0000
0000
0000
0000
0000
0000
0000
0100
0000
0000
0000
0000
0000
0000
0000
0010
0000
0000
0000
0000
0000
0000
0000
0001
0000
0000
0000
0000
0000
1000
0000
0000
0000
0000
0000
0001
0000
0000
0000
0000
0000
1000
0000
0000
0000
0000
0000
,
0001
1000
0001
1000
0001
0000
0000
0000
1100
0000
0000
0000
0110
0000
0000
0000
0011
0000
0000
0000
1001
0000
0000
0000
0110
0000
0000
0000
1001
0000
0000
0000
,
1010
0000
0000
0000
1100
0000
0000
0000
0110
0000
0000
0000
0001
0010
0100
1000
0001
0010
0100
1000
0001
0000
0000
0000
1100
0000
0000
0000
0110
0000
0000
0000
,
0011
0000
0000
0000
1001
0000
0000
0000
0110
0000
0000
0000
1100
0000
0000
0000
0110
0000
0000
0000
1001
0000
0000
0000
1010
0000
0000
0000
1000
0100
0010
0001
,
1000
0100
0010
0001
1000
0000
0000
0000
0101
0000
0000
0000
1010
0000
0000
0000
1001
0000
0000
0000
0110
0000
0000
0000
1001
0000
0000
0000
0110
0000
0000
0000
,
0011
1100
0101
1001
0010
1100
0010
0101
,
0010
0000
1100
0000
0010
0000
0101
0000
0010
0000
1100
0000
0010
0000
1000
0001
,
0001
1000
0001
0001
1000
0001
1000
0001
1000
0001
1000
0010
0010
1000
0010
0010
,
1000
0001
1000
0001
1000
0001
1000
0100
0010
0001
0010
0001
0010
0001
0010
0001
,
0010
0001
1000
0001
1000
0001
1000
0001
1000
0001
1000
0100
1000
0100
1000
0100
,
1000
0100
1001
0000
1100
0000
0101
0000
1100
0000
0101
0000
1100
0000
1001
0000
,
0110
0011
0011
1001
0000
1001
0000
0100
,
0100
0000
1000
0100
1000
0010
1000
0100
1000
0100
0010
0001
0010
0100
1000
0001
,
1000
0001
1000
0001
1000
0001
1000
0001
1000
0001
1000
0100
1000
0100
0010
0001
,
0010
0100
1000
0100
0010
0001
0010
0100
0010
0100
0010
0100
0010
0100
0010
0100
,
0010
0000
0100
0000
1000
0100
0010
0001
1000
0000
0100
0000
0010
0000
0001
0000
0010
0000
0100
0000
0010
0000
0001
0000
0010
0000
0100
0000
1000
0100
0010
0001
,
0010
0000
0100
0000
1000
0000
0100
0000
0010
0000
0100
0000
0001
0000
0010
0000
0100
0000
0010
0000
1000
0100
0010
0001
1000
0000
0010
0000
0100
0000
0001
0000
,
0010
0000
0100
0000
1000
0000
0100
0000
0010
0000
0001
0000
1000
0100
0010
0001
0010
0000
1000
0000
0100
0000
1000
0000
0010
0000
1000
0000
0100
0000
0010
0000
,
0001
0010
1001
0010
0100
1000
0101
1000
0100
0010
1100
0010
0001
0010
1100
0000
,
0000
0000
1100
0000
0000
0000
1100
0000
0010
0100
0010
0100
0010
0100
0010
0100
,
0010
0100
1010
0100
0011
0000
1001
0000
0010
0100
0010
0100
0001
0100
0010
0100
,
0001
0010
1100
0010
1100
0010
1100
0010
0100
0001
0010
0100
1000
0100
0010
0001
,
0010
0001
0010
0100
1000
0100
0010
0100
1000
0100
0011
0100
0011
0100
0011
0100
,
1000
0100
0010
0001
0010
0100
1001
0010
0100
1000
0100
0010
0001
0010
0100
1000
,
0100
0010
1001
0100
1001
0010
1001
0100
1000
0100
0010
0001
0010
0100
0011
0100
,
0010
0100
1000
0100
0010
0100
0010
0001
0010
0100
1010
0000
1000
0001
1000
0001
,
1100
0010
1100
0010
1100
0001
1100
0001
1100
0001
1100
0001
0110
1000
0110
0001
,
0110
1000
0101
0000
1000
0100
0010
0001
0010
0100
0010
0001
0010
0100
1001
0000
,
0100
0010
0100
0001
0010
0100
1000
0100
0010
1000
0100
0010
1001
0010
1100
0010
,
0001
0010
1100
0001
0010
0001
1100
0010
0001
0010
1100
0001
0010
0001
1100
0010
,
0001
0010
1100
0000
0001
0010
0001
0010
0001
0010
0001
0010
0001
0010
1001
0000
,
0010
0100
0010
0100
0010
0100
0010
0100
0010
0100
1001
0000
0110
0000
1001
0000
,
0011
0110
1100
1100
0110
0011
0110
1001
,
0110
0110
1010
0101
0110
0011
1100
1100
,
0110
0011
0110
1001
0110
1100
0110
1100
,
0011
1100
0110
1100
0011
1100
0110
1001
,
0010
0101
0010
1010
0010
1001
0010
1001
,
0100
0000
1001
0000
1000
0100
0010
0001
0010
0100
0011
0000
0000
0000
0001
0001
,
0001
0001
0001
0000
0000
0000
0000
0000
0100
0010
1100
0010
0100
0010
1001
0100
,
0010
0100
1001
0001
0001
0001
0001
0001
0001
0000
0000
0000
1000
1000
0100
0100
,
0010
0000
0010
0000
0001
0000
0001
0000
0010
0000
0010
0000
0100
0000
1000
0000
0100
0000
0010
0000
0001
0010
0100
1000
0001
0010
0100
1000
0001
0010
0100
1000
,
0001
0010
0100
1000
0001
0010
0100
1000
0100
0010
0001
0010
0100
1000
0100
0010
0001
0000
0000
0000
0001
0000
0000
0000
0001
0000
0000
0000
0001
0000
0000
0000
,
0001
0000
0000
0000
0000
0000
0000
0000
0000
0000
0000
0000
0000
0000
0000
0000
0000
0000
0000
0000
0000
0000
0000
0000
1001
0000
0000
0000
0000
0000
0000
0000
0000
0000
0000
0000
0000
0000
0000
0000
0000
0000
0000
0000
0000
0000
0000
0000
1000
0000
0000
0000
0000
0000
0000
0000
0100
0000
0000
0000
0000
0000
0000
0000
1000
0000
0000
0000
0000
0000
0000
0000
0100
0000
0000
0000
0000
0000
0000
0000
1000
0000
0000
0000
0000
0000
0000
0000
0010
0000
0000
0000
0000
0000
0000
0000
1000
0000
0000
0000
0000
0000
0000
0000
0010
0000
0000
0000
0000
0000
0000
0000
1000
0000
0000
0000
0000
0000
0000
0000
0100
0000
0000
0000
0000
0000
0000
0000
0010
0000
0000
0000
0000
0000
0000
0000
0001
0000
0000
0000
0000
0000
0000
0000
1000
0000
0000
0000
0000
0000
0100
0000
0000
0000
0000
0000
0010
0000
0000
0000
0000
0000
0001
0000
0000
0000
0000
0000
1000
0000
0000
0000
0000
0000
0100
0000
0000
0000
0000
0000
0010
0000
0000
0000
0000
0000
0001
0000
0000
0000
0000
0000
,
1100
1100
1010
0101
0011
0110
1100
0110
,
1001
0000
0000
0000
0110
0000
0000
0000
1001
0000
0000
0000
1000
0100
0010
0001
1000
0100
0010
0001
1000
0000
0000
0000
0011
0000
0000
0000
0101
0000
0000
0000
,
1010
0000
0000
0000
1001
0000
0000
0000
0110
0000
0000
0000
0011
0000
0000
0000
1010
0000
0000
0000
0110
0000
0000
0000
0110
0000
0000
0000
0001
0010
0100
1000
,
0001
0010
0100
1000
0001
0000
0000
0000
1100
0000
0000
0000
0110
0000
0000
0000
0101
0000
0000
0000
1001
0000
0000
0000
0110
0000
0000
0000
1001
0000
0000
0000
,
0110
0011
1100
0001
0000
1100
0110
1001
,
0110
1001
0000
0110
0011
1100
1100
0011
,
0011
0000
0000
0000
1100
0000
0000
0000
0110
0000
0000
0000
1001
0000
0000
0000
1000
0100
0010
0001
1100
0000
0000
0000
0110
0000
0000
0000
0011
0000
0000
0000
,
0110
0000
0000
0000
1001
0000
0000
0000
0001
0010
0100
1000
0011
0000
0000
0000
0011
0000
0000
0000
1100
0000
0000
0000
0110
0000
0000
0000
1001
0000
0000
0000
,
0001
0010
0100
1000
0011
0000
0000
0000
1100
0000
0000
0000
0110
0000
0000
0000
1001
0000
0000
0000
0110
0000
0000
0000
1000
0000
0000
0000
0011
0000
0000
0000
,
0100
1001
0010
1001
1000
0011
0001
1100
,
0001
0110
1000
0110
0110
0011
0011
0110
,
0110
1001
1001
0110
0110
1001
0110
0001
,
1100
0010
1001
0100
0011
0010
1100
0001
,
1010
1000
0101
1001
1001
0011
0011
1100
,
1100
1010
1010
1001
0110
1001
0110
0101
,
0000
1000
1000
1001
1000
1000
1000
1100
,
1000
0100
0010
0001
0100
0000
0000
0000
0100
0000
0000
0000
0100
0000
0000
0000
0100
0000
0000
0000
0110
0000
0000
0000
0100
0000
0000
0000
1100
0000
0000
0000
,
0100
1100
0100
0110
1100
0101
0110
1100
,
0110
0011
1001
0110
1001
0011
0110
1100
,
1001
1100
1001
1001
0011
0101
1010
0110
,
0000
0001
0000
1100
0000
0000
0000
1100
,
0000
0000
0000
0000
0000
1001
0000
0010
,
0010
0010
0010
1001
0000
0000
0000
0000
;
