#TITLE:Eve of Seduction;
#SUBTITLE:Paradise Lost (2007);
#ARTIST:Symphony X;
#TITLETRANSLIT:;
#SUBTITLETRANSLIT:;
#ARTISTTRANSLIT:;
#CREDIT:;
#BANNER:Eve of Seduction BN.png;
#BACKGROUND:Eve of Seduction BG.png;
#LYRICSPATH:;
#CDTITLE:Joe Dcd title.png;
#MUSIC:06_symphony_x-eve_of_seduction.mp3;
#OFFSET:0.100;
#SAMPLESTART:1.940;
#SAMPLELENGTH:12.000;
#SELECTABLE:YES;
#BPMS:0.000=142.000,203.000=71.000,214.000=142.000,382.000=71.000,393.000=142.000;
#STOPS:;
#BGCHANGES:;
// cache tags:
#FIRSTBEAT:1.000;
#LASTBEAT:688.750;
#SONGFILENAME:Songs/Astronomic Metal Collection 2/(Joe D) Eve of Seduction/06_symphony_x-eve_of_seduction.sm;
#HASMUSIC:1;
#HASBANNER:1;
#MUSICLENGTH:303.654;
// end cache tags

//---------------dance-single - ----------------
#NOTES:
     dance-single:
     :
     Hard:
     13:
     1.000,1.000,1.000,0.346,1.000,2515.000,388.000,105.000,0.000,93.000:
0000
0000
0000
0000
0000
0000
0000
0000
0000
0000
0000
0000
1001
0000
0010
0000
0100
0000
1000
0000
0000
0100
0000
0000
1000
0000
0000
0100
0000
0000
1010
0000
0000
1010
0000
0000
0001
0000
0000
1000
0000
0000
0101
0000
0000
0101
0000
0000
,
1000
0001
1000
0010
1001
0000
1000
0010
1000
0001
0100
0001
0100
1000
0010
1000
,
0001
1000
0010
1000
0001
0100
1000
0001
0100
1000
0010
0100
0010
1000
0001
1000
,
0100
1000
0001
1000
0100
1000
0010
0001
0010
0100
1000
0001
0100
1000
0010
0001
,
0010
0100
1000
0100
0010
0000
1100
0010
0000
1000
0101
0000
0010
0100
1001
1001
,
0100
0010
0100
0010
0001
0100
1000
0010
1000
0001
0100
0001
0100
1000
0010
1000
,
0001
1000
0010
1000
0001
0100
1000
0001
0100
1000
0010
0100
0010
1000
0001
1000
,
0100
1000
0001
1000
0100
1000
0010
0001
0010
0100
1000
0001
0100
1000
0010
0001
,
0010
0000
0100
0000
1000
0000
0100
0000
0010
0001
0010
0000
0001
0000
0010
0000
0100
0000
1000
0000
0110
0000
0110
0000
0001
0000
1000
0000
0100
0000
1000
0000
,
0100
0010
0001
0010
1001
0000
0010
0000
1100
0010
0100
1000
0110
0001
0010
1000
,
0101
0010
0100
1000
0101
0010
0001
1000
0110
0001
0010
1000
0101
0010
0100
1000
,
0110
0000
0000
0110
0001
0000
0010
0000
0100
0000
1000
0000
0111
0000
0000
0000
0000
0000
0000
0000
0000
0000
0000
0000
0000
0000
0000
0000
0000
0000
0000
0000
0000
0000
0000
0000
2110
0000
0000
0000
0000
0000
0000
0000
0000
0000
0000
0000
,
0000
3111
0000
0000
0000
0000
1012
0000
,
1113
0000
0000
0000
2110
0000
0000
3111
,
0000
0000
0000
0000
1001
1100
0110
1001
,
0111
0000
0000
0000
2110
0000
0000
3111
,
0000
0000
1012
1113
,
0000
0000
2110
0000
0000
3111
0000
0000
,
1100
0000
1100
0000
0111
0000
0111
0000
0100
0010
0100
0010
1101
0010
1000
0100
,
1001
0100
1000
0010
1000
0100
0010
0100
1010
0001
1000
0100
0010
0001
0100
0001
,
0110
1000
0010
1000
0001
0010
0100
0010
1001
0100
1000
0010
1101
0010
0001
0100
,
1010
0001
0100
1000
0001
0100
0001
1000
0110
1000
0001
0010
0100
0010
0001
1000
,
0011
0100
0010
1000
0100
0001
0110
0000
0220
0000
1330
0001
1110
0001
0100
0001
,
1100
0010
1000
0010
0100
0010
0001
0100
1001
0010
0100
1000
0010
1000
0001
0100
,
0011
1000
0100
1000
0010
0100
0010
1000
0110
1000
0001
0100
1011
0100
0010
0100
,
1001
0000
0000
0000
0000
0000
0000
0000
0000
0000
0000
0000
0010
0000
0000
0000
0000
0000
0000
0000
0000
0000
0000
0000
1000
0000
0000
0000
0000
0000
0000
0000
0000
0000
0000
0000
0001
0000
0000
0000
0000
0000
0000
0000
0000
0000
0000
0000
0100
0000
0000
0000
0000
0000
0000
0000
0000
0000
0000
0000
0001
0000
0000
0000
0000
0000
0000
0000
0000
0000
0000
0000
1000
0000
0000
0000
0000
0000
0000
0000
0000
0000
0000
0000
0100
0000
0000
0000
0000
0000
0000
0000
0000
0000
0000
0000
1010
0000
0000
0000
0000
0000
0000
0000
0000
0000
0000
0000
0001
0000
0000
0000
0000
0000
0000
0000
0000
0000
0000
0000
0100
0000
0000
0000
0000
0000
0000
0000
0000
0000
0000
0000
0010
0000
0000
0000
0000
0000
0100
0000
0000
0000
0000
0000
1001
0000
0000
0000
0000
0000
0000
0000
0000
0000
0000
0000
0000
0000
0000
0000
1000
0000
0000
0000
0000
0000
0000
0000
0001
0000
0000
0000
0000
0000
0000
0000
0100
0000
0000
0000
0000
0000
0000
0000
0001
0000
0000
0000
0000
0000
0000
0000
,
0010
0000
0000
1000
0001
1000
0110
0000
0000
1022
0000
0000
0000
0000
0000
0033
0000
0000
1100
0000
0000
0100
0000
0000
,
1011
0100
0020
0000
0000
0000
0130
0000
1011
0100
0020
0000
0000
0000
0130
0000
,
1011
0100
0020
0000
0000
0000
1030
0100
1001
0010
0001
0100
1000
0000
0100
0000
,
1011
0100
0020
0000
0000
0000
0130
0000
1010
0001
1000
0100
0001
0000
0010
1000
,
0101
0010
1000
0001
0100
1000
0101
0011
0110
1001
0100
1000
0010
0000
0100
0000
,
1011
0100
0020
0000
0000
0000
0130
0000
1011
0100
0020
0000
0000
0000
0130
0000
,
1011
0100
0020
0000
0000
0000
1030
0100
1001
0010
0001
0100
1001
0000
0110
0000
,
1001
0000
0000
0000
0000
0000
0000
0000
0000
0000
0000
0000
1001
0000
0000
0000
0000
0000
0000
0000
0000
0000
0000
0000
0001
0000
0000
0000
0000
0000
0000
0000
0010
0000
0000
0000
0000
0000
0000
0000
0100
0000
0000
0000
0000
0000
0000
0000
1001
0000
0000
0000
0000
0000
0000
0000
0000
0000
0000
0000
0000
0000
0000
0000
0000
0000
0000
0000
0000
0000
0000
0000
0110
0000
0000
0000
0000
0000
0000
0000
0000
0000
0000
0000
0000
0000
0000
0000
1000
0000
0000
0000
0000
0000
0000
0000
0000
0000
0000
0000
0000
0000
0000
0000
0100
0000
0000
0000
0000
0000
0000
0000
0010
0000
0000
0000
0000
0000
0000
0000
0001
0000
0000
0000
0000
0000
1000
0000
0000
0000
0000
0000
0000
0000
0000
0000
0000
0000
0000
0000
0000
0000
0000
0000
0110
0000
0000
0000
0000
0000
0000
0000
0000
0000
0000
0000
0110
0000
0000
0000
0000
0000
0000
0000
0000
0000
0000
0000
1000
0000
0000
0000
0000
0000
0000
0000
0000
0000
0000
0000
0000
0000
0000
0000
0100
0000
0000
0000
0000
0000
0000
0000
,
0010
1001
0100
0010
0001
0100
1001
0000
0000
2022
0000
0000
0000
0000
0000
3033
0000
0000
1001
0000
0000
0100
0000
0000
,
1011
0100
0020
0000
0000
0000
0130
0000
1011
0100
0020
0000
0000
0000
0130
0000
,
1011
0100
0020
0000
0000
0000
1030
0100
1010
0001
0100
1000
0001
0000
0100
0000
,
1011
0100
0020
0000
0000
0000
0130
0000
0101
0010
0100
1000
0001
1000
0010
1000
,
0110
0001
1000
0100
0001
1000
0010
0001
0110
1000
0100
1000
0100
0000
0010
0000
,
1011
0100
0020
0000
0000
0000
0130
0000
1011
0100
0020
0000
0000
0000
0130
0000
,
1011
0100
0020
0000
0000
0000
1030
0100
1001
0010
0001
0100
1012
0000
0000
0000
,
0110
0000
0000
1000
0000
0000
0000
0000
0000
1000
0000
0000
0110
0000
0000
0003
0000
0000
2011
0000
0000
0100
0010
0100
,
0011
0000
0100
0000
3100
0000
0112
0000
0000
0000
1103
0110
0011
0000
0100
0000
,
1011
0100
0020
0000
0000
0000
0130
0000
1011
0100
0020
0000
0000
0000
0130
0000
,
1011
0100
0020
0000
0000
0000
1030
0100
1010
0001
0100
1000
0001
0000
0100
0000
,
1011
0100
0020
0000
0000
0000
0130
0000
0101
0010
0100
1000
0001
1000
0010
1000
,
0110
0001
1000
0100
0001
1000
0010
0001
0110
1000
0100
1000
0100
0000
0010
0000
,
1011
0100
0020
0000
0000
0000
0130
0000
1011
0100
0020
0000
0000
0000
0130
0000
,
1011
0100
0020
0000
0000
0000
1030
0100
1001
0010
0001
0100
2011
0000
0000
0000
,
0011
0000
0000
0100
0000
0000
0000
0000
0000
0010
0000
0000
3101
0000
0000
0000
0100
1000
0121
0000
0000
1000
0000
0000
,
1000
0000
0101
0000
1000
0000
1030
0000
2000
0001
3200
0001
1310
0000
1000
0000
,
0010
0100
0011
1000
0010
0000
1000
0100
0001
0000
0100
0000
0001
0010
1001
0010
,
1000
0001
0100
1000
0110
0000
0001
1000
0100
0010
0101
0000
0010
0000
1000
0010
,
1001
0000
0100
0000
0011
0000
1000
0000
0110
1001
0100
0010
0001
1000
0100
0010
1101
0000
0010
0000
0100
0000
0001
0000
1000
0000
0001
0000
1000
0000
0100
0000
,
0011
0100
0010
1001
0100
0001
0110
0001
1010
0100
1000
0100
0010
1000
0001
0100
,
0011
1000
0001
0110
1000
0100
1001
0100
0011
1000
0001
1000
0100
0010
1100
0001
,
0110
1000
0010
0101
0010
0001
1100
0010
0100
1000
0110
0001
1000
0001
0010
0001
,
1000
0100
0010
1000
0100
1000
0001
0100
1011
0100
0010
1000
0011
0100
1001
0100
,
0010
0001
0110
1000
0100
1000
0011
0100
0010
1000
0001
1000
0101
1000
0110
1000
,
0100
0010
0001
1000
0011
0100
1000
0001
1010
0100
0010
0001
1000
0100
1001
0100
,
0010
0001
1000
0001
0010
0100
1000
0001
0110
0000
1000
0000
1000
0000
0011
0000
,
1000
0000
0110
1000
0100
0010
1001
0100
1011
0100
0010
0001
1000
0100
1000
0100
,
0011
0100
0010
1100
0001
0100
1001
0100
0011
1000
0100
0010
1000
0001
1000
0100
,
0011
0100
0001
1010
0100
1000
0011
1000
0101
0010
0100
1000
0001
1000
0010
0001
,
1100
0001
1000
0110
1000
0100
0011
1000
0001
1000
0110
0001
1000
0010
1000
0001
,
0100
0001
0010
0100
1000
0010
1000
0001
1110
0001
0100
0001
0010
0100
0011
0100
,
1010
0001
1000
0110
1000
0100
1001
0100
0011
1000
0010
1000
0100
0010
1100
0001
,
0110
1000
0100
0011
1000
0001
1010
0100
1001
0010
0100
1000
0010
1000
0011
1000
,
0100
0000
0000
0010
0000
0000
1000
0000
0000
0100
0000
0000
1000
0000
0000
0001
0000
0000
0100
0000
0000
1000
0000
0000
0011
0000
1100
0000
0011
0000
1100
0000
0001
0000
0010
0000
0100
0000
1000
0000
0001
0000
0010
0000
0100
0000
1000
0000
,
0011
0000
1100
0000
0011
0000
1100
0000
0011
0000
1000
0000
0100
0000
0010
0000
0001
0000
1000
0000
0100
0000
0010
0000
1001
0000
0000
0000
0000
0000
1000
0000
0000
0010
0000
0000
1000
0000
0000
0001
0000
0000
0100
0000
0000
0001
0000
0000
,
0100
1000
0010
1000
0001
1000
0010
1000
0001
0100
1000
0001
0100
1000
0010
0100
,
0010
1000
0001
1000
0100
1000
0001
1000
0100
1000
0010
0001
0010
0100
1000
0001
,
0100
1000
0010
0001
0010
0100
1000
0100
0010
0000
1100
0010
0000
1000
0101
0000
,
0001
0000
0010
0000
0100
0000
1000
0000
0010
0000
0100
0000
1001
0000
0000
1001
0000
0000
0010
0000
0000
1000
0000
0000
0110
0000
0000
0000
0000
0000
1000
0000
0000
0010
0000
0000
1000
0000
0000
0001
0000
0000
0100
0000
0000
0001
0000
0000
,
0100
1000
0010
1000
0001
1000
0010
1000
0001
0100
1000
0001
0100
1000
0010
0100
,
0010
1000
0001
1000
0100
1000
0001
1000
0100
1000
0010
0001
0010
0100
1000
0001
,
0100
0000
1000
0000
0010
0000
0001
0000
0010
0000
0100
0000
1000
0000
0100
0000
0010
0000
1000
0000
0001
0000
0100
0010
1001
0000
0010
0000
0100
0000
0000
0000
,
1000
0001
0100
0000
0010
0000
0100
0000
0010
0000
0100
0000
0001
0000
0010
0000
1001
0000
0000
0000
0010
0000
0000
0000
1100
0000
0010
0000
0100
0000
1000
0000
,
0110
0000
0000
0001
0000
0000
0010
0000
0000
1000
0000
0000
0101
0000
0000
0010
0000
0000
0100
0000
0000
1000
0000
0000
0101
0000
0000
0010
0000
0000
0001
0000
0000
1000
0000
0000
0010
0000
0100
0000
0010
0000
0100
0000
0010
0000
0100
0000
,
0001
0000
0000
0000
0000
0000
0010
0000
0000
0000
0000
0000
0001
0000
0000
0000
0000
0000
0010
0000
0000
0000
0000
0000
0001
0000
0000
0000
0000
0000
0010
0000
0000
0000
0000
0000
0001
0000
0000
0000
0000
0000
0010
0000
0000
0000
0000
0000
0100
0000
0000
0000
0000
0000
0000
0000
1000
0000
0000
0000
0000
0000
0000
0000
0100
0000
0000
0000
0000
0000
0000
0000
1000
0000
0000
0000
0000
0000
0000
0000
0100
0000
0000
0000
0000
0000
0000
0000
1000
0000
0000
0000
0000
0000
0000
0000
0020
0000
0000
0000
0000
0000
0000
0000
0000
0000
0000
0000
0000
0000
0000
0000
0000
0000
0000
0000
0000
0000
0000
0000
0000
0000
0000
0000
0000
0000
0000
0000
0000
0000
0000
0000
0000
0000
0000
0000
0000
0000
0000
0000
0000
0000
0000
0000
0000
0000
0000
0000
0000
0000
0000
0000
0000
0000
0000
0000
0000
0000
0000
0000
0000
0000
0000
0000
0000
0000
0000
0000
0000
0000
0000
0000
0000
0000
0000
0000
0000
0000
0000
0000
0000
0000
0000
0000
0000
0000
0000
0000
0000
0000
0000
0000
,
0030
0000
0100
0000
1011
0100
0020
0000
0000
0000
0130
0000
1011
0100
0020
0000
,
0000
0000
1030
0100
1010
0001
0100
1000
0001
0000
0100
0000
1011
0100
0020
0000
,
0000
0000
0130
0000
0101
0010
0100
1000
0001
1000
0010
1000
0110
0001
1000
0100
,
0001
1000
0010
0001
0110
1000
0100
1000
0100
0000
0010
0000
1011
0100
0020
0000
,
0000
0000
0130
0000
1011
0100
0020
0000
0000
0000
0130
0000
1011
0100
0020
0000
,
0000
0000
1030
0100
1001
0010
0001
0100
1210
0000
0000
0000
0011
0000
1000
0000
,
1000
0000
0000
0000
1000
0010
1001
0000
0000
1300
0000
0000
0121
0000
0000
1000
0100
0001
1100
0000
0000
0001
0000
0000
,
0031
0000
1100
0110
0001
0000
0011
0110
1000
0000
0100
0000
1011
0100
0020
0000
,
0000
0000
0130
0000
1011
0100
0020
0000
0000
0000
0130
0000
1011
0100
0020
0000
,
0000
0000
0000
0000
0000
0000
1030
0000
0000
0100
0000
0000
1010
0000
0000
0001
0000
0000
0100
0000
0000
1000
0000
0000
0001
0000
0000
0100
0000
0000
0010
0000
0000
0100
0000
0000
1001
0000
0000
0010
0000
0000
1000
0000
0010
0000
0100
0000
,
0001
0010
0100
1000
0001
1000
0001
0010
1000
0100
0010
0100
0001
0010
0100
1000
0001
0100
0010
1000
0100
0010
0001
0100
,
0001
0000
0100
0000
0010
0000
0100
0000
1000
0000
0100
0000
0020
0000
0000
0000
0000
0000
1130
0000
0000
1010
0000
0000
0001
0000
0000
0000
0000
0000
0010
0000
0000
0000
0000
0000
1011
0000
0000
0100
0000
0000
0020
0000
0000
0000
0000
0000
,
0000
0000
0130
0000
1011
0100
0020
0000
0000
0000
0130
0000
1011
0100
0020
0000
,
0000
0000
1030
0100
1001
0010
0001
0100
2011
0000
0000
0000
0101
0000
0010
0000
,
0000
0000
0000
0010
0000
0000
3101
0000
0000
1000
0100
0010
1001
0000
0000
0010
0000
0000
0010
0000
0000
1001
0000
0000
,
0010
0000
0010
0000
2000
0010
3002
0100
1013
0000
0100
0000
0010
0100
0011
1000
,
0001
0000
1000
0100
0001
1000
0100
0000
0001
0010
1001
0010
1000
0001
0100
1000
,
0110
0000
0001
1000
0100
0010
0101
1000
0010
0000
1000
0010
1001
0100
0011
1000
,
0110
1001
0100
0010
1001
0100
0010
0100
1011
0000
0100
0000
0010
0000
0001
0000
1000
0000
0001
0000
1000
0000
0100
0000
0011
0000
0100
0000
0010
0000
1001
0000
,
0100
0001
0110
0001
1010
0100
1000
0100
0010
1000
0001
0100
0011
1000
0001
0110
,
1000
0100
1001
0100
0011
1000
0001
1000
0100
0010
1100
0001
0110
1000
0010
0101
,
0010
0001
1100
0010
0100
1000
0110
0001
1000
0001
0010
0001
1000
0100
0010
1000
,
0100
1000
0001
0100
1011
0100
0010
1000
0011
0100
1001
0100
0010
0001
0110
1000
,
0100
1000
0011
0100
0010
1000
0001
1000
0101
1000
0110
1000
0100
0010
0001
1000
,
0011
0100
1000
0001
1010
0100
0010
0001
1000
0100
1001
0100
0010
0001
1000
0001
,
0010
0100
1000
0001
0110
0000
1000
0000
1000
0000
0011
0000
1000
0000
0110
1000
,
0100
0010
1001
0100
1011
0100
0010
0001
1000
0100
1000
0100
0011
0100
0010
1100
,
0001
0100
1001
0100
0011
1000
0100
0010
1000
0001
1000
0100
0011
0100
0001
1010
,
0100
1000
0011
1000
0101
0010
0100
1000
0001
1000
0010
0001
1100
0001
1000
0110
,
1000
0100
0011
1000
0001
1000
0110
0001
1000
0010
1000
0001
0100
0001
0010
0100
,
1000
0010
1000
0001
1110
0001
0100
0001
0010
0100
0011
0100
1010
0001
1000
0110
,
1000
0100
1001
0100
0011
1000
0010
1000
0100
0010
1100
0001
0110
1000
0100
0011
,
1000
0001
1010
0100
1001
0010
0100
1000
0010
1000
0011
1000
0100
0010
1000
0100
,
1000
0001
0100
0001
0110
0000
1000
0000
1000
0000
0101
0000
1000
0000
1000
0000
,
0001
0010
0100
1001
0000
0000
1000
0001
1000
0001
1000
0001
1000
0100
0010
0001
0010
0100
1000
0001
1000
0001
1000
0001
,
1000
0100
0010
0001
0010
0100
1000
0001
1000
0001
1000
0001
1000
0100
0010
0001
0010
0100
0001
0010
0001
1000
0100
1000
,
0010
0001
0010
1000
0100
0010
1000
0001
1000
0001
1000
0001
1000
0100
0010
0001
0010
0100
1000
0001
1000
0001
1000
0001
,
1000
0100
0010
0001
0010
0100
1000
0001
1000
0001
1000
0001
1000
0100
0010
0001
0010
0100
1000
0100
0010
0001
0010
0100
,
2000
0000
0000
0000
3000
0000
1000
0001
1000
0001
1000
0001
1000
0100
0010
0001
0010
0100
1000
0001
1000
0001
1000
0001
,
1000
0100
0010
0001
0010
0100
1000
0001
1000
0001
1000
0001
1000
0100
0010
0001
0010
0100
0001
0010
0001
1000
0100
1000
,
0010
0001
0010
1000
0100
0010
1000
0001
1000
0001
1000
0001
1000
0100
0010
0001
0010
0100
1000
0001
1000
0001
1000
0001
,
1000
0100
0010
0001
0010
0100
1000
0001
1000
0001
1000
0001
1000
0100
0010
0001
0010
0100
1000
0100
0010
0001
0010
0100
,
2000
0000
0000
0000
3000
0000
0010
0100
0010
0100
0010
0100
0001
1000
0010
0100
0001
1000
0010
0100
0010
0100
0010
0100
,
0001
1000
0010
0100
0001
1000
0010
0100
0010
0100
0010
0100
0001
1000
0010
0100
0001
1000
0010
0100
0010
1000
0100
0010
,
0001
1000
0001
0100
1000
0001
0010
0100
0010
0100
0010
0100
0001
1000
0010
0100
0001
1000
0010
0100
0010
0100
0010
0100
,
0001
1000
0010
0100
0001
1000
0010
0100
0010
0100
0010
0100
0001
1000
0010
0100
0001
1000
0001
0010
0100
1000
0100
0010
,
0002
0000
0000
0000
0003
0000
0010
0100
0010
0100
0010
0100
0001
1000
0010
0100
0001
1000
0010
0100
0010
0100
0010
0100
,
0001
1000
0010
0100
0001
1000
0010
0100
0010
0100
0010
0100
0001
1000
0010
0100
0001
1000
0010
0100
0010
1000
0100
0010
,
0001
1000
0001
0100
1000
0001
0010
0100
0010
0100
0010
0100
0001
1000
0010
0100
0001
1000
0010
0100
0010
0100
0010
0100
,
0001
1000
0010
0100
0001
1000
0010
0100
0010
0100
0010
0100
0001
1000
0010
0100
0001
1000
0001
0010
0100
1000
0100
0010
,
0002
0000
0000
0000
0003
0000
1001
0000
0000
0100
0000
0000
0010
0000
0000
0001
0000
0000
1000
0000
0000
0010
0000
0000
,
1000
0000
0200
0000
0000
0000
0320
0032
0023
0032
0023
0000
0230
0000
0000
0000
,
0320
0000
0000
0000
0000
0000
0032
0003
0000
0000
0000
0000
0100
0000
0000
0000
0000
0000
0001
0000
0000
0010
0000
0000
0100
0000
0000
1000
0000
0000
0100
0000
0000
1000
0000
0000
0010
0000
0000
0100
0000
0000
0010
0000
0000
0001
0000
0000
,
1000
0000
0000
0010
0000
0000
1000
0000
0000
0100
0000
0000
0001
0000
1000
0000
0010
0000
0100
0000
1000
0000
0100
0000
0001
0000
1000
0000
0010
0000
0100
0000
1000
0000
0100
0000
0010
0000
0100
0000
0010
0000
0001
0000
0010
0000
0100
0000
,
1000
0010
1000
0100
0010
0100
0001
0010
0100
1000
0100
0010
0100
1000
0010
1000
0100
0010
0001
0010
0100
1000
0100
0010
,
0100
1000
0010
1000
0100
0010
0001
0010
0100
1000
0100
0010
0100
0000
0000
0020
0000
0000
0000
0000
0000
0000
0000
0000
,
0030
0000
0200
2300
3002
0000
0000
0000
0000
0000
0003
0000
0100
0000
1000
0000
,
0020
0030
0000
0001
0002
0000
0000
0000
0003
0000
1000
0100
0020
0000
0000
0000
,
0030
0000
0000
0000
0002
0000
0000
0003
1000
1000
0020
0000
0000
0030
1000
1000
,
0200
0000
0000
0000
0000
0000
0000
0000
0000
0000
0000
0000
0000
0000
0000
0000
0000
0000
0000
0000
0000
0000
0000
0000
1300
0000
0000
0000
0000
0000
0000
0000
0000
0000
0000
0000
1000
0000
0000
0000
0000
0000
0000
0000
0000
0000
0000
0000
0200
0000
0000
0000
0000
0000
0000
0000
0000
0000
0000
0000
0000
0000
0000
0000
0300
0000
0000
0000
0000
0000
0000
0000
0000
0000
0000
0000
0000
0000
0000
0000
0000
0000
0000
0000
0000
0000
0000
0000
0000
0000
0000
0000
0000
0000
0000
0000
0010
0000
0000
0000
0000
0000
0000
0000
0000
0000
0000
0000
0100
0000
0000
0000
0000
0000
0000
0000
0000
0000
0000
0000
0000
0000
0000
0000
0000
0000
0000
0000
0000
0000
0000
0000
0000
0000
0000
0002
0000
0000
0000
0000
0000
0000
0000
0000
0000
0000
0000
0003
0000
0000
0000
0000
0000
0000
0000
0000
0000
0000
0000
2000
0000
0000
0000
0000
0000
0000
0000
0000
0000
0000
0000
3000
0000
0000
0000
0000
0000
0000
0000
0000
0000
0000
0000
0020
0000
0000
0000
0000
0000
0000
0000
0000
,
0000
0000
0000
0030
0000
0000
0000
0000
0000
0000
0000
0000
0000
0000
0000
0200
0000
0000
0000
0000
0000
0000
0000
0000
0000
0000
0000
0000
0000
0000
0000
0000
0000
0000
0000
0000
0000
0000
0000
0300
0000
0000
0000
0000
0000
0000
0000
0000
0001
0000
0000
0000
0000
0000
0000
0000
0010
0000
0000
0000
0000
0000
0000
0000
0100
0000
0000
0000
0000
0000
0000
0000
1000
0000
0000
0000
0000
0000
0000
0000
0100
0000
0000
0000
0000
0000
0000
0000
0010
0000
0000
0000
0000
0000
0000
0000
0001
0000
0000
0000
0000
0000
0000
0000
1000
0000
0000
0000
0000
0000
0000
0000
0010
0000
0000
0000
0000
0000
0000
0000
1000
0000
0000
0000
0000
0000
0000
0000
0100
0000
0000
0000
0000
0000
0000
0000
0010
0000
0000
0000
0000
0000
0000
0000
0001
0000
0000
0000
0000
0000
0000
0000
0010
0000
0000
0000
0000
0000
0000
0000
0100
0000
0000
0000
0000
0000
0000
0000
1000
0000
0000
0000
0000
0000
0000
0000
0100
0000
0000
0000
0000
0000
0000
0000
1000
0000
0000
0000
0000
0000
0000
0000
,
0001
0010
0100
1000
0100
1000
0001
0010
1000
0001
0010
0100
1000
0100
0010
0001
0010
0100
0001
1000
0100
0010
0100
1000
,
0001
0000
0000
0000
0000
0000
0000
0000
1000
0000
0000
0000
0000
0000
0000
0000
0100
0000
0000
0000
0000
0000
0000
0000
0001
0000
0000
0000
0000
0000
0010
0000
0000
0000
0000
0000
0100
0000
0000
0000
0000
0000
1000
0000
0000
0000
0000
0000
0010
0000
0000
0000
0000
0000
0100
0000
0000
0000
0000
0000
0010
0000
0000
0000
0000
0000
1000
0000
0000
0000
0000
0000
0100
0000
0000
0000
0000
0000
0010
0000
0000
0000
0000
0000
0001
0000
0000
0000
0000
0000
1000
0000
0000
0000
0000
0000
0100
0000
0000
0000
0000
0000
0010
0000
0000
0000
0000
0000
0100
0000
0000
0000
0000
0000
1000
0000
0000
0000
0000
0000
0001
0000
0000
0000
0000
0000
0010
0000
0000
0000
0000
0000
0100
0000
0000
0000
0000
0000
1000
0000
0000
0000
0000
0000
0010
0000
0000
0000
0000
0000
0100
0000
0000
0000
0000
0000
0010
0000
0000
0000
0000
0000
0001
0000
0000
0000
0000
0000
1000
0000
0000
0000
0000
0000
0001
0000
0000
0000
0000
0000
0010
0000
0000
0000
0000
0000
0100
0000
0000
0000
0000
0000
,
1000
0100
0010
0001
1000
0100
0010
0001
1000
0100
0010
0001
0020
0000
0000
0030
0001
0010
0100
1000
0001
0010
0100
1000
0001
0010
0100
1000
0001
0010
0100
1000
,
0001
0000
0000
0000
0000
0000
0010
0000
0000
0000
0000
0000
0100
0000
0000
0000
0000
0000
1000
0000
0000
0000
0000
0000
0001
0000
0000
0000
0000
0000
0010
0000
0000
0000
0000
0000
0100
0000
0000
0000
0000
0000
1000
0000
0000
0000
0000
0000
0020
0000
0000
0000
0000
0000
0000
0000
0000
0000
0000
0000
0000
0000
0000
0000
0000
0000
0000
0000
0000
0000
0000
0000
0000
0000
0000
0000
0000
0000
0000
0000
0000
0000
0000
0000
0000
0000
0000
0000
0000
0000
0000
0000
0000
0000
0000
0000
0000
0000
0000
0000
0000
0000
0000
0000
0000
0000
0000
0000
0000
0000
0000
0000
0000
0000
0000
0000
0000
0000
0000
0000
0000
0000
0000
0000
0000
0000
0000
0000
0030
0000
0000
0000
0200
0000
0000
0000
0000
0000
0000
0000
0000
0000
0000
0000
2300
0000
0000
0000
0000
0000
0000
0000
0000
0000
0000
0000
3200
0000
0000
0000
0000
0000
0000
0000
0000
0000
0000
0000
2300
0000
0000
0000
0000
0000
0000
0000
0000
0000
0000
0000
3200
0000
0000
0000
0000
0000
0000
0000
0000
0000
0000
0000
,
2300
0000
0000
0000
0000
0000
0000
0000
0000
3000
0000
0000
0002
0000
0000
0100
0000
0000
0010
0000
0000
0100
0000
0000
0010
0000
1000
0000
0010
0000
0100
0000
0010
0003
1000
0000
0200
0000
0010
0000
0001
0000
0010
0000
0000
1000
0000
0000
,
0001
1000
0001
1300
2011
0100
0010
0001
0100
0001
0010
0100
3011
0100
0010
1001
,
0100
0001
0110
0001
1010
0100
1000
0100
0010
1000
0001
0100
0011
1000
0001
0110
,
1000
0100
1001
0100
0011
1000
0001
1000
0100
0010
1100
0001
0110
1000
0010
0101
,
0010
0001
1100
0010
0100
1000
0110
0001
1000
0001
0010
0001
1000
0100
0010
1000
,
0100
1000
0001
0100
1011
0100
0010
1000
0011
0100
1001
0100
0010
0001
0110
1000
,
0100
1000
0011
0100
0010
1000
0001
1000
0101
1000
0110
1000
0100
0010
0001
1000
,
0011
0100
1000
0001
1010
0100
0010
0001
1000
0100
1001
0100
0010
0001
1000
0001
,
0010
0100
1000
0001
0110
0000
1000
0000
1000
0000
0011
0000
1000
0000
0110
1000
,
0100
0010
1001
0100
1011
0100
0010
0001
1000
0100
1000
0100
0011
0100
0010
1100
,
0001
0100
1001
0100
0011
1000
0100
0010
1000
0001
1000
0100
0011
0100
0001
1010
,
0100
1000
0011
1000
0101
0010
0100
1000
0001
1000
0010
0001
1100
0001
1000
0110
,
1000
0100
0011
1000
0001
1000
0110
0001
1000
0010
1000
0001
0100
0001
0010
0100
,
1000
0010
1000
0001
1110
0001
0100
0001
0010
0100
0011
0100
1010
0001
1000
0110
,
1000
0100
1001
0100
0011
1000
0010
1000
0100
0010
1100
0001
0110
1000
0100
0011
,
1000
0000
0000
0001
0000
0000
1010
0000
0000
0100
0000
0000
1001
0000
0000
0000
0000
0000
0000
0000
0000
0000
0000
0000
0100
0010
0000
0000
0000
0000
0001
0000
0010
0000
0100
0000
1000
0000
0010
0000
0100
0000
1001
0000
0000
0000
1001
0000
,
0010
0000
0000
0000
0000
0000
0000
0000
0000
0000
0000
0000
1000
0000
0000
0000
0000
0000
0000
0000
0000
0000
0000
0000
0001
0000
0000
0000
0000
0000
0000
0000
0000
0000
0000
0000
0100
0000
0000
0000
0000
0000
0000
0000
0000
0000
0000
0000
2002
0000
0000
0000
0000
0000
0000
0000
0000
0000
0000
0000
0000
0000
0000
0000
3003
0000
0000
0000
0000
0000
0000
0000
0010
0000
0000
0000
0000
0000
0000
0000
0100
0000
0000
0000
0000
0000
0000
0000
0010
0000
0000
0000
0000
0000
0000
0000
0100
0000
0000
0000
0000
0000
1000
0000
0000
0000
0000
0000
0100
0000
0000
0000
0000
0000
0010
0000
0000
0000
0000
0000
0001
0000
0000
0000
0000
0000
1000
0000
0000
0000
0000
0000
0001
0000
0000
0000
0000
0000
0100
0000
0000
0000
0000
0000
0010
0000
0000
0000
0000
0000
0100
0000
0000
0000
0000
0000
0001
0000
0000
0000
0000
0000
1000
0000
0000
0000
0000
0000
0010
0000
0000
0000
0000
0000
0100
0000
0000
0000
0000
0000
0001
0000
0000
0000
0000
0000
1000
0000
0000
0000
0000
0000
,
0100
0010
0000
0000
0000
0000
0000
0000
0000
0000
0000
0000
1001
0000
0000
0000
0000
0000
1000
0000
0000
0010
0000
0000
1000
0000
0000
0001
0000
0000
0100
0000
0000
0001
0000
0000
0100
0000
0000
1000
0000
0000
0010
0000
0000
1000
0000
0000
,
0001
1000
0010
1000
0001
0100
1000
0001
0100
1000
0010
0100
0010
1000
0001
1000
,
0100
1000
0001
1000
0100
1000
0010
0001
0010
0100
1000
0001
0100
1000
0010
0001
,
0010
0100
1000
0100
0010
0000
1100
0010
0000
1000
0101
0000
0110
0000
1001
0110
,
0000
0011
1100
0110
1001
0000
1000
0010
1000
0001
0100
0001
0100
1000
0010
1000
,
0001
1000
0010
1000
0001
0100
1000
0001
0100
1000
0010
0100
0010
1000
0001
1000
,
0100
1000
0001
1000
0100
1000
0010
0001
0010
0100
1000
0001
0100
1000
0010
0001
,
0010
0100
1000
0100
0010
0000
1100
0010
0000
0001
0110
0000
1000
0000
0011
0100
,
0000
0010
1001
0000
0110
0000
1000
0100
0010
0001
1000
0100
0010
0001
1000
0100
,
0010
0000
0000
0001
0000
0000
1000
0000
0000
0100
0000
0000
0010
0000
0000
0000
0001
0000
0010
0000
0100
0000
0010
0000
0001
0000
0000
1000
0000
0000
0001
0000
0000
0100
0000
0000
0010
0000
0000
0100
0000
0000
0001
0000
0000
1000
0000
0000
,
0100
0010
2222
3333
0000
0000
0000
0000
0000
0000
0000
0000
0000
0000
0000
0000
;
