#TITLE:Gruntilda's Lair;
#SUBTITLE:Banjo-Kazooie;
#ARTIST:Rareware;
#TITLETRANSLIT:;
#SUBTITLETRANSLIT:;
#ARTISTTRANSLIT:;
#CREDIT:RareWare;
#BANNER:Gruntilda's Lair-banner.PNG;
#BACKGROUND:gl.PNG;
#LYRICSPATH:;
#CDTITLE:kyka06.png;
#MUSIC:Gruntilda's Lair.mp3;
#OFFSET:-0.400;
#SAMPLESTART:59.647;
#SAMPLELENGTH:12.500;
#SELECTABLE:YES;
#BPMS:0.000=97.060;
#STOPS:;
#BGCHANGES:;
// cache tags:
#FIRSTBEAT:0.000;
#LASTBEAT:200.000;
#SONGFILENAME:Songs/new/BK - Gruntilda's Lair/Gruntilda's Lair.sm;
#HASMUSIC:1;
#HASBANNER:1;
#MUSICLENGTH:138.378;
// end cache tags

//---------------dance-single - ----------------
#NOTES:
     dance-single:
     :
     Hard:
     8:
     0.481,0.452,0.137,0.043,0.878,441.000,19.000,6.000,0.000,0.000:
0100
0000
0001
1000
0010
0001
1000
0000
0100
0001
1000
0010
,
0001
0000
1000
0100
0001
1000
0010
0000
0001
1000
0100
0010
,
1000
0000
1000
0010
0000
0100
0001
0000
0001
1000
0000
0100
,
0001
0000
1000
0010
0000
0001
1000
0000
0100
0010
0000
0002
,
1003
0000
0100
0001
1000
0010
0001
0000
1000
0100
0000
0001
,
1000
0000
0100
1000
0100
0010
0001
0000
0000
1000
0000
0020
,
0130
0000
0010
1000
0100
0001
1000
0000
0100
0001
0000
1000
,
0010
0000
0001
0010
1000
0010
0001
0000
0000
0000
0000
0020
,
0130
0000
0001
1000
0010
0001
1000
0000
0100
0001
0000
1000
,
0010
0000
0001
1000
0000
0100
0001
0000
1000
0010
0000
0001
,
1000
0000
0100
0001
0100
1000
0001
0000
0010
1000
0000
0001
,
0100
1000
0001
1000
0100
0001
0010
0100
1000
0010
0001
1000
,
0100
0000
0001
1000
0010
0001
0010
0000
1000
0001
0000
0100
,
1000
0000
0100
0010
0000
0100
0001
0000
0100
1000
0000
0100
,
0001
0000
1000
0010
0001
0100
1000
0000
0010
0001
0000
1000
,
0100
0001
1000
0010
0001
1000
0100
0001
1000
0001
1000
0100
,
0001
0000
0100
0001
1000
0010
0001
0000
1000
0100
0000
0001
,
1000
0000
0010
1000
0010
0001
1000
0000
0000
0100
0000
0000
,
0001
0000
1000
0010
0001
1000
0101
0000
0001
1000
0000
0010
,
0001
0000
1000
0100
0001
1000
0020
0000
0000
0000
0000
0030
,
0100
0000
0001
1000
0010
0001
1000
0000
0100
0001
0000
1000
,
0010
0000
0001
1000
0000
0100
0001
0000
0100
1000
0000
0100
,
0001
0000
1000
0010
0001
1000
0100
0000
0001
1000
0000
0010
,
0100
0001
0100
0001
1000
0010
0001
1000
0100
0010
0001
1000
,
0100
0001
0100
0101
0000
1000
1010
0000
0001
1001
1000
0100
,
1100
0001
0100
0101
0000
1000
1001
0000
0000
0100
0000
0000
,
0100
0010
1000
0001
0000
0001
1000
0000
0100
0001
1000
0010
,
0001
0000
1000
0100
0001
1000
0010
1000
0010
0001
0000
1000
,
0100
0001
0100
1010
0000
0010
1001
0000
0010
0101
1000
0010
,
1001
0100
0001
1010
0000
0001
1100
0000
0000
0200
0000
0000
,
0310
1000
0001
1100
0000
0001
0110
0000
0001
0010
1000
0001
,
0100
0001
1000
0010
0000
0001
1000
0000
0000
0200
0000
0300
,
0010
0000
1000
0001
0010
1000
0100
0000
0001
1000
0000
0010
,
0001
0000
1000
0100
1000
0100
0001
0000
0000
1000
0000
0000
,
0100
0000
0100
0010
0001
1000
0100
0000
0001
1000
0000
1000
,
0010
0000
0010
0001
1000
0100
0001
0000
0000
0000
0000
0000
,
0100
0000
0010
1000
0001
1000
0010
0000
0001
1000
0000
0100
,
0001
0000
0100
1000
0000
0100
0010
0000
0001
0010
0000
1000
,
0001
0000
1000
0010
0001
1000
0100
0000
0100
0001
0000
0001
,
1000
0010
1000
0010
0001
1000
0001
1000
0100
0001
1000
0010
,
0001
0000
1000
0100
0001
1000
0010
0000
0001
0010
0000
1000
,
0010
0000
0001
1000
0000
0100
1000
0000
0100
0001
0000
1000
,
0001
0000
1000
0010
0001
1000
0100
0000
0001
1000
0000
0010
,
0001
0010
1000
0001
0100
1000
0001
0010
1000
0010
0001
1000
,
0100
0000
0001
1000
0010
0001
1000
0000
0001
0010
0000
1000
,
0010
0000
0100
0001
1000
0010
0110
0000
0000
1001
0000
0000
,
0100
0000
0001
1000
0010
0001
1000
0000
0100
0001
0000
0100
,
1000
0000
0001
0010
1000
0010
0001
0000
0000
1000
0000
0000
,
0110
0000
0100
0001
0000
0001
1000
0000
1000
0010
0000
0010
,
0001
0000
0001
1000
0000
1000
0100
0000
0100
0001
0000
0001
,
0110
0000
0000
0000
;

//---------------dance-single - ----------------
#NOTES:
     dance-single:
     :
     Medium:
     4:
     0.206,0.163,0.000,0.022,0.000,197.000,0.000,3.000,0.000,0.000:
0001
0100
0100
0010
,
0010
0001
1000
0100
,
0100
1000
0010
0100
,
0010
1000
0100
1000
,
0100
0010
0010
0001
,
0100
0100
0010
0100
,
0001
0100
0100
0010
,
1000
1000
0010
0000
,
0001
0100
0100
0010
,
1000
0100
0010
1000
,
0100
0010
0010
0100
,
0001
0100
1000
1000
,
0001
0100
1000
0010
,
0100
1000
0010
0100
,
0010
1000
0100
0010
,
0001
1000
0001
0010
,
0010
0010
0010
0001
,
0100
0100
0100
0001
,
0010
1000
0001
0100
,
0010
0000
0000
0001
0000
0000
2000
0000
0000
0000
0000
3000
,
0001
0100
0100
0010
,
1000
0100
0010
0100
,
0010
1000
0001
0100
,
0001
0010
0010
1000
,
0001
0001
0100
0010
,
0001
0001
0010
0001
,
0001
0010
0100
0010
,
0010
0001
1000
0010
,
0001
0100
0010
0001
,
0010
0100
0001
0002
,
0003
0001
0001
1000
,
0001
0000
0000
1000
0000
0000
0100
0000
0000
0002
0000
0003
,
1000
0010
0001
0100
,
0010
0001
0010
0100
,
0001
1000
0001
0100
,
1000
0010
0010
0000
,
0001
0100
1000
0100
,
0010
0100
1000
1000
,
0010
1000
0001
0010
,
0100
1000
0010
0010
,
0010
0001
1000
1000
,
1000
0100
0100
0010
,
0010
1000
0001
0100
,
0010
0010
0010
1000
,
0001
0100
0100
1000
,
1000
0010
0001
0010
,
0001
0100
0100
0010
,
0100
1000
0010
0100
,
0001
0010
0100
1000
,
0010
0100
0001
0010
,
0001
0000
0000
0000
;

//---------------dance-single - ----------------
#NOTES:
     dance-single:
     :
     Challenge:
     8:
     0.481,0.452,0.137,0.043,0.878,441.000,19.000,6.000,0.000,0.000:
1000
0000
0100
0010
0001
0100
0010
0000
1000
0100
0010
0001
,
0100
0000
0010
1000
0100
0010
0001
0000
0100
0010
1000
0001
,
0010
0000
0010
0001
0000
0100
0100
0000
0100
0010
0000
1000
,
0100
0000
0010
0001
0000
0100
0010
0000
1000
0001
0000
0200
,
0310
0000
1000
0100
0010
0001
0100
0000
0010
1000
0000
0100
,
0010
0000
1000
0010
1000
0001
0100
0000
0000
0010
0000
0002
,
1003
0000
0001
0010
0010
0100
0010
0000
1000
0100
0000
0010
,
0001
0000
0100
0001
0010
0001
0100
0000
0000
0000
0000
0002
,
1003
0000
0100
0010
0001
0100
0010
0000
1000
0100
0000
0010
,
0001
0000
0100
0010
0000
1000
0100
0000
0010
0001
0000
0100
,
0010
0000
1000
0100
1000
0010
0100
0000
0001
0010
0000
0100
,
1000
0010
0100
0010
1000
0100
0001
1000
0010
0001
0100
0010
,
1000
0000
0100
0010
0001
0100
0001
0000
0010
0100
0000
1000
,
0010
0000
1000
0001
0000
1000
0100
0000
1000
0010
0000
1000
,
0100
0000
0010
0001
0100
0010
0010
0000
0001
0100
0000
0010
,
1000
0100
0010
0001
0100
0010
1000
0100
0010
0100
0010
1000
,
0100
0000
1000
0100
0010
0001
0100
0000
0010
1000
0000
0100
,
0010
0000
0001
0010
0001
0100
0010
0000
0000
1000
0000
0000
,
0100
0000
0010
0001
0100
0010
1100
0000
0100
0010
0000
0001
,
0100
0000
0010
1000
0100
0010
0002
0000
0000
0000
0000
0003
,
1000
0000
0100
0010
0001
0100
0010
0000
1000
0100
0000
0010
,
0001
0000
0100
0010
0000
1000
0100
0000
1000
0010
0000
1000
,
0100
0000
0010
0001
0100
0010
1000
0000
0100
0010
0000
0001
,
1000
0100
1000
0100
0010
0001
0100
0010
1000
0001
0100
0010
,
1000
1000
1000
1100
0000
0010
0011
0000
0100
0110
0100
0100
,
1010
1000
1000
1100
0000
0010
0110
0000
0000
1000
0000
0000
,
1000
0001
0010
0100
0000
0100
0010
0000
1000
0100
0010
0001
,
0100
0000
0010
1000
0100
0010
0001
0010
0001
0100
0000
0010
,
1000
0100
1000
0011
0000
0100
0110
0000
1000
1100
0010
0001
,
0110
1000
0100
0011
0000
0100
1010
0000
0000
2000
0000
0000
,
3001
0010
0100
1010
0000
0100
1001
0000
0100
0001
0010
0100
,
1000
0100
0010
0001
0000
0100
0010
0000
0000
2000
0000
3000
,
0001
0000
0010
0100
0100
0010
1000
0000
0100
0010
0000
0001
,
0100
0000
0010
1000
0010
1000
0100
0000
0000
0010
0000
0000
,
1000
0000
1000
0001
0100
0010
1000
0000
0100
0010
0000
0010
,
0001
0000
0001
0100
0010
1000
0100
0000
0000
0000
0000
0000
,
1000
0000
0001
0010
0100
0010
0001
0000
0100
0010
0000
1000
,
0100
0000
1000
0010
0000
1000
0001
0000
0100
0001
0000
0010
,
0100
0000
0010
0001
0100
0010
1000
0000
1000
0100
0000
0100
,
0010
0001
0010
0001
0100
0010
0100
0010
1000
0100
0010
0001
,
0100
0000
0010
1000
0100
0010
0001
0000
0100
0001
0000
0010
,
0001
0000
0100
0010
0000
1000
0010
0000
1000
0100
0000
0010
,
0100
0000
0010
0001
0100
0010
1000
0000
0100
0010
0000
0001
,
0100
0001
0010
0100
1000
0010
0100
0001
0010
0001
0100
0010
,
1000
0000
0100
0010
0001
0100
0010
0000
0100
0001
0000
0010
,
0001
0000
1000
0100
0010
0001
1001
0000
0000
0110
0000
0000
,
1000
0000
0100
0010
0001
0100
0010
0000
1000
0100
0000
1000
,
0010
0000
0100
0001
0010
0001
0100
0000
0000
0010
0000
0000
,
1001
0000
1000
0100
0000
0100
0010
0000
0010
0001
0000
0001
,
0100
0000
0100
0010
0000
0010
1000
0000
1000
0100
0000
0100
,
1001
0000
0000
0000
;

//---------------dance-single - ----------------
#NOTES:
     dance-single:
     :
     Easy:
     2:
     0.118,0.181,0.007,0.029,0.000,109.000,1.000,4.000,0.000,0.000:
0010
0000
0001
0000
,
1000
0000
0100
0000
,
0001
0100
1000
0001
,
1000
0100
0001
0100
,
0001
0000
1000
0000
,
0001
0000
1000
0000
,
0010
0000
0001
0000
,
0100
0000
2000
0000
,
3010
0000
0001
0000
,
0100
0000
1000
0000
,
0001
0000
1000
0000
,
0010
0000
0100
0000
,
0010
0000
0100
0000
,
0001
0000
1000
0000
,
1000
0000
0001
0000
,
0010
0000
0010
0000
,
1000
0000
1000
0000
,
0001
0000
0001
0000
,
1000
0000
0010
0000
,
1000
0000
0000
0000
0000
0000
0200
0000
0000
0000
0000
0300
,
0010
0000
0001
0000
,
0100
0000
1000
0000
,
1000
0000
0010
0000
,
0010
0000
1000
0000
,
0010
0000
0001
0000
,
0010
0000
1000
0000
,
0010
0000
0001
0000
,
1000
0000
0100
0000
,
0010
0000
1000
0000
,
1000
0000
0020
0000
,
1030
0000
0010
0000
,
0010
0000
0020
0000
,
0130
0000
0010
0000
,
1000
0000
1000
0000
,
0010
0000
0010
0000
,
0100
0000
1000
0000
,
0010
0000
0100
0000
,
1000
0000
0100
0000
,
1000
0000
0010
0000
,
0001
0000
1000
0000
,
1000
0000
0100
0000
,
0100
0000
0001
0000
,
1000
0000
0010
0000
,
1000
0000
1000
0000
,
0010
0000
0001
0000
,
0100
0000
0010
0000
,
0010
0000
0001
0000
,
0001
0000
1000
0000
,
0010
1000
0001
0100
,
1000
0001
0010
1000
,
0011
0000
0000
0000
;
