#TITLE:[5-2] Redefine;
#SUBTITLE:;
#ARTIST:Divine Heresy;
#TITLETRANSLIT:;
#SUBTITLETRANSLIT:;
#ARTISTTRANSLIT:;
#CREDIT:;
#BANNER:../Beast 4 - bn.png;
#BACKGROUND:../Beast 4 - bg.png;
#LYRICSPATH:;
#CDTITLE:;
#MUSIC:Redefine.ogg;
#OFFSET:0.025;
#SAMPLESTART:126.360;
#SAMPLELENGTH:20.000;
#SELECTABLE:YES;
#DISPLAYBPM:244.000;
#BPMS:0.000=239.990,128.000=143.001,192.000=240.000,288.000=143.003,352.000=243.860,520.000=143.238,552.000=143.003,616.000=143.002,640.000=143.000;
#STOPS:;
#BGCHANGES:;
// cache tags:
#FIRSTBEAT:0.000;
#LASTBEAT:689.000;
#SONGFILENAME:Songs/Beast Aoreo BEAST! 4/Redefine - [Aoreo]/Redefine.sm;
#HASMUSIC:1;
#HASBANNER:1;
#MUSICLENGTH:224.640;
// end cache tags

//---------------dance-single - J. Nero----------------
#NOTES:
     dance-single:
     J. Nero:
     Challenge:
     18:
     1.000,1.000,0.120,0.748,1.000,2455.000,27.000,168.000,31.000,0.000:
2002
3003
0000
0000
0000
0000
0000
0000
0000
0000
0000
0000
2002
3003
0000
0000
,
2002
3003
0000
0000
0000
0000
0000
0000
0000
0000
0000
0000
0000
0000
0000
0000
,
0000
0000
0000
0000
2200
3300
0000
0000
2200
3300
0000
0000
0000
0000
0000
0000
,
2002
3003
0000
0000
0202
0303
0000
0000
0001
0100
0001
1000
0100
0010
0001
1000
,
0002
1000
1000
1000
,
1000
0000
0000
0000
1000
0000
0003
0000
0001
0100
0001
1000
0100
0010
0001
1000
,
0002
0003
0000
0000
2002
3003
0000
0000
2020
3030
0000
0000
0220
0330
0000
0000
,
0202
0303
0000
0000
2020
3030
0000
0000
2002
3003
0000
0000
0000
0000
0000
0000
,
0001
0100
0001
1000
0010
0100
0010
1000
0001
0100
0001
1000
0100
1000
0001
0010
,
0100
1000
0001
0010
0001
1000
0010
0100
0010
1000
0001
0100
0001
1000
0100
1000
,
0001
0010
0100
1000
0001
0010
0001
1000
0100
1000
0001
0100
0001
1000
0010
0100
,
0010
1000
0001
0100
0010
1000
0001
0100
0001
1000
0100
1000
0001
0010
0100
1000
,
0001
0010
0001
1000
0100
1000
0001
0100
0001
1000
0010
0100
0010
1000
0001
0100
,
0001
1000
0010
0100
0010
1000
0001
0100
0001
1000
0001
0010
0100
1000
0001
0100
,
0001
1000
0100
0010
0001
1000
0100
1000
0001
0100
0010
1000
0002
0000
0003
0000
,
2000
0000
3000
0000
0200
0000
0300
0000
1000
0100
1000
0001
0010
0100
1000
0001
,
1000
0001
0100
0010
0100
0001
1000
0100
,
0010
0000
0001
0000
1000
0000
0100
0000
1000
0001
0100
0010
1000
0001
0100
0001
,
1000
0100
0010
0100
1000
0001
0100
0010
,
0100
0000
0001
0000
1000
0000
0100
0000
1000
0100
1000
0001
0100
0010
1000
0001
,
1000
0001
0100
0010
0100
0001
0010
0100
,
1000
0000
0001
0000
0100
0000
0001
0000
1000
0100
1000
0001
0100
0001
0010
0100
,
1000
0000
0001
0000
0100
0000
0010
0000
0100
0000
0001
1000
0100
1000
0001
0010
,
0001
1000
0010
0100
0001
0100
0010
1000
0001
0010
0100
1000
0001
0000
0000
0000
,
1000
0100
1000
0001
0100
0010
0100
0001
1000
0000
0000
0000
0001
0100
0001
1000
,
0100
0010
0001
1000
0001
0000
0000
0000
1000
0100
1000
0001
0100
0000
0000
0000
,
0001
0100
0010
0100
0001
1000
0100
0010
0001
0000
0000
0000
1000
0100
1000
0001
,
0010
0001
1000
0010
0100
0000
0000
0000
0001
0100
0001
1000
0010
0000
0000
0000
,
1000
0100
1000
0001
0010
0100
1000
0001
1000
0000
0000
0000
0001
0100
0010
0100
,
0001
1000
0100
0010
0001
0000
0000
0000
1000
0100
1000
0001
0100
0000
0000
0000
,
0001
0100
0001
1000
0100
0010
0001
1000
0001
0000
0000
0000
2002
3003
0000
0000
,
0022
0033
0000
0000
0220
0330
0000
0000
2200
3300
0000
0000
2002
3003
0000
0000
,
0001
0100
0001
1000
0010
0100
0010
1000
0001
0100
0001
1000
0001
0010
0100
1000
0001
0010
0001
1000
0100
1000
0001
0010
,
0100
1000
0001
0100
0001
1000
0010
0100
0001
0100
0010
1000
0001
0100
0001
1000
0001
0100
0010
1000
0001
0010
0100
1000
,
0001
0010
0001
1000
0100
1000
0001
0010
0100
1000
0001
1000
0100
1000
0001
1000
0100
0010
0001
1000
0010
0100
0001
1000
,
0001
0100
0010
0100
0001
1000
0001
0100
0001
1000
0010
1000
0001
0100
0010
0100
0001
1000
0100
1000
0001
0010
0100
1000
,
0001
0100
0001
1000
0001
0100
0010
0100
0001
1000
0001
0100
0010
1000
0001
0010
0100
1000
0001
1000
0010
0100
0001
1000
,
0001
1000
0100
1000
0001
0010
0001
1000
0100
0010
0001
1000
0100
1000
0001
0010
0001
1000
0001
0010
0100
1000
0001
1000
,
0010
0100
0001
0100
0010
1000
0001
0100
0010
0100
0001
1000
0100
1000
0001
0010
0100
1000
0001
1000
0010
0100
0010
1000
,
0001
0010
0100
1000
0010
0100
0001
1000
0100
0010
0001
1000
0010
0100
0001
1000
0001
0010
0100
0000
0000
0000
0000
0000
,
1000
0100
1000
0001
0100
0010
0100
0001
1000
0100
0010
0001
1000
0100
1000
0001
0100
0010
0100
0001
1000
0001
0100
0010
,
0100
0001
1000
0001
0010
0100
1000
0001
1000
0100
0010
0001
0100
0010
0100
0001
0010
0100
0010
0001
0100
0010
0100
0001
,
0010
0100
1000
0001
1000
0010
0100
0001
0100
0010
1000
0001
0010
0100
1000
0001
1000
0100
0010
0001
1000
0001
0100
0010
,
0100
0001
1000
0100
1000
0001
0010
0100
1000
0001
1000
0100
0010
0100
1000
0010
0100
0010
1000
0100
0010
0100
1000
0001
,
0100
0001
1000
0010
1000
0010
0100
0001
1000
0001
0010
0100
1000
0001
0100
0010
0100
0001
1000
0100
0010
0001
0100
0010
,
0100
0001
0100
0010
1000
0001
0100
0001
1000
0100
1000
0001
0010
0100
1000
0001
0100
0001
1000
0010
0100
0010
1000
0001
,
1000
0100
0010
0001
0100
0010
1000
0100
0010
0001
0100
0010
1000
0100
0010
0001
0100
0010
1000
0001
0010
0100
1000
0010
,
0100
0001
0010
0100
1000
0010
0100
0001
0010
0100
1000
0001
0100
0001
0010
0100
1000
0010
0100
0000
0000
0000
0000
0000
,
0001
0100
0010
0100
0001
0010
0100
1000
,
0010
0000
0100
0000
0001
0000
1000
0000
0100
1000
0001
0010
0100
1000
0001
0100
,
0001
0100
0010
0100
0001
1000
0100
0010
,
0001
0000
0100
0000
0010
0000
1000
0000
0001
0100
0001
1000
0100
0010
0001
1000
,
0001
1000
0100
0010
0100
1000
0001
0100
,
0010
0000
0100
0000
0001
0000
1000
0000
0001
1000
0100
1000
0001
0100
0010
0100
,
0002
0003
0000
0000
2002
3003
0000
0000
2200
3300
0000
0000
0200
0000
0000
0000
,
2300
0000
0000
3000
2002
3003
0000
0000
0001
0100
0010
1000
0001
1000
0100
0010
,
0001
1000
0100
0010
0100
1000
0001
0100
,
0010
0000
0100
0000
0001
0000
1000
0000
0001
1000
0100
1000
0001
0010
0100
1000
,
0001
0100
0010
0100
0001
1000
0100
0010
,
0001
0000
1000
0000
0010
0000
0100
0000
0001
1000
0100
0010
0100
1000
0001
0100
,
0001
0100
0010
0100
0001
1000
0100
0010
,
0001
0000
1000
0000
0100
0000
1000
0000
0010
0100
0010
1000
0001
0010
0100
1000
,
0001
0000
0100
0000
0001
0000
1000
0000
0010
0000
1000
0000
0100
1000
0001
0100
,
0010
0100
0001
1000
0100
0010
0001
1000
0001
0100
0010
0100
0001
0000
0000
0000
,
1000
0100
1000
0001
0100
0010
0100
0001
1000
0000
0000
0000
0001
0100
0001
1000
,
0010
1000
0001
0100
0001
0000
0000
0000
1000
0100
0010
0100
1000
0000
0000
0000
,
0001
0100
0001
1000
0010
0100
0001
1000
0001
0000
0000
0000
1000
0100
1000
0001
,
0010
0100
1000
0001
1000
0000
0000
0000
0001
0010
0001
0010
0100
0000
0000
0000
,
1000
0100
1000
0001
0010
0100
1000
0001
1000
0000
0000
0000
0001
0100
0001
0100
,
0010
1000
0001
0100
0001
0000
0000
0000
1000
0100
1000
0100
0010
0000
0000
0000
,
0001
1000
0001
0100
0010
1000
0001
0010
0100
0000
0000
0000
2200
3300
0000
0000
,
2002
3003
0000
0000
0202
0303
0000
0000
2020
3030
0000
0000
0220
0330
0000
0000
,
0100
0001
0100
0010
1000
0001
0100
0001
1000
0100
0010
0001
1000
0001
0100
0010
0100
0001
1000
0001
0010
0100
1000
0001
,
0010
0001
1000
0010
0100
0010
1000
0001
1000
0100
0010
0100
1000
0010
0100
0010
1000
0100
0010
0100
1000
0010
0100
0001
,
1000
0001
0100
0010
0100
0001
1000
0001
0010
0100
1000
0001
1000
0010
0100
0001
0100
0010
1000
0001
0100
0001
1000
0100
,
0010
0001
1000
0100
1000
0001
0100
0010
1000
0001
0010
0100
0010
0001
0100
0010
0100
0001
0010
0100
0010
0001
0100
0010
,
1000
0001
0100
0001
1000
0010
1000
0001
0010
0001
1000
0100
0010
0001
1000
0100
1000
0001
0100
0010
0100
0001
1000
0010
,
0100
0010
1000
0001
0100
0001
1000
0001
0100
0010
1000
0010
0100
0001
1000
0100
1000
0001
0010
0100
1000
0001
0100
0001
,
1000
0100
0010
0001
0100
0010
1000
0100
0010
0001
0100
0010
1000
0100
0010
0001
0100
0010
1000
0001
0010
0100
1000
0010
,
0100
0001
0010
0100
1000
0010
0100
0001
1000
0100
1000
0010
0100
0001
1000
0010
0100
0001
0010
0000
0001
0000
0100
0000
,
0010
1000
0010
0100
0001
1000
0001
0100
0001
1000
0100
0010
0001
0100
0001
1000
0001
0100
0010
0100
0001
1000
0100
1000
,
0001
0010
0100
1000
0001
0010
0001
1000
0100
0010
0100
1000
0010
0100
0010
1000
0100
0010
0100
1000
0010
0100
0010
1000
,
0001
0100
0001
1000
0010
0100
0010
1000
0001
0010
0100
1000
0001
0010
0001
1000
0100
1000
0001
0100
0010
0100
0001
1000
,
0100
1000
0001
0010
0001
1000
0100
0010
0001
0100
0010
0100
0001
0010
0100
0010
0001
0100
0010
0100
0001
0010
0100
1000
,
0010
0100
0010
1000
0001
0100
0010
0100
0001
1000
0010
1000
0001
0010
0100
1000
0001
0100
0010
1000
0001
0010
0100
1000
,
0001
0100
0001
1000
0010
0100
0010
1000
0001
1000
0010
0100
0001
0100
0010
1000
0001
1000
0100
1000
0001
0010
0100
1000
,
0010
0100
0001
0010
0100
1000
0010
0100
0001
0010
0100
1000
0010
0100
0001
0010
0100
1000
0010
0100
0001
1000
0100
0010
,
0001
0100
0010
1000
0100
0010
0001
0100
0010
1000
0100
0010
0001
0100
0010
1000
0100
1000
0001
0000
0000
1000
0000
0000
,
0002
0023
0230
0300
2000
3000
2000
3000
,
0001
0100
0001
0100
0001
0000
0000
0000
1000
0010
1000
0001
0100
0010
1000
0001
,
1000
0010
0100
0010
0100
0000
0000
0000
0001
0100
0001
1000
0100
1000
0001
0100
,
0001
0100
0010
0100
0001
0000
0000
0000
1000
0100
1000
0001
0100
0001
1000
0100
,
0020
0032
2003
3000
0002
0003
0002
0003
,
1000
0100
1000
0001
1000
0000
0000
0000
0001
0100
0001
1000
0010
0100
0010
1000
,
0001
0100
0001
1000
0001
0000
0000
0000
1000
0100
1000
0001
0010
0100
1000
0001
,
1000
0001
0100
0010
0100
0000
0000
0000
0001
0100
0001
1000
0100
0010
0001
1000
,
0002
0023
0230
0300
2000
3000
2000
3000
,
0001
0100
0001
1000
0001
0000
0000
0000
1000
0100
1000
0001
0010
0100
1000
0001
,
1000
0010
0100
0001
1000
0000
0000
0000
0001
0100
0001
1000
0100
0010
0001
1000
,
0001
0100
0010
1000
0001
0000
0000
0000
1000
0100
1000
0001
0010
0100
1000
0001
,
2000
3200
0320
0030
0002
0003
0002
0003
,
1000
0100
1000
0100
0010
0000
0000
0000
0001
0100
0001
1000
0010
0100
0010
1000
,
0001
0100
0001
1000
0001
0000
0000
0000
1000
0100
1000
0001
0010
0100
1000
0001
,
0100
0001
1000
0010
1000
0000
0000
0000
0001
0100
0001
1000
0010
0100
0010
1000
,
0002
0023
0230
0300
2000
3000
2000
3000
,
0001
0010
0001
0010
0100
0000
1000
0000
0001
0100
0001
1000
0010
0100
0010
1000
,
0001
0010
0100
1000
0001
0000
1000
0000
0001
0100
0001
1000
0100
0010
0001
1000
,
0001
0100
0010
1000
0001
0000
1000
0000
0010
0100
0010
1000
0001
0010
0100
1000
,
0002
0023
0230
0300
2000
3000
2000
3000
,
0001
0100
0001
1000
0001
0000
1000
0000
0001
0100
0001
1000
0100
0010
0001
1000
,
0001
0100
0010
0100
0001
0000
1000
0000
0001
1000
0100
1000
0001
0010
0100
1000
,
0001
1000
0010
0100
0001
0000
1000
0000
0001
0100
0001
1000
0100
0010
0001
1000
,
0200
0320
0032
0003
2000
3000
2000
3000
,
0001
0010
0001
0010
0100
0000
0000
0000
1000
0100
1000
0001
0010
0100
1000
0001
,
0100
0010
1000
0001
1000
0000
0000
0000
0001
0100
0001
1000
0010
1000
0001
0100
,
0010
0100
0001
1000
0001
0000
0000
0000
1000
0100
1000
0001
0010
0100
1000
0001
,
2000
3200
0320
0030
0002
0003
0002
0003
,
1000
0100
1000
0100
0010
0000
0000
0000
0001
0100
0001
1000
0100
0010
0001
1000
,
0100
1000
0001
0100
0001
0000
0000
0000
1000
0100
1000
0001
0100
0001
1000
0010
,
0100
0010
1000
0001
1000
0000
0000
0000
0001
0010
0001
1000
0100
0010
0001
1000
,
0002
0000
0023
0000
0230
0000
0300
0000
2000
0000
3000
0000
0001
0100
0010
1000
,
0001
0100
0001
0100
0010
0000
0000
0000
1000
0010
1000
0001
0100
0001
1000
0010
,
0100
0001
1000
0001
0100
0000
0000
0000
0001
1000
0100
1000
0001
0100
0001
1000
,
0010
0100
0010
1000
0001
0000
0000
0000
1000
0100
1000
0001
0010
0100
1000
0001
,
2000
3200
0320
0030
0002
0003
0002
0003
,
1000
0100
1000
0001
1000
0000
0000
0000
0001
0100
0001
1000
0010
0100
0010
1000
,
0001
0010
0100
1000
0001
0000
0000
0000
1000
0100
1000
0001
0010
0100
1000
0001
,
1000
0010
0100
0001
1000
0000
0000
0000
0001
0100
0001
1000
0010
1000
0001
0100
,
0002
0023
0230
0300
2000
3000
2000
3000
,
0002
0203
0320
0030
0200
0300
0200
0300
,
0002
0003
1000
0000
0100
0000
0010
0000
0100
0000
1000
0000
0001
0000
0100
0000
,
0020
0030
0100
0000
0001
0000
0010
0000
0100
0000
1000
0000
0001
0000
0100
0000
,
0002
0003
0010
0000
0100
0000
1000
0000
0020
0030
0100
0000
0001
0000
0010
0000
,
0200
0000
0000
0300
0000
0000
1000
0000
0000
0000
0000
0000
0001
0000
0000
0000
0000
0000
0100
0000
0000
0000
0000
0000
0002
0000
0000
0003
0000
0000
0010
0000
0000
0000
0000
0000
0100
0000
0000
0000
1000
0000
0000
0000
0100
0000
0000
0000
,
2000
3000
0001
0000
0100
0000
0010
0000
0100
0000
0001
0000
0010
0000
0100
0000
,
2000
0000
0000
3000
0000
0000
0010
0000
0000
0000
0000
0000
0100
0000
0000
0000
0000
0000
0010
0000
0000
0000
0000
0000
1000
0000
0000
0000
0000
0000
0001
0000
0000
0000
0000
0000
0100
0000
0000
0000
0000
0000
0001
0000
0100
0000
0001
0000
,
2000
0000
0000
0000
,
00M0
0000
0000
0000
0000
0000
0000
0000
0000
0000
0000
0000
0M00
0000
0000
0000
0000
0000
0000
0000
0000
0000
0000
0000
00M0
0000
0000
0000
0000
0000
0000
0000
0000
0000
0000
0000
0M00
0000
0000
0000
0000
0000
0000
0000
0000
0000
0000
0000
00M0
0000
0000
0000
0000
0000
0000
0000
0M00
0000
0000
0000
0000
0000
0000
0000
00M0
0000
0000
0000
0000
0000
0000
0000
0M00
0000
0000
0000
0000
0000
0000
0000
00M0
0000
0000
0000
0000
0000
0000
0000
0M00
0000
0000
0000
0000
0000
0000
0000
00M0
0000
0000
0000
0000
0000
0M00
0000
0000
0000
0000
0000
00M0
0000
0000
0000
0000
0000
0M00
0000
0000
0000
0000
0000
00M0
0000
0000
0000
0000
0000
0M00
0000
0000
0000
0000
0000
00M0
0000
0000
0000
0000
0000
0M00
0000
0000
0000
0000
0000
00M0
0000
0000
0000
0M00
0000
0000
0000
00M0
0000
0000
0000
0M00
0000
0000
0000
00M0
0000
0000
0000
0M00
0000
0000
0000
00M0
0000
0000
0000
0M00
0000
0000
0000
00M0
0000
0000
0000
0M00
0000
0000
0000
00M0
0000
0M00
0000
0000
00M0
0000
0000
,
3001
0100
0001
1000
0100
0010
0001
1000
0001
0100
0010
0100
0001
1000
0100
1000
0001
0100
0001
1000
0010
0100
0010
1000
,
0001
0010
0100
1000
0001
0100
0001
1000
0001
0010
0100
0010
0001
0100
0010
0100
0001
0010
0100
0010
0001
0100
0010
0100
,
0001
1000
0010
0100
0010
1000
0001
0100
0001
1000
0100
0010
0001
1000
0100
1000
0001
0100
0010
0100
0001
1000
0001
0010
,
0100
1000
0001
1000
0010
0100
0001
1000
0100
0010
0100
1000
0010
0100
0010
1000
0100
0010
0100
1000
0010
0100
0010
1000
,
0001
0100
0001
1000
0010
0100
0010
1000
0001
1000
0100
1000
0001
0100
0010
1000
0001
0010
0100
1000
0001
0100
0010
1000
,
0001
0100
0001
1000
0100
0010
0001
1000
0100
1000
0001
0100
0010
0100
0001
1000
0001
0010
0100
1000
0001
0100
0001
1000
,
0100
0010
0001
0100
0010
1000
0100
0010
0001
0100
0010
1000
0100
0010
0001
0100
0010
1000
0001
0010
0100
1000
0010
0100
,
0001
0010
0100
1000
0001
0010
0100
1000
0001
0100
0010
1000
0100
0010
0001
1000
0100
1000
0010
0000
0100
0000
0001
0000
,
1000
0100
1000
0001
0100
0001
1000
0100
0010
0001
1000
0001
0100
0010
1000
0001
0100
0001
1000
0100
0010
0001
1000
0100
,
1000
0001
0010
0100
1000
0001
1000
0010
0100
0001
0010
0100
0010
0001
0100
0010
0100
0001
0010
0100
0010
0001
0100
0010
,
1000
0001
0100
0001
1000
0100
1000
0001
0010
0100
1000
0001
1000
0010
0100
0001
1000
0100
1000
0001
0010
0100
1000
0001
,
1000
0010
0100
0010
1000
0001
0100
0001
1000
0100
0010
0100
1000
0010
0100
0010
1000
0100
0010
0100
1000
0010
0100
0010
,
1000
0001
0100
0001
1000
0100
1000
0001
0010
0100
1000
0001
0100
0010
1000
0001
1000
0100
0010
0001
1000
0010
0100
0001
,
1000
0100
1000
0001
0010
0100
1000
0001
0100
0010
0100
0001
1000
0001
0010
0100
1000
0001
0100
0001
1000
0100
0010
0001
,
1000
0001
0010
0100
1000
0010
0100
0001
0010
0100
1000
0010
0100
0001
0010
0100
1000
0010
0100
0001
1000
0100
0010
0001
,
0100
0010
1000
0100
0010
0001
0100
0010
1000
0100
0010
0001
0100
0010
1000
0100
1000
0010
0100
0000
0000
0001
0000
0000
,
1000
0000
0100
0000
1000
0000
0001
0000
1000
0000
0010
0000
0100
0000
0001
0000
0100
0000
0010
0000
1000
0000
0001
0000
2000
0000
0000
3000
0000
0000
0000
0000
0002
0000
0000
0003
0000
0000
0000
0000
0200
0000
0000
0300
0000
0000
0000
0000
,
0001
0000
0100
0000
0001
0000
1000
0000
0100
0000
0010
0000
0001
0000
1000
0000
0100
0000
1000
0000
0001
0000
0100
0000
0002
0000
0000
0003
0000
0000
0000
0000
0020
0000
0000
0030
0000
0000
0000
0000
0200
0000
0000
0300
0000
0000
0000
0000
,
1000
0000
0100
0000
1000
0000
0001
0000
0010
0000
0100
0000
1000
0000
0001
0000
0100
0000
0001
0000
1000
0000
0010
0000
2000
0000
0000
3000
0000
0000
0000
0000
0020
0000
0000
0030
0000
0000
0000
0000
0200
0000
0000
0300
0000
0000
0000
0000
,
0002
0000
0000
0003
0000
0000
0000
0000
0020
0000
0000
0030
0000
0000
0000
0000
0200
0000
0000
0300
0000
0000
0000
0000
1200
0000
0000
0300
0000
0000
0000
0000
2000
0000
0000
3000
0000
0000
0000
0000
0002
0000
0000
0003
0000
0000
0000
0000
,
1000
0000
0100
0000
1000
0000
0001
0000
0100
0000
0001
0000
1000
0000
0010
0000
0100
0000
0010
0000
1000
0000
0001
0000
0200
0000
0000
0300
0000
0000
0000
0000
0002
0000
0000
0003
0000
0000
0000
0000
2000
0000
0000
3000
0000
0000
0000
0000
,
0001
0000
0100
0000
0001
0000
1000
0000
0100
0000
0010
0000
0001
0000
1000
0000
0100
0000
1000
0000
0001
0000
0100
0000
0002
0000
0000
0003
0000
0000
0000
0000
0020
0000
0000
0030
0000
0000
0000
0000
0200
0000
0000
0300
0000
0000
0000
0000
,
1000
0100
0000
0100
1000
0001
0100
0000
0001
0100
0000
0100
0001
0010
0100
0000
,
1000
0010
0000
0010
0100
0001
0010
0000
0100
1000
0000
1000
0010
0100
0001
1000
,
0001
0000
0010
0000
0100
0000
1000
0000
0010
0000
0100
0000
0001
0000
1000
0000
0100
0000
0010
0000
0001
0000
1000
0000
0002
0000
0000
0000
0003
0000
0000
0000
0000
0020
0000
0000
0000
0030
0000
0000
0000
0000
0200
0000
0000
0000
0300
0000
,
1000
0000
0100
0000
0010
0000
0100
0000
1000
0000
0001
0000
0100
0000
0010
0000
0100
0000
0001
0000
1000
0000
0100
0000
0020
0000
0000
0030
0000
0000
0000
0000
0000
0002
0000
0000
0003
0000
0000
0000
0000
0000
2000
0000
0000
3000
0000
0000
,
0001
0000
0100
0000
0001
0000
1000
0000
0100
0000
0010
0000
0001
0000
1000
0000
0100
0000
1000
0000
0001
0000
0100
0000
0002
0000
0000
0000
0003
0000
0000
0000
0000
0020
0000
0000
0030
0000
0000
0000
0000
0000
0200
0000
0000
0300
0000
0000
,
2000
0000
0000
3000
0000
0000
0000
0000
0000
0020
0000
0000
0130
0000
0000
0000
0000
0000
0002
0000
0000
0003
0000
0000
1000
0000
0100
0000
0010
0000
0100
0000
1000
0000
0001
0000
0100
0000
0010
0000
0100
0000
0001
0000
1000
0000
0100
0000
,
0010
0000
0100
0000
1000
0000
0001
0000
0010
0000
0100
0000
1000
0000
0001
0000
1000
0000
0010
0000
0100
0000
0001
0000
2000
0000
0000
3000
0000
0000
0000
0000
0000
0200
0000
0000
0300
0000
0000
0000
0000
0000
0020
0000
0000
0030
0000
0000
,
0001
0000
0100
0000
0001
0000
1000
0000
0100
0000
0010
0000
0001
0000
1000
0000
0010
0000
0100
0000
0001
0000
1000
0000
0002
0000
0000
0003
0000
0000
0000
0000
0000
0020
0000
0000
0030
0000
0000
0000
0000
0000
0200
0000
0000
0300
0000
0000
,
1000
0100
0000
0100
1000
0010
0100
0000
0001
0010
0000
0010
0100
1000
0001
0000
,
0100
0010
0000
0010
1000
0100
0010
0000
0001
0100
0000
0100
0010
1000
0001
0000
,
1000
0100
1000
0001
0010
0100
1000
0001
0100
0010
0100
0001
1000
0100
0010
0001
,
1000
0100
1000
0001
0010
0100
1000
0001
0100
0010
0100
0001
1000
0100
0010
0001
,
2000
3000
0000
0000
;

//---------------dance-single - J. Nero----------------
#NOTES:
     dance-single:
     J. Nero:
     Hard:
     17:
     1.000,1.000,0.120,0.748,1.000,2256.000,27.000,168.000,31.000,0.000:
2002
3003
0000
0000
0000
0000
0000
0000
0000
0000
0000
0000
2002
3003
0000
0000
,
2002
3003
0000
0000
0000
0000
0000
0000
0000
0000
0000
0000
0000
0000
0000
0000
,
0000
0000
0000
0000
2200
3300
0000
0000
2200
3300
0000
0000
0000
0000
0000
0000
,
2002
3003
0000
0000
0202
0303
0000
0000
0001
0100
0001
1000
0100
0010
0001
1000
,
0002
1000
1000
1000
,
1000
0000
0000
0000
1000
0000
0003
0000
0001
0100
0001
1000
0100
0010
0001
1000
,
0002
0003
0000
0000
2002
3003
0000
0000
2020
3030
0000
0000
0220
0330
0000
0000
,
0202
0303
0000
0000
2020
3030
0000
0000
2002
3003
0000
0000
0000
0000
0000
0000
,
0001
0100
0001
1000
0010
0100
0010
1000
0001
0100
0001
1000
0100
1000
0001
0010
,
0100
1000
0001
0010
0001
1000
0010
0100
0010
1000
0001
0100
0001
1000
0100
1000
,
0001
0010
0100
1000
0001
0010
0001
1000
0100
1000
0001
0100
0001
1000
0010
0100
,
0010
1000
0001
0100
0010
1000
0001
0100
0001
1000
0100
1000
0001
0010
0100
1000
,
0001
0010
0001
1000
0100
1000
0001
0100
0001
1000
0010
0100
0010
1000
0001
0100
,
0001
1000
0010
0100
0010
1000
0001
0100
0001
1000
0001
0010
0100
1000
0001
0100
,
0001
1000
0100
0010
0001
1000
0100
1000
0001
0100
0010
1000
0002
0000
0003
0000
,
2000
0000
3000
0000
0200
0000
0300
0000
1000
0100
1000
0001
0010
0100
1000
0001
,
1000
0001
0100
0010
0100
0001
1000
0100
,
0010
0000
0001
0000
1000
0000
0100
0000
1000
0001
0100
0010
1000
0001
0100
0001
,
1000
0100
0010
0100
1000
0001
0100
0010
,
0100
0000
0001
0000
1000
0000
0100
0000
1000
0100
1000
0001
0100
0010
1000
0001
,
1000
0001
0100
0010
0100
0001
0010
0100
,
1000
0000
0001
0000
0100
0000
0001
0000
1000
0100
1000
0001
0100
0001
0010
0100
,
1000
0000
0001
0000
0100
0000
0010
0000
0100
0000
0001
1000
0100
1000
0001
0010
,
0001
1000
0010
0100
0001
0100
0010
1000
0001
0010
0100
1000
0001
0000
0000
0000
,
1000
0100
1000
0001
0100
0010
0100
0001
1000
0000
0000
0000
0001
0100
0001
1000
,
0100
0010
0001
1000
0001
0000
0000
0000
1000
0100
1000
0001
0100
0000
0000
0000
,
0001
0100
0010
0100
0001
1000
0100
0010
0001
0000
0000
0000
1000
0100
1000
0001
,
0010
0001
1000
0010
0100
0000
0000
0000
0001
0100
0001
1000
0010
0000
0000
0000
,
1000
0100
1000
0001
0010
0100
1000
0001
1000
0000
0000
0000
0001
0100
0010
0100
,
0001
1000
0100
0010
0001
0000
0000
0000
1000
0100
1000
0001
0100
0000
0000
0000
,
0001
0100
0001
1000
0100
0010
0001
1000
0001
0000
0000
0000
2002
3003
0000
0000
,
0022
0033
0000
0000
0220
0330
0000
0000
2200
3300
0000
0000
2002
3003
0000
0000
,
0001
0100
0010
0100
0001
1000
0100
0010
0001
1000
0100
1000
,
0010
0100
0001
0010
0100
1000
0001
0100
0010
0100
0001
1000
,
0100
0010
0100
1000
0010
0100
0001
0010
0100
1000
0001
0100
,
0010
0100
0001
1000
0100
0010
0001
1000
0001
0100
0010
0100
,
0001
1000
0100
0010
0100
1000
0001
0100
0010
0100
0001
1000
,
0001
0010
0100
1000
0001
0100
0010
0100
0001
1000
0100
0010
,
0100
1000
0010
0100
0001
1000
0001
0010
0100
1000
0001
0100
,
0001
0010
0100
1000
0010
0100
0001
1000
0100
0010
0001
1000
0010
0100
0001
1000
0001
0010
0100
0000
0000
0000
0000
0000
,
1000
0100
1000
0001
0100
0010
0100
0001
1000
0100
0010
0001
1000
0100
1000
0001
0100
0010
0100
0001
1000
0001
0100
0010
,
0100
0001
1000
0001
0010
0100
1000
0001
1000
0100
0010
0001
0100
0010
0100
0001
0010
0100
0010
0001
0100
0010
0100
0001
,
0010
0100
1000
0001
1000
0010
0100
0001
0100
0010
1000
0001
0010
0100
1000
0001
1000
0100
0010
0001
1000
0001
0100
0010
,
0100
0001
1000
0100
1000
0001
0010
0100
1000
0001
1000
0100
0010
0100
1000
0010
0100
0010
1000
0100
0010
0100
1000
0001
,
0100
0001
1000
0010
1000
0010
0100
0001
1000
0001
0010
0100
1000
0001
0100
0010
0100
0001
1000
0100
0010
0001
0100
0010
,
0100
0001
0100
0010
1000
0001
0100
0001
1000
0100
1000
0001
0010
0100
1000
0001
0100
0001
1000
0010
0100
0010
1000
0001
,
1000
0100
1000
0010
0100
0001
0010
0100
1000
0001
0100
0010
,
0100
0000
0001
0000
1000
0000
0100
0000
0010
0000
0100
0000
1000
0001
0010
0100
1000
0010
0100
0000
0000
0000
0000
0000
,
0001
0100
0010
0100
0001
0010
0100
1000
,
0010
0000
0100
0000
0001
0000
1000
0000
0100
1000
0001
0010
0100
1000
0001
0100
,
0001
0100
0010
0100
0001
1000
0100
0010
,
0001
0000
0100
0000
0010
0000
1000
0000
0001
0100
0001
1000
0100
0010
0001
1000
,
0001
1000
0100
0010
0100
1000
0001
0100
,
0010
0000
0100
0000
0001
0000
1000
0000
0001
1000
0100
1000
0001
0100
0010
0100
,
0002
0003
0000
0000
2002
3003
0000
0000
2200
3300
0000
0000
0200
0000
0000
0000
,
2300
0000
0000
3000
2002
3003
0000
0000
0001
0100
0010
1000
0001
1000
0100
0010
,
0001
1000
0100
0010
0100
1000
0001
0100
,
0010
0000
0100
0000
0001
0000
1000
0000
0001
1000
0100
1000
0001
0010
0100
1000
,
0001
0100
0010
0100
0001
1000
0100
0010
,
0001
0000
1000
0000
0010
0000
0100
0000
0001
1000
0100
0010
0100
1000
0001
0100
,
0001
0100
0010
0100
0001
1000
0100
0010
,
0001
0000
1000
0000
0100
0000
1000
0000
0010
0100
0010
1000
0001
0010
0100
1000
,
0001
0000
0100
0000
0001
0000
1000
0000
0010
0000
1000
0000
0100
1000
0001
0100
,
0010
0100
0001
1000
0100
0010
0001
1000
0001
0100
0010
0100
0001
0000
0000
0000
,
1000
0100
1000
0001
0100
0010
0100
0001
1000
0000
0000
0000
0001
0100
0001
1000
,
0010
1000
0001
0100
0001
0000
0000
0000
1000
0100
0010
0100
1000
0000
0000
0000
,
0001
0100
0001
1000
0010
0100
0001
1000
0001
0000
0000
0000
1000
0100
1000
0001
,
0010
0100
1000
0001
1000
0000
0000
0000
0001
0010
0001
0010
0100
0000
0000
0000
,
1000
0100
1000
0001
0010
0100
1000
0001
1000
0000
0000
0000
0001
0100
0001
0100
,
0010
1000
0001
0100
0001
0000
0000
0000
1000
0100
1000
0100
0010
0000
0000
0000
,
0001
1000
0001
0100
0010
1000
0001
0010
0100
0000
0000
0000
2200
3300
0000
0000
,
2002
3003
0000
0000
0202
0303
0000
0000
2020
3030
0000
0000
0220
0330
0000
0000
,
0100
0001
0100
0010
1000
0001
0100
0001
1000
0100
0010
0001
1000
0001
0100
0010
0100
0001
1000
0001
0010
0100
1000
0001
,
0010
0001
1000
0010
0100
0010
1000
0001
1000
0100
0010
0100
1000
0010
0100
0010
1000
0100
0010
0100
1000
0010
0100
0001
,
1000
0001
0100
0010
0100
0001
1000
0001
0010
0100
1000
0001
1000
0010
0100
0001
0100
0010
1000
0001
0100
0001
1000
0100
,
0010
0001
1000
0100
1000
0001
0100
0010
1000
0001
0010
0100
0010
0001
0100
0010
0100
0001
0010
0100
0010
0001
0100
0010
,
1000
0001
0100
0001
1000
0010
1000
0001
0010
0001
1000
0100
0010
0001
1000
0100
1000
0001
0100
0010
0100
0001
1000
0010
,
0100
0010
1000
0001
0100
0001
1000
0001
0100
0010
1000
0010
0100
0001
1000
0100
1000
0001
0010
0100
1000
0001
0100
0001
,
1000
0100
0010
0100
1000
0001
0100
0010
0100
0001
0010
0100
,
1000
0000
0001
0000
0100
0000
0001
1000
0100
1000
0001
0010
0100
1000
0001
0100
0010
0100
0001
0000
1000
0000
0010
0000
,
1000
0001
0100
0010
1000
0001
1000
0010
1000
0001
0010
0100
1000
0010
1000
0001
1000
0010
0100
0010
1000
0001
0010
0001
,
1000
0100
0010
0001
1000
0100
1000
0001
0010
0100
0010
0001
0100
0010
0100
0001
0010
0100
0010
0001
0100
0010
0100
0001
,
1000
0010
1000
0001
0100
0010
0100
0001
1000
0100
0010
0001
1000
0100
1000
0001
0010
0001
1000
0010
0100
0010
1000
0001
,
0010
0001
1000
0100
1000
0001
0010
0100
1000
0010
0100
0010
1000
0100
0010
0100
1000
0010
0100
0010
1000
0100
0010
0001
,
0100
0010
0100
0001
1000
0010
0100
0010
1000
0001
0100
0001
1000
0100
0010
0001
1000
0010
0100
0001
1000
0100
0010
0001
,
1000
0010
1000
0001
0100
0010
0100
0001
1000
0001
0100
0010
1000
0010
0100
0001
1000
0001
0010
0001
1000
0100
0010
0001
,
1000
0100
0010
0100
1000
0001
0100
0010
0100
0001
0010
0100
,
1000
0000
0001
0000
0100
0000
0010
0000
0100
0000
0001
0000
1000
0010
0100
0001
0010
0001
1000
0000
0000
0001
0000
0000
,
0020
0230
2300
3000
0002
0003
0002
0003
,
1000
0100
1000
0000
0001
0010
0001
0100
,
0010
1000
0100
0000
1000
0010
0100
0010
,
1000
0000
0100
0000
0010
0000
0000
0000
0001
0000
0010
0000
0001
0000
1000
0100
,
2000
3002
0203
0300
0002
0003
0002
0003
,
1000
0100
1000
0000
0001
0100
0010
0100
,
0001
0010
0100
0000
1000
0100
0010
0100
,
1000
0000
0001
0000
0100
0000
0000
0000
0001
0100
0001
1000
0100
0010
0001
1000
,
0002
0023
0230
0300
2000
3000
2000
3000
,
0001
0100
0001
1000
0001
0000
0000
0000
1000
0100
1000
0001
0010
0100
1000
0001
,
1000
0010
0100
0001
1000
0000
0000
0000
0001
0100
0001
1000
0100
0010
0001
1000
,
0001
0100
0010
1000
0001
0000
0000
0000
1000
0100
1000
0001
0010
0100
1000
0001
,
2000
3200
0320
0030
0002
0003
0002
0003
,
1000
0100
1000
0100
0010
0000
0000
0000
0001
0100
0001
1000
0010
0100
0010
1000
,
0001
0100
0001
1000
0001
0000
0000
0000
1000
0100
1000
0001
0010
0100
1000
0001
,
0100
0001
1000
0010
1000
0000
0000
0000
0001
0100
0001
1000
0010
0100
0010
1000
,
0002
0023
0230
0300
2000
3000
2000
3000
,
0001
0010
0001
0010
0100
0000
1000
0000
0001
0100
0001
1000
0010
0100
0010
1000
,
0001
0010
0100
1000
0001
0000
1000
0000
0001
0100
0001
1000
0100
0010
0001
1000
,
0001
0100
0010
1000
0001
0000
1000
0000
0010
0100
0010
1000
0001
0010
0100
1000
,
0002
0023
0230
0300
2000
3000
2000
3000
,
0001
0100
0001
1000
0001
0000
1000
0000
0001
0100
0001
1000
0100
0010
0001
1000
,
0001
0100
0010
0100
0001
0000
1000
0000
0001
1000
0100
1000
0001
0010
0100
1000
,
0001
1000
0010
0100
0001
0000
1000
0000
0001
0100
0001
1000
0100
0010
0001
1000
,
0200
0320
0032
0003
2000
3000
2000
3000
,
0001
0010
0001
0010
0100
0000
0000
0000
1000
0100
1000
0001
0010
0100
1000
0001
,
0100
0010
1000
0001
1000
0000
0000
0000
0001
0100
0001
1000
0010
1000
0001
0100
,
0010
0100
0001
1000
0001
0000
0000
0000
1000
0100
1000
0001
0010
0100
1000
0001
,
2000
3200
0320
0030
0002
0003
0002
0003
,
1000
0100
1000
0100
0010
0000
0000
0000
0001
0100
0001
1000
0100
0010
0001
1000
,
0100
1000
0001
0100
0001
0000
0000
0000
1000
0100
1000
0001
0100
0001
1000
0010
,
0100
0010
1000
0001
1000
0000
0000
0000
0001
0010
0001
1000
0100
0010
0001
1000
,
0002
0000
0023
0000
0230
0000
0300
0000
2000
0000
3000
0000
0001
0100
0010
1000
,
0001
0100
0001
0100
0010
0000
0000
0000
1000
0010
1000
0001
0100
0001
1000
0010
,
0100
0001
1000
0001
0100
0000
0000
0000
0001
1000
0100
1000
0001
0100
0001
1000
,
0010
0100
0010
1000
0001
0000
0000
0000
1000
0100
1000
0001
0010
0100
1000
0001
,
2000
3200
0320
0030
0002
0003
0002
0003
,
1000
0100
1000
0001
1000
0000
0000
0000
0001
0100
0001
1000
0010
0100
0010
1000
,
0001
0010
0100
1000
0001
0000
0000
0000
1000
0100
1000
0001
0010
0100
1000
0001
,
1000
0010
0100
0001
1000
0000
0000
0000
0001
0100
0001
1000
0010
1000
0001
0100
,
0002
0023
0230
0300
2000
3000
2000
3000
,
0002
0203
0320
0030
0200
0300
0200
0300
,
0002
0003
1000
0000
0100
0000
0010
0000
0100
0000
1000
0000
0001
0000
0100
0000
,
0020
0030
0100
0000
0001
0000
0010
0000
0100
0000
1000
0000
0001
0000
0100
0000
,
0002
0003
0010
0000
0100
0000
1000
0000
0020
0030
0100
0000
0001
0000
0010
0000
,
0200
0000
0000
0300
0000
0000
1000
0000
0000
0000
0000
0000
0001
0000
0000
0000
0000
0000
0100
0000
0000
0000
0000
0000
0002
0000
0000
0003
0000
0000
0010
0000
0000
0000
0000
0000
0100
0000
0000
0000
1000
0000
0000
0000
0100
0000
0000
0000
,
2000
3000
0001
0000
0100
0000
0010
0000
0100
0000
0001
0000
0010
0000
0100
0000
,
2000
0000
0000
3000
0000
0000
0010
0000
0000
0000
0000
0000
0100
0000
0000
0000
0000
0000
0010
0000
0000
0000
0000
0000
1000
0000
0000
0000
0000
0000
0001
0000
0000
0000
0000
0000
0100
0000
0000
0000
0000
0000
0001
0000
0100
0000
0001
0000
,
2000
0000
0000
0000
,
00M0
0000
0000
0000
0000
0000
0000
0000
0000
0000
0000
0000
0M00
0000
0000
0000
0000
0000
0000
0000
0000
0000
0000
0000
00M0
0000
0000
0000
0000
0000
0000
0000
0000
0000
0000
0000
0M00
0000
0000
0000
0000
0000
0000
0000
0000
0000
0000
0000
00M0
0000
0000
0000
0000
0000
0000
0000
0M00
0000
0000
0000
0000
0000
0000
0000
00M0
0000
0000
0000
0000
0000
0000
0000
0M00
0000
0000
0000
0000
0000
0000
0000
00M0
0000
0000
0000
0000
0000
0000
0000
0M00
0000
0000
0000
0000
0000
0000
0000
00M0
0000
0000
0000
0000
0000
0M00
0000
0000
0000
0000
0000
00M0
0000
0000
0000
0000
0000
0M00
0000
0000
0000
0000
0000
00M0
0000
0000
0000
0000
0000
0M00
0000
0000
0000
0000
0000
00M0
0000
0000
0000
0000
0000
0M00
0000
0000
0000
0000
0000
00M0
0000
0000
0000
0M00
0000
0000
0000
00M0
0000
0000
0000
0M00
0000
0000
0000
00M0
0000
0000
0000
0M00
0000
0000
0000
00M0
0000
0000
0000
0M00
0000
0000
0000
00M0
0000
0000
0000
0M00
0000
0000
0000
00M0
0000
0M00
0000
0000
00M0
0000
0000
,
3001
0100
0001
1000
0100
0010
0001
1000
0001
0100
0010
0100
0001
1000
0100
1000
0001
0100
0001
1000
0010
0100
0010
1000
,
0001
0010
0100
1000
0001
0100
0001
1000
0001
0010
0100
0010
0001
0100
0010
0100
0001
0010
0100
0010
0001
0100
0010
0100
,
0001
1000
0010
0100
0010
1000
0001
0100
0001
1000
0100
0010
0001
1000
0100
1000
0001
0100
0010
0100
0001
1000
0001
0010
,
0100
1000
0001
1000
0010
0100
0001
1000
0100
0010
0100
1000
0010
0100
0010
1000
0100
0010
0100
1000
0010
0100
0010
1000
,
0001
0100
0001
1000
0010
0100
0010
1000
0001
1000
0100
1000
0001
0100
0010
1000
0001
0010
0100
1000
0001
0100
0010
1000
,
0001
0100
0001
1000
0100
0010
0001
1000
0100
1000
0001
0100
0010
0100
0001
1000
0001
0010
0100
1000
0001
0100
0001
1000
,
0010
0100
0001
0010
0100
1000
0001
0100
0010
0100
0001
1000
,
0100
0000
0010
0000
0001
0000
1000
0100
1000
0010
0100
0001
0010
0100
1000
0001
0100
0001
1000
0000
0010
0000
0100
0000
,
0001
0100
0001
1000
0100
1000
0001
0010
0100
1000
0001
1000
0010
0100
0001
1000
0010
1000
0001
0010
0100
1000
0001
0010
,
0001
1000
0100
0010
0001
1000
0001
0100
0010
1000
0100
0010
0100
1000
0010
0100
0010
1000
0100
0010
0100
1000
0010
0100
,
0001
1000
0010
1000
0001
0010
0001
1000
0100
0010
0001
1000
0001
0100
0010
1000
0001
0010
0001
1000
0100
0010
0001
1000
,
0001
0100
0010
0100
0001
1000
0010
1000
0001
0010
0100
0010
0001
0100
0010
0100
0001
0010
0100
0010
0001
0100
0010
0100
,
0001
1000
0010
1000
0001
0010
0001
1000
0100
0010
0001
1000
0010
0100
0001
1000
0001
0010
0100
1000
0001
0100
0010
1000
,
0001
0010
0001
1000
0100
0010
0001
1000
0010
0100
0010
1000
0001
1000
0100
0010
0001
1000
0010
1000
0001
0010
0100
1000
,
0001
0010
0001
1000
0100
1000
0010
0100
0001
0010
0100
1000
,
0001
0000
0100
0000
0010
0000
1000
0000
0100
0000
0010
0000
0001
0010
0100
1000
0001
0100
0010
0000
0000
1000
0000
0000
,
0001
0000
0100
0000
0001
0000
1000
0000
0001
0000
0010
0000
0100
0000
1000
0000
0100
0000
0010
0000
0001
0000
1000
0000
0002
0000
0000
0003
0000
0000
0000
0000
2000
0000
0000
3000
0000
0000
0000
0000
0020
0000
0000
0030
0000
0000
0000
0000
,
1000
0000
0010
0000
1000
0000
0001
0000
0010
0000
0100
0000
1000
0000
0001
0000
0010
0000
0001
0000
1000
0000
0010
0000
2000
0000
0000
3000
0000
0000
0000
0000
0200
0000
0000
0300
0000
0000
0000
0000
0020
0000
0000
0030
0000
0000
0000
0000
,
0001
0000
0010
0000
0001
0000
1000
0000
0100
0000
0010
0000
0001
0000
1000
0000
0010
0000
1000
0000
0001
0000
0100
0000
0002
0000
0000
0003
0000
0000
0000
0000
0200
0000
0000
0300
0000
0000
0000
0000
0020
0000
0000
0030
0000
0000
0000
0000
,
2000
0000
0000
3000
0000
0000
0000
0000
0200
0000
0000
0300
0000
0000
0000
0000
0020
0000
0000
0030
0000
0000
0000
0000
0021
0000
0000
0030
0000
0000
0000
0000
0002
0000
0000
0003
0000
0000
0000
0000
2000
0000
0000
3000
0000
0000
0000
0000
,
0001
0000
0010
0000
0001
0000
1000
0000
0010
0000
1000
0000
0001
0000
0100
0000
0010
0000
0100
0000
0001
0000
1000
0000
0020
0000
0000
0030
0000
0000
0000
0000
2000
0000
0000
3000
0000
0000
0000
0000
0002
0000
0000
0003
0000
0000
0000
0000
,
1000
0000
0010
0000
1000
0000
0001
0000
0010
0000
0100
0000
1000
0000
0001
0000
0010
0000
0001
0000
1000
0000
0010
0000
2000
0000
0000
3000
0000
0000
0000
0000
0200
0000
0000
0300
0000
0000
0000
0000
0020
0000
0000
0030
0000
0000
0000
0000
,
0001
0100
0000
0100
0001
1000
0100
0000
1000
0100
0000
0100
1000
0010
0100
0000
,
0001
0010
0000
0010
0100
1000
0010
0000
0100
0001
0000
0001
0010
0100
1000
0001
,
1000
0000
0100
0000
0010
0000
0001
0000
0100
0000
0010
0000
1000
0000
0001
0000
0010
0000
0100
0000
1000
0000
0001
0000
2000
0000
0000
0000
3000
0000
0000
0000
0000
0200
0000
0000
0000
0300
0000
0000
0000
0000
0020
0000
0000
0000
0030
0000
,
0001
0000
0010
0000
0100
0000
0010
0000
0001
0000
1000
0000
0010
0000
0100
0000
0010
0000
1000
0000
0001
0000
0010
0000
0200
0000
0000
0300
0000
0000
0000
0000
0000
2000
0000
0000
3000
0000
0000
0000
0000
0000
0002
0000
0000
0003
0000
0000
,
1000
0000
0010
0000
1000
0000
0001
0000
0010
0000
0100
0000
1000
0000
0001
0000
0010
0000
0001
0000
1000
0000
0010
0000
2000
0000
0000
0000
3000
0000
0000
0000
0000
0200
0000
0000
0300
0000
0000
0000
0000
0000
0020
0000
0000
0030
0000
0000
,
0002
0000
0000
0003
0000
0000
0000
0000
0000
0200
0000
0000
0310
0000
0000
0000
0000
0000
2000
0000
0000
3000
0000
0000
0001
0000
0010
0000
0100
0000
0010
0000
0001
0000
1000
0000
0010
0000
0100
0000
0010
0000
1000
0000
0001
0000
0010
0000
,
0100
0000
0010
0000
0001
0000
1000
0000
0100
0000
0010
0000
0001
0000
1000
0000
0001
0000
0100
0000
0010
0000
1000
0000
0002
0000
0000
0003
0000
0000
0000
0000
0000
0020
0000
0000
0030
0000
0000
0000
0000
0000
0200
0000
0000
0300
0000
0000
,
1000
0000
0010
0000
1000
0000
0001
0000
0010
0000
0100
0000
1000
0000
0001
0000
0100
0000
0010
0000
1000
0000
0001
0000
2000
0000
0000
3000
0000
0000
0000
0000
0000
0200
0000
0000
0300
0000
0000
0000
0000
0000
0020
0000
0000
0030
0000
0000
,
0001
0100
0000
0100
0001
0010
0100
0000
1000
0010
0000
0010
0100
0001
1000
0000
,
0100
0010
0000
0010
0001
0100
0010
0000
1000
0100
0000
0100
0010
0001
1000
0000
,
0001
0010
0001
1000
0100
0010
0001
1000
0010
0100
0010
1000
0001
0010
0100
1000
,
0001
0010
0001
1000
0100
0010
0001
1000
0010
0100
0010
1000
0001
0010
0100
1000
,
0002
0003
0000
0000
;
