#TITLE:Wrath Within;
#SUBTITLE:;
#ARTIST:Children of Bodom;
#TITLETRANSLIT:;
#SUBTITLETRANSLIT:;
#ARTISTTRANSLIT:;
#CREDIT:;
#BANNER:Wrath Within-bn.PNG;
#BACKGROUND:Wrath Within-bg.png;
#LYRICSPATH:;
#CDTITLE:cdtitle.PNG;
#MUSIC:wraith whithin.mp3;
#OFFSET:0.990;
#SAMPLESTART:35.648;
#SAMPLELENGTH:12.000;
#SELECTABLE:YES;
#BPMS:0.000=175.000,116.000=349.999,120.000=175.000,335.000=180.000,335.500=175.000;
#STOPS:;
#BGCHANGES:;
// cache tags:
#FIRSTBEAT:4.000;
#LASTBEAT:419.500;
#SONGFILENAME:Songs/toune 5/Wrath Within[Cerdo Claro]/Wrath Within.sm;
#HASMUSIC:1;
#HASBANNER:1;
#MUSICLENGTH:148.935;
// end cache tags

//---------------dance-single - ----------------
#NOTES:
     dance-single:
     :
     Hard:
     11:
     1.000,1.000,1.000,0.859,0.967,988.000,262.000,128.000,0.000,43.000:

0000
0000
0000
0000
,
1001
0000
0001
0100
0001
0010
0001
0100
1000
0000
0001
0100
0001
0010
0001
0100
,
1000
0000
0001
0100
0001
0010
0001
0100
1000
0000
0001
0100
0001
0010
0101
0010
,
1100
0000
0001
0100
0001
0010
0001
0100
1000
0000
0002
0000
0200
0000
0003
0000
,
0000
0000
0001
0000
0010
0300
0001
0000
0002
0003
0000
0000
0002
0003
0000
0000
,
1001
0100
0010
0001
0100
0010
0100
0002
,
0010
0010
0010
0013
,
1001
0100
0010
0100
0001
1000
0010
0002
,
0010
0010
0010
0113
,
1002
0100
0013
0100
0001
0100
0010
0200
,
0010
0010
0010
0310
,
1001
0000
0010
0000
0100
0000
1000
0000
0011
1100
0011
1100
0011
1100
0012
0000
,
0000
0000
0000
0000
0000
0000
0200
0003
,
1301
0010
1100
0001
0100
0010
1001
0020
,
0100
1001
0100
1031
,
1001
0010
1100
0001
0100
0010
1100
0002
,
0100
0000
1010
0000
0100
0000
1013
0001
,
1010
0100
0011
0100
0010
1000
0011
0100
,
0002
0000
0110
0000
0010
0000
1013
0001
,
1100
0010
1100
0001
0100
0010
0201
0320
,
0000
0000
0000
0000
0000
0000
0000
0000
0000
0001
0000
0000
1000
0000
0000
0000
0000
0000
0100
0000
0000
0000
0000
0000
0131
0000
0000
0000
0000
0000
1200
0000
0000
0000
0000
0000
0302
0000
0000
0000
0010
0000
0000
0000
0100
0000
0000
0000
,
1013
0100
0011
0100
1010
0001
0110
1002
,
0100
0000
1000
0000
0110
0000
1000
0100
0010
0000
0100
0000
1013
0000
0001
0000
,
0101
0010
1100
0010
0101
1000
0110
2001
,
0010
0000
0001
0000
0001
0010
0100
0010
0001
0010
0100
0010
3101
0000
0010
0000
,
1100
0001
1010
0001
1100
0010
1001
0120
,
0001
0000
0100
0000
1001
0000
0100
0001
1000
0000
0001
0000
1130
0000
0001
0000
,
1010
0100
0011
0100
1010
0001
0110
1001
,
0100
0000
1000
0001
0010
0000
0010
0000
0100
0000
0010
0000
1000
0000
0010
0000
,
1001
1001
0000
0020
,
1031
0000
1001
0010
1000
0010
1100
0001
0010
0100
0011
1000
0001
1000
0101
0010
,
0001
0010
1001
0010
0100
0010
1100
0001
0010
0100
1001
0010
0100
0001
1100
0010
,
0100
0010
1100
0001
1000
0010
1100
0001
0010
0100
1001
0010
0100
0001
1010
0100
,
0010
0001
0110
0001
1000
0100
1001
0010
0002
0000
0023
0000
0230
0000
0000
0000
,
1301
0000
1001
0100
0001
0100
0011
1000
0100
0010
1100
0001
1000
0001
1010
0100
,
1000
0100
1001
0100
0010
0100
0011
1000
0100
0010
1001
0100
0010
1000
0011
0100
,
0010
0100
0011
1000
0001
0100
0011
1000
0100
0010
1001
0100
0010
1000
0101
0010
,
1001
0000
1001
0010
1001
0000
0000
0010
,
1001
0100
1001
0010
1000
0010
1100
0001
0010
0100
0011
1000
0001
1000
0101
0010
,
0001
0010
1001
0010
0100
0010
1100
0001
0010
0100
1001
0010
0100
0001
1100
0000
,
0001
0100
0001
0100
0001
0100
0001
0100
0001
0100
0001
0100
0001
0100
0001
0100
,
0001
0100
0001
0100
0001
0100
0001
0100
0001
0100
0001
0010
1100
0000
0011
0000
,
1100
0010
1000
0010
1000
0010
1000
0010
1000
0010
1000
0010
1000
0010
1000
0010
,
1001
0010
0100
0010
0100
0010
0100
0010
0100
0010
0100
0010
0100
0010
0100
0010
,
1001
0000
0001
0010
0100
0000
1000
0000
0020
0000
0031
0100
0010
0000
0001
0000
,
1001
0110
0011
0110
1100
0110
0012
0000
0000
0213
0000
0000
,
1301
0010
0100
1000
0001
0100
1001
0010
0100
1000
0001
0100
,
1001
1000
1000
1010
0010
0010
0011
0001
0001
0101
0100
0100
,
1002
0000
0023
0230
2300
0000
3020
0000
,
1031
0010
0100
1001
0010
0100
1001
0010
0100
1001
0010
0100
,
1001
0000
0010
0000
0101
0000
0010
0000
1100
0000
0010
0000
0101
0000
0010
0100
,
1001
0000
0001
1000
0010
0100
0001
1000
0001
0000
0001
0100
0010
0010
0010
0010
,
1001
0010
0101
0010
1001
0110
0012
0000
,
1013
0000
0101
0000
0110
0000
0000
0002
,
1013
1000
0000
1000
0000
1000
0000
1000
,
0000
0000
1000
0000
0000
0000
1000
0000
1010
0000
0000
0110
0000
0000
0011
0000
,
1001
1000
0000
1000
0000
1000
0000
1000
,
1001
0110
0101
1001
,
0001
0100
0010
1000
0101
0000
0010
0100
0011
0000
1000
0010
1100
0001
0010
0100
,
0001
0010
0100
0001
1100
0000
0010
0100
0011
0000
1000
0010
1100
0001
0100
0010
,
1000
0010
0100
0001
0110
0000
1000
0010
1001
0000
0010
0100
0011
1000
0010
0100
,
0001
1000
0010
0100
0011
1000
0010
0100
1001
0000
0110
0000
1001
0000
0020
0000
,
1031
0100
0001
0100
0010
1000
0010
1000
0100
0001
0100
0001
0010
0100
0010
0100
,
0001
1000
0001
1000
0100
0010
0100
0010
0001
1000
0001
1000
0010
0100
0010
0100
,
2001
0000
0001
0010
0100
0001
3100
0010
,
1001
0010
1000
0011
0110
0011
1010
0101
,
1001
0010
0100
1001
0010
0100
1001
0010
,
1001
0000
0002
0203
0320
2030
3200
0320
,
1031
0010
0100
1001
0010
0100
1001
0010
,
1001
0000
0002
0203
0320
2030
3200
0320
,
1031
0010
0100
1001
0010
0100
1001
0010
,
1001
0010
0100
1001
0010
0100
1001
0010
,
1001
0000
0020
1030
0001
0010
1001
0010
,
1001
0010
0100
1000
0001
0001
0001
0001
0001
0010
0100
1000
0001
0010
0100
0010
,
1001
0010
0100
1001
0010
0100
1001
0010
,
1001
0000
0002
0203
0320
2030
3200
0320
,
1031
0010
0100
1001
0010
0100
1001
0010
,
1001
0000
0002
0203
0320
2030
3200
0320
,
1031
0010
0100
1001
0010
0100
1001
0010
,
1001
0010
0100
1001
0010
0100
1001
0010
,
1001
0100
0010
1100
0001
0010
1001
0010
,
1001
0000
0100
0000
0001
0000
1001
0000
0001
0010
0100
1000
0001
0010
0100
0010
,
2002
3003
1100
0110
0011
0011
1100
0110
,
0011
0011
0110
0011
0110
0110
0011
2001
,
0000
0020
3230
0302
0203
0000
0300
0010
,
0002
0023
2030
3020
0230
0000
0002
0303
,
1010
0000
0100
0000
0010
0000
0001
0000
0000
0010
0000
0000
0100
0000
0000
1000
0000
0000
0010
0000
0000
0100
0000
0000
1001
0000
0010
0000
0100
0000
1000
0000
0000
0010
0000
0000
0101
0000
0000
0010
0000
0000
1100
0000
0010
0000
0001
0000
,
0100
0000
0001
0000
0010
0000
0100
0000
0000
1000
0000
0000
0010
0000
0000
0100
0000
0000
0001
0000
0000
0100
0000
0000
0020
0000
0000
0000
0000
0000
0000
0000
0000
0000
0000
0000
0230
0000
0000
0000
0000
0000
0000
0000
0000
0000
0000
0000
,
2300
0000
0000
0000
0000
0000
0000
0000
3010
0000
0000
0000
0000
0000
0000
0000
2000
0000
0000
0000
0000
0000
0000
0000
3010
0000
0000
0000
0000
0000
0000
0000
2000
0000
0000
0000
0000
0000
0000
3000
2000
0000
0000
0000
0000
0000
0000
0000
3002
0000
0000
0000
0000
0000
0000
0000
0203
0000
0000
0000
0000
0000
0000
0000
,
0320
0000
0001
2000
0030
3000
0002
0000
,
1003
0100
0010
0001
0010
0100
0010
0001
1000
0100
0010
0001
0010
0100
1010
0001
,
1010
0100
0011
0100
1010
0100
1001
0010
1001
0010
1001
0001
0001
0002
0000
0000
,
1013
0200
0320
0032
0023
0032
0023
2030
,
3020
0032
0023
2030
3200
0000
0000
0301
,
1001
0010
0100
1000
0001
0010
0100
1000
0001
0100
0010
1000
0001
0010
0100
0010
,
0001
0010
0100
0010
0001
0010
0100
1000
0001
0010
0100
1000
0001
0010
0100
1000
,
0200
0000
0000
0000
0000
0000
0000
0000
0300
0200
0300
0200
0300
0200
0300
0200
0300
0200
0300
0200
0300
0200
0300
0200
,
1300
0010
0001
0000
0100
0000
0020
0000
0002
0000
0000
0030
0000
0000
0003
0000
,
2002
0000
3003
0022
0000
0033
0220
0330
2002
0000
3003
0022
0000
0033
2020
3030
,
2002
0000
0000
0000
0003
0000
0002
0000
3103
0010
0001
0100
0002
0000
0000
0003
,
1001
0100
0010
0001
1010
0100
0010
0001
1010
0100
0010
0001
1010
0100
0010
0001
,
1110
0000
0000
0011
0000
0000
1101
0000
1110
0000
0000
1110
0000
0000
0111
0000
,
1010
0100
0010
0001
1010
0100
0010
0001
1010
0100
0010
0001
1010
0100
0010
0001
,
1110
0000
0000
0111
0000
0000
1110
0000
1101
0000
0000
0111
0000
0000
1110
0000
,
1101
2202
0000
0000
0000
0300
0003
3000
;
