#TITLE:quaver;
#SUBTITLE:;
#ARTIST:DJ TAKA;
#TITLETRANSLIT:;
#SUBTITLETRANSLIT:;
#ARTISTTRANSLIT:;
#CREDIT:owenviau1;
#BANNER:../Banner.png;
#BACKGROUND:../BG.PNG;
#LYRICSPATH:;
#CDTITLE:../CDTitleOV1.png;
#MUSIC:DJ TAKA - quaver.ogg;
#OFFSET:-1.192;
#SAMPLESTART:157.328;
#SAMPLELENGTH:29.999;
#SELECTABLE:YES;
#BPMS:0.000=182.018,2.000=181.993,3.000=182.018,4.000=181.993,5.000=182.018,6.000=181.993,7.000=182.018,8.000=181.993,9.000=182.018,10.000=181.993,11.000=182.018,12.000=181.993,13.000=182.018,15.000=181.993,16.000=182.018,17.000=181.993,18.000=182.018,19.000=181.993,20.000=182.018,21.000=181.993,22.000=182.018,23.000=181.993,24.000=182.018,25.000=181.993,26.000=182.018,27.000=181.993,28.000=182.018,29.000=181.993,30.000=182.018,32.000=181.993,33.000=182.006,34.000=181.993,35.000=182.006,36.000=181.993,37.000=182.006,38.000=181.993,39.000=182.006,40.000=182.018,41.000=181.993,42.000=182.006,43.000=181.993,44.000=182.006,45.000=181.993,46.000=182.006,47.000=182.018,48.000=181.993,49.000=182.006,50.000=181.993,51.000=182.006,52.000=181.993,53.000=182.006,54.000=181.993,55.000=182.006,56.000=182.018,57.000=181.993,58.000=182.006,59.000=181.993,60.000=182.006,61.000=181.993,62.000=182.006,63.000=182.018,64.000=181.993,65.000=182.006,66.000=181.993,67.000=182.006,68.000=181.993,69.000=182.006,70.000=181.993,71.000=182.006,72.000=181.993,73.000=182.006,74.000=181.993,75.000=182.006,76.000=181.993,77.000=182.006,78.000=181.993,79.000=182.006,80.000=181.993,81.000=182.006,82.000=181.993,83.000=182.006,84.000=181.993,85.000=182.006,86.000=181.993,87.000=182.006,88.000=181.993,89.000=182.006,90.000=181.993,91.000=182.006,92.000=181.993,93.000=182.006,94.000=181.993,95.000=182.006,96.000=181.993,97.000=182.006,98.000=181.993,99.000=182.006,100.000=181.993,101.000=182.006,102.000=181.993,103.000=182.006,104.000=181.993,105.000=182.006,106.000=181.993,107.000=182.006,108.000=181.993,109.000=182.006,110.000=181.993,111.000=182.006,112.000=181.993,113.000=182.006,114.000=181.993,115.000=182.006,116.000=181.993,117.000=182.006,118.000=181.993,119.000=182.006,120.000=181.993,121.000=182.006,122.000=181.993,123.000=182.006,124.000=181.993,125.000=182.006,126.000=181.993,127.000=182.006,128.000=181.993,129.000=182.006,130.000=181.993,131.000=182.006,132.000=181.993,133.000=182.006,134.000=181.993,135.000=182.006,136.000=181.993,137.000=182.006,138.000=181.993,139.000=182.006,140.000=181.993,141.000=182.006,142.000=181.993,143.000=182.006,144.000=181.993,145.000=182.006,146.000=181.993,147.000=182.006,148.000=181.993,149.000=182.006,150.000=181.993,151.000=182.006,152.000=181.993,153.000=182.006,154.000=181.993,155.000=182.006,156.000=181.993,157.000=182.006,158.000=181.993,159.000=182.006,160.000=181.993,161.000=182.006,162.000=181.993,163.000=182.006,164.000=181.993,165.000=182.006,166.000=181.993,167.000=182.006,168.000=181.993,169.000=182.006,170.000=181.993,171.000=182.006,172.000=184.006,174.000=183.993,175.000=184.006,176.000=183.993,177.000=184.006,178.000=183.993,179.000=184.006,180.000=183.993,181.000=184.006,183.000=183.993,184.000=184.006,185.000=183.993,186.000=184.006,187.000=183.993,188.000=184.006,190.000=183.993,191.000=184.006,192.000=183.993,193.000=184.006,194.000=183.993,195.000=184.006,196.000=183.993,197.000=184.006,199.000=183.993,200.000=184.006,201.000=183.993,202.000=184.006,203.000=183.993,204.000=184.006,206.000=183.993,207.000=184.006,208.000=183.993,209.000=184.006,210.000=183.993,211.000=184.006,212.000=183.993,213.000=184.006,215.000=183.993,216.000=184.006,217.000=183.993,218.000=184.006,219.000=183.993,220.000=184.006,222.000=183.993,223.000=184.006,224.000=183.993,225.000=184.006,226.000=183.993,227.000=184.006,229.000=183.993,230.000=184.006,231.000=183.993,232.000=184.006,233.000=183.993,234.000=184.006,235.000=183.993,236.000=184.006,238.000=183.993,239.000=184.006,240.000=183.993,241.000=184.006,242.000=183.993,243.000=184.006,245.000=183.993,246.000=184.006,247.000=183.993,248.000=186.011,249.000=185.997,253.000=186.011,254.000=185.997,259.000=186.011,260.000=185.997,264.000=186.011,265.000=185.997,269.000=186.011,270.000=185.997,274.000=186.011,275.000=185.997,279.000=186.011,280.000=185.997,285.000=186.011,286.000=185.997,290.000=186.011,291.000=185.997,296.000=186.011,297.000=185.997,301.000=186.011,302.000=185.997,306.000=186.011,307.000=185.997,311.000=186.011,312.000=185.997,316.000=182.307,317.000=182.294,318.000=182.307,319.000=182.294,320.000=182.307,321.000=182.294,323.000=182.307,324.000=182.294,325.000=182.307,326.000=182.294,327.000=182.307,328.000=182.294,329.000=182.307,330.000=182.294,331.000=182.307,332.000=182.294,333.000=182.307,334.000=182.294,335.000=182.307,336.000=182.294,338.000=182.307,339.000=182.294,340.000=182.307,341.000=182.294,342.000=182.307,343.000=182.294,344.000=182.307,345.000=182.294,346.000=182.307,347.000=182.294,348.000=182.307,349.000=182.294,351.000=182.307,352.000=182.294,353.000=182.307,354.000=182.294,355.000=182.307,356.000=182.294,357.000=182.307,358.000=182.294,359.000=182.307,360.000=182.294,361.000=182.307,362.000=182.294,364.000=182.307,365.000=182.294,366.000=182.307,367.000=182.294,368.000=182.307,369.000=182.294,370.000=182.307,371.000=182.294,372.000=182.006,373.000=181.993,374.000=182.006,375.000=181.993,376.000=182.006,377.000=181.993,378.000=182.006,380.000=181.993,381.000=182.006,382.000=181.993,383.000=182.006,384.000=181.993,385.000=182.006,386.000=181.993,387.000=182.006,388.000=181.993,389.000=182.006,390.000=181.993,391.000=182.006,393.000=181.993,394.000=182.006,395.000=181.993,396.000=182.006,397.000=181.993,398.000=182.006,399.000=181.993,400.000=182.006,401.000=181.993,402.000=182.006,403.000=181.993,404.000=182.006,406.000=181.993,407.000=182.006,408.000=181.993,409.000=182.006,410.000=181.993,411.000=182.006,412.000=181.993,413.000=182.006,414.000=181.993,415.000=182.006,416.000=181.993,417.000=182.006,419.000=181.993,420.000=182.006,421.000=181.993,422.000=182.006,423.000=181.993,424.000=182.006,425.000=181.993,426.000=182.006,427.000=181.993,428.000=182.006,429.000=181.993,430.000=182.006,432.000=181.993,433.000=182.006,434.000=181.993,435.000=182.006,436.000=181.993,437.000=182.006,438.000=181.993,439.000=182.006,440.000=181.993,441.000=182.006,442.000=181.993,443.000=182.006,444.000=181.993,445.000=182.006,446.000=181.993,447.000=182.006,449.000=181.993,450.000=182.006,451.000=181.993,452.000=182.006,453.000=181.993,454.000=182.006,455.000=181.993,456.000=182.006,457.000=181.993,458.000=182.006,459.000=181.993,460.000=182.006,462.000=181.993,463.000=182.006,464.000=181.993,465.000=182.006,466.000=181.993,467.000=182.006,468.000=181.993,469.000=182.006,470.000=181.993,471.000=182.006,472.000=181.993,473.000=182.006,475.000=181.993,476.000=184.006,477.000=183.993,478.000=184.006,480.000=183.993,481.000=184.006,482.000=183.993,483.000=184.006,484.000=183.993,485.000=184.006,486.000=183.993,487.000=184.006,489.000=183.993,490.000=184.006,491.000=183.993,492.000=184.006,493.000=183.993,494.000=184.006,496.000=183.993,497.000=184.006,498.000=183.993,499.000=184.006,500.000=183.993,501.000=184.006,502.000=183.993,503.000=184.006,505.000=183.993,506.000=184.006,507.000=183.993,508.000=184.006,509.000=183.993,510.000=184.006,512.000=183.993,513.000=184.006,514.000=183.993,515.000=184.006,516.000=183.993,517.000=184.006,519.000=183.993,520.000=184.006,521.000=183.993,522.000=184.006,523.000=183.993,524.000=184.006,525.000=183.993,526.000=184.006,528.000=183.993,529.000=184.006,530.000=183.993,531.000=184.006,532.000=183.993,533.000=184.006,535.000=183.993,536.000=184.006,537.000=183.993,538.000=184.006,539.000=183.993,540.000=184.006,542.000=183.993,543.000=184.006,544.000=183.993,545.000=184.006,546.000=183.993,547.000=184.006,548.000=183.993,549.000=184.006,551.000=183.993,552.000=185.997,553.000=186.011,554.000=185.997,558.000=186.011,559.000=185.997,563.000=186.011,564.000=185.997,568.000=186.011,569.000=185.997,574.000=186.011,575.000=185.997,580.000=186.011,581.000=185.997,585.000=186.011,586.000=185.997,590.000=186.011,591.000=185.997,596.000=186.011,597.000=185.997,600.000=186.011,601.000=185.997,606.000=186.011,607.000=185.997,611.000=186.011,612.000=185.997,616.000=186.011,617.000=185.997,621.000=186.011,622.000=185.997,627.000=186.011,628.000=185.997,631.000=186.011,632.000=185.997,637.000=186.011,638.000=185.997,641.000=186.011,642.000=185.997,648.000=186.011,649.000=185.997,652.000=186.011,653.000=185.997;
#STOPS:;
#BGCHANGES:;
// cache tags:
#FIRSTBEAT:0.000;
#LASTBEAT:623.750;
#SONGFILENAME:Songs/Index Fusion/quaver - [owenviau1]/quaver.sm;
#HASMUSIC:1;
#HASBANNER:1;
#MUSICLENGTH:215.222;
// end cache tags

//---------------dance-single - owenviau1----------------
#NOTES:
     dance-single:
     owenviau1:
     Hard:
     17:
     1.000,1.000,0.186,0.251,1.000,2239.000,40.000,54.000,0.000,0.000:
1000
0100
0010
0001
0000
0000
1000
0000
,
0010
0100
0001
1000
0000
0000
0001
0000
,
0010
0000
0100
1000
0000
0001
0100
0000
,
0010
0000
0000
0000
1000
0000
0000
0000
0100
0000
0010
0001
1000
0000
0010
0000
,
1020
1030
0200
0310
0002
1003
0020
1030
,
0002
0103
0020
0130
0002
1003
0020
0130
,
0201
0301
2000
3010
0120
0130
0002
1003
,
2010
0000
3010
0000
0120
0000
0130
0000
0002
1003
0000
0001
0200
0000
0310
0000
,
2000
0000
3004
0000
0023
0000
0130
1000
0001
0100
0010
0100
0002
0000
0000
0000
,
1003
0100
0010
0001
0100
0010
1000
0010
0100
0001
1000
0001
0010
0100
1000
0001
,
0100
0001
1000
0010
0100
0001
0100
0010
1000
0001
1000
0100
0010
0001
1000
0100
,
1000
0010
0100
0001
0100
0010
1000
0001
1000
0100
0010
0001
0100
0001
1000
0010
,
0100
0001
0100
0010
1000
0001
1000
0100
0010
0001
1000
0100
1000
0001
0010
0001
,
0100
0010
0100
0001
1000
0010
1000
0001
0100
0001
1000
0010
0100
0010
1000
0001
,
0010
0001
0100
0010
0100
0001
1000
0010
1000
0100
0010
0001
1000
0100
1000
0010
,
0100
0001
0100
0010
1000
0010
0100
0001
1000
0001
0010
0100
1000
0001
0010
0001
,
0100
0010
1000
0001
0010
0100
1000
0001
0100
0010
0000
0100
0001
0000
1000
0000
,
0010
0100
0010
1000
0001
0100
0001
0010
0100
1000
0001
0010
0001
0100
0010
0100
,
0001
1000
0010
1000
0100
0010
0001
1000
0100
1000
0001
0010
0001
0100
0010
1000
,
0010
0100
0001
1000
0001
0100
0010
0100
0001
1000
0100
1000
0010
0100
0001
1000
,
0100
1000
0001
0010
0100
1000
0001
0010
0001
0100
0010
0100
0001
1000
0010
1000
,
0001
0100
0010
1000
0010
0100
0001
1000
0100
1000
0010
0100
0001
0100
0010
1000
,
0001
0100
0010
1000
0010
0100
0001
1000
0001
0010
0100
1000
0001
0010
0001
0100
,
0010
0100
0001
1000
0010
1000
0100
0010
0001
1000
0100
1000
0010
0100
0001
0100
,
0010
1000
0001
1000
0100
0010
0001
1000
0010
0100
0000
0001
0100
0000
0010
0000
,
1000
0000
0001
0000
0010
0000
0100
0000
1000
0010
1000
0001
0100
0010
0100
0001
,
1000
0100
0010
0001
0100
0001
1000
0010
0100
0010
1000
0001
0100
0001
0010
0100
,
1000
0001
0010
0001
0100
0010
0100
0001
1000
0010
1000
0100
0010
0001
0100
0001
,
1000
0010
0100
0010
1000
0001
0010
0001
0100
0010
0100
0001
1000
0010
1000
0100
,
0010
0001
1000
0100
1000
0001
0010
0001
0100
0010
1000
0010
0100
0001
1000
0001
,
0100
0010
0100
0001
1000
0010
1000
0100
0010
0001
1000
0100
1000
0001
0100
0010
,
0100
0001
1000
0100
1000
0001
0010
0100
1000
0000
0001
0000
0000
0000
1000
0000
,
0010
0100
0010
1000
0001
0100
0001
0010
0100
1000
0001
0010
0001
0100
0010
0100
,
0001
1000
0010
1000
0100
0010
0001
1000
0100
1000
0010
0100
0001
0100
0010
1000
,
0001
1000
0100
0010
0001
1000
0100
1000
0010
0100
0010
1000
0001
0100
0001
0010
,
0100
1000
0001
0010
0001
0100
0010
0100
0001
1000
0100
1000
0010
0100
0001
1000
,
0001
0100
0010
0100
0001
1000
0100
1000
0010
0100
0010
1000
0001
0100
0001
0010
,
0100
1000
0001
0010
0001
0100
0010
1000
0010
0100
0001
1000
0001
0100
0010
0100
,
0001
1000
0100
0010
0001
1000
0100
1000
0001
0010
0100
1000
0001
0010
0001
0100
,
0010
1000
0010
0100
0001
1000
0001
0100
0010
0100
0001
1000
0100
1000
0010
0100
,
0001
1000
0100
1000
0010
0100
0001
0100
0010
1000
0001
1000
0100
0010
0001
0000
,
0101
0000
0100
0000
0000
0000
0110
0000
0010
1000
0000
0001
0100
0000
0010
0000
,
0000
1010
1000
0000
1001
0001
0200
0000
,
0310
1000
0001
0100
0010
0100
0001
1000
0010
1000
0100
0010
0001
1000
0100
1000
,
0010
0100
0001
0100
0010
1000
0001
1000
0100
0010
0001
0100
0010
1000
0010
0100
,
0001
1000
0001
0100
0010
1000
0010
0100
0001
1000
0001
0010
0100
1000
0010
0100
,
0010
1000
0001
0100
0001
0010
0100
1000
0001
0010
0001
0100
0010
1000
0010
0100
,
0001
1000
0001
0100
0010
0100
0001
1000
0100
1000
0010
0100
0001
0100
0010
1000
,
0001
1000
0100
0010
0001
1000
0100
1000
0010
0100
0001
1000
0010
0100
0010
1000
,
0001
0100
0001
0010
0100
1000
0001
0010
0001
0100
0010
0100
0001
1000
0010
1000
,
0100
0000
0000
0010
0000
0000
0001
0000
0000
1000
0000
0000
0010
0000
0000
1000
0000
0000
0001
0000
0000
0100
0000
0000
0010
0000
0000
1000
0000
0000
0000
0000
0000
0001
0000
0000
0100
0000
0000
0000
0000
0000
0010
0000
0100
0000
0010
0000
,
0100
0001
1000
0001
0100
0010
1000
0010
0100
0001
0100
0010
1000
0001
1000
0100
,
0010
0001
1000
0100
1000
0001
0010
0001
0100
0010
1000
0010
0100
0001
1000
0001
,
0100
0010
1000
0010
0100
0001
1000
0001
0010
0100
1000
0001
0010
0001
0100
0010
,
0100
0001
1000
0010
1000
0100
0010
0001
1000
0100
1000
0010
0100
0001
0100
0010
,
1000
0001
1000
0100
0010
0001
1000
0100
1000
0010
0100
0001
0100
0010
1000
0001
,
1000
0100
0010
0001
0100
0001
1000
0010
0100
0010
1000
0001
1000
0100
0010
0001
,
1000
0100
1000
0001
0010
0001
0100
0010
0100
0001
1000
0010
1000
0001
0100
0010
,
0100
0001
1000
0010
0100
0010
1000
0001
0100
0010
0000
1000
0010
0000
0100
0000
,
0001
1000
0010
0100
0010
1000
0001
0100
0001
1000
0020
0000
0130
0001
1000
0001
,
0010
0000
0000
0000
0000
0000
0000
0000
0000
0000
0100
0000
0000
0000
0000
0000
0000
0000
0000
1000
0000
0000
0000
0000
0000
0000
0000
0000
0000
0001
0000
0000
0000
0000
0000
0000
0000
0000
1000
0000
0000
0000
0000
0000
0000
0000
0000
0000
0010
0000
0000
0000
0000
0000
0000
0000
0000
0000
0100
0000
0000
0000
0000
0000
0000
0000
0000
0010
0000
0000
0000
0000
0000
0000
0000
0000
0000
1000
0000
0000
0000
0000
0000
0000
0000
0000
0001
0000
0000
0000
0000
0000
0000
0000
0000
0000
0010
0000
0000
0000
0000
0000
0000
0000
0000
0000
0100
0000
0000
0000
0000
0000
0000
0000
0000
1000
0000
0000
0000
0000
0000
0000
0000
0000
0000
0001
0000
0000
0000
0000
0000
0000
0000
0000
0100
0000
0000
0000
0000
0000
0000
0000
0000
0000
0010
0000
0000
0000
0000
0000
0000
0000
0000
0000
0000
0000
1000
0000
0000
0000
0000
0000
0000
0000
0000
0000
0000
0000
0001
0000
0000
0000
0000
0000
0000
0000
0000
0000
0000
0000
1000
0000
0000
0000
0000
0000
0000
0000
0000
0000
0000
0000
,
0010
0000
0100
0000
0001
0000
1000
0000
0100
0000
0010
0001
2000
0000
0000
0000
,
3001
0010
0001
0100
0010
1000
0010
0100
0001
1000
0001
0100
0010
0100
0001
1000
,
0010
1000
0100
0010
0001
1000
0100
1000
0001
0010
0001
0100
0010
1000
0010
0100
,
0001
1000
0001
0100
0010
1000
0010
0100
0001
1000
0001
0010
0100
1000
0100
0010
,
0001
1000
0010
1000
0001
0100
0010
1000
0010
0100
0001
1000
0001
0010
0100
1000
,
0001
0010
0001
0100
0010
0100
0001
1000
0100
1000
0010
0100
0001
0100
0010
1000
,
0001
1000
0100
0010
0001
1000
0100
1000
0010
0100
0010
1000
0001
0100
0001
1000
,
0010
0100
0001
0100
0010
1000
0001
1000
0100
0010
0001
1000
0100
1000
0001
0010
,
0001
0000
0000
0100
0000
0000
0010
0000
0000
1000
0000
0000
0010
0000
0000
0100
0000
0000
0001
0000
0000
1000
0000
0000
0001
0000
0000
0010
0000
0000
0000
0000
0000
0100
0000
0000
1000
0000
0000
0000
0000
0000
0001
0000
0100
0000
0001
0000
,
0100
0010
1000
0001
0100
0001
0010
0100
1000
0001
0010
0001
0100
0010
0100
0001
,
1000
0010
1000
0100
0010
0001
1000
0100
1000
0001
0010
0001
0100
0010
1000
0010
,
0100
0001
1000
0001
0100
0010
0100
0001
1000
0100
1000
0010
0100
0001
1000
0100
,
1000
0001
0010
0001
0100
0010
1000
0010
0100
0001
1000
0001
0010
0100
1000
0001
,
0010
0001
0100
0010
0100
0001
1000
0010
1000
0100
0010
0001
1000
0100
1000
0001
,
0100
0010
0100
0001
1000
0010
1000
0100
0010
0001
0100
0001
1000
0010
0100
0001
,
0100
0010
1000
0001
1000
0100
0010
0001
1000
0100
1000
0001
0010
0001
0100
0010
,
0100
0000
0000
0001
0000
0000
1000
0000
0000
0100
0000
0000
1000
0000
0000
0001
0000
0000
0010
0000
0000
0100
0000
0000
1000
0000
0000
0010
0000
0000
0100
0000
0000
0001
0000
0000
0100
0000
0010
0000
1000
0000
0001
0000
0100
0000
0000
0000
,
0101
1010
1001
1100
0110
0011
1001
2002
,
0000
0000
0000
3000
1003
0010
0200
0301
,
1001
1000
0010
0100
0010
1000
0001
0100
,
0001
0010
0100
1000
0001
0100
0001
1000
,
1010
0010
0100
0001
1001
1000
0010
0100
,
0101
0000
0001
0000
1001
0000
1000
0000
1000
0010
0000
0100
0001
0000
1000
0000
,
0002
0000
0403
0000
0320
0000
1030
0001
0100
0001
1000
0010
0200
0000
0000
0000
,
0301
1000
0010
1000
0100
0010
0001
0100
0010
0100
0001
1000
0010
1000
0100
0010
,
0001
0100
0001
1000
0010
0100
0001
0100
0010
1000
0001
1000
0100
0010
0001
1000
,
0100
1000
0001
0010
0001
0100
0010
1000
0010
0100
0001
1000
0001
0100
0010
0100
,
0001
1000
0100
0010
0001
1000
0100
1000
0010
0100
0010
1000
0001
0100
0001
0010
,
0100
1000
0001
0010
0001
0100
0010
1000
0010
0100
0001
1000
0001
0100
0010
0100
,
0001
1000
0100
1000
0010
0100
0001
1000
0001
0010
0100
1000
0001
0010
0001
0100
,
0010
0100
0001
1000
0010
1000
0100
0010
0001
1000
0100
1000
0010
0100
0001
0000
,
1002
0003
2000
3000
0020
0030
0200
0300
0002
0000
0203
0000
0320
0000
2000
0030
,
3001
0010
0100
1000
0001
0100
0010
0100
0001
1000
0010
1000
0100
0010
0001
1000
,
0100
1000
0010
0100
0001
0100
0010
1000
0001
0100
0001
1000
0100
0010
0001
0010
,
0100
1000
0001
0010
0001
0100
0010
1000
0010
0100
0001
1000
0100
1000
0010
0100
,
0001
1000
0100
1000
0001
0010
0001
0100
0010
0100
0001
1000
0010
0100
0001
0100
,
0010
1000
0001
1000
0100
0010
0001
1000
0100
1000
0010
0100
0001
0100
0010
1000
,
0001
1000
0100
0010
0001
1000
0100
1000
0010
0100
0010
1000
0001
0100
0001
0010
,
0100
1000
0001
0010
0001
0100
0010
0100
0001
1000
0010
1000
0100
0010
0001
1000
,
0100
1000
0010
0100
0001
0100
0010
1000
0001
0010
0100
1000
0001
0000
0100
0000
,
0040
0000
2030
3000
0002
0003
0200
0300
0020
0030
0200
0300
0002
0003
2000
3000
,
0010
0100
0010
1000
0001
0100
0001
1000
0010
0100
0001
0100
0010
1000
0001
1000
,
0100
0010
0001
1000
0100
1000
0001
0010
0001
0100
0010
0100
0001
1000
0010
1000
,
0100
0010
0001
1000
0100
1000
0010
0100
0001
0100
0010
1000
0001
1000
0100
0010
,
0001
1000
0100
1000
0010
0100
0010
1000
0001
0100
0001
0010
0100
1000
0001
0010
,
0001
0100
0010
0100
0001
1000
0100
1000
0010
0100
0001
0100
0010
1000
0001
1000
,
0100
0010
0001
1000
0100
1000
0010
0100
0001
0100
0010
1000
0001
1000
0100
0010
,
0001
1000
0100
1000
0010
0100
0001
1000
0001
0010
0100
1000
0001
0010
0001
0100
,
0010
0100
0001
1000
0010
1000
0100
0010
0001
1000
0100
1000
0010
0100
0001
1000
,
0001
0010
0100
1000
0001
0010
0001
0100
0010
1000
0001
0100
0001
1000
0100
0010
,
0001
0100
0001
1000
0010
0100
0001
0100
0010
1000
0100
1000
0001
0010
0001
0100
,
0010
1000
0010
0100
0001
1000
0001
0010
0100
1000
0001
0100
0001
1000
0010
0100
,
0001
0100
0010
1000
0001
0010
0100
1000
0001
0010
0001
0100
0010
0100
0001
1000
,
0010
1000
0100
0010
0001
1000
0100
1000
0010
0100
0001
0100
0010
1000
0001
1000
,
0100
0010
0001
1000
0100
1000
0010
0100
0010
1000
0001
0100
0001
1000
0100
0010
,
0001
1000
0010
0100
0010
1000
0001
0100
0001
0010
0100
1000
0010
1000
0001
0000
,
1001
0000
1000
0100
0010
0000
0011
0000
0001
1000
0010
0000
1100
0000
1000
0000
,
0000
1001
0001
0000
0110
0100
0002
0000
,
1003
0100
0010
0001
0100
0010
1000
0010
0100
0001
1000
0001
0010
0100
1000
0001
,
0100
0001
1000
0010
0100
0001
0100
0010
1000
0001
1000
0100
0010
0001
1000
0100
,
1000
0010
0100
0001
0100
0010
1000
0001
1000
0100
0010
0001
0100
0001
1000
0010
,
0100
0001
0100
0010
1000
0001
1000
0100
0010
0001
1000
0100
1000
0001
0010
0001
,
0100
0010
0100
0001
1000
0010
1000
0001
0100
0001
1000
0010
0100
0010
1000
0001
,
0010
0001
0100
0010
0100
0001
1000
0010
1000
0100
0010
0001
1000
0100
1000
0010
,
0100
0001
0100
0010
1000
0010
0100
0001
1000
0001
0010
0100
1000
0001
0010
0001
,
0100
0000
0000
0010
0000
0000
1000
0000
0000
0001
0000
0000
0010
0000
0000
0100
0000
0000
1000
0000
0000
0001
0000
0000
0100
0000
0000
0010
0000
0000
0000
0000
0000
0100
0000
0000
0001
0000
0000
0000
0000
0000
1000
0000
0010
0000
1000
0000
,
0010
0100
0001
1000
0010
1000
0001
0010
0100
1000
0001
0010
0001
0100
0010
0100
,
0001
1000
0010
1000
0100
0010
0001
1000
0100
1000
0001
0010
0001
0100
0010
1000
,
0010
0100
0001
1000
0001
0100
0010
0100
0001
1000
0100
1000
0010
0100
0001
1000
,
0100
1000
0001
0010
0100
1000
0001
0010
0001
0100
0010
0100
0001
1000
0010
1000
,
0001
0100
0010
1000
0010
0100
0001
1000
0100
1000
0010
0100
0001
0100
0010
1000
,
0001
0100
0010
1000
0010
0100
0001
1000
0001
0010
0100
1000
0001
0010
0001
0100
,
0010
0100
0001
1000
0010
1000
0100
0010
0001
1000
0100
1000
0010
0100
0001
0100
,
0010
1000
0001
1000
0100
0010
0001
1000
0010
0100
0000
0001
0100
0000
0010
0000
,
1000
0001
0100
0010
0100
0001
1000
0010
1000
0001
0020
0000
0130
1000
0001
1000
,
0010
0000
0000
0000
0000
0000
0000
0000
0000
0000
0100
0000
0000
0000
0000
0000
0000
0000
0000
0001
0000
0000
0000
0000
0000
0000
0000
0000
0000
0100
0000
0000
0000
0000
0000
0000
0000
0000
0010
0000
0000
0000
0000
0000
0000
0000
0000
0000
1000
0000
0000
0000
0000
0000
0000
0000
0000
0000
0001
0000
0000
0000
0000
0000
0000
0000
0000
1000
0000
0000
0000
0000
0000
0000
0000
0000
0000
0100
0000
0000
0000
0000
0000
0000
0000
0000
0010
0000
0000
0000
0000
0000
0000
0000
0000
0000
0001
0000
0000
0000
0000
0000
0000
0000
0000
0000
1000
0000
0000
0000
0000
0000
0000
0000
0000
0010
0000
0000
0000
0000
0000
0000
0000
0000
0000
1000
0000
0000
0000
0000
0000
0000
0000
0000
0001
0000
0000
0000
0000
0000
0000
0000
0000
0000
0100
0000
0000
0000
0000
0000
0000
0000
0000
0000
0000
0000
0010
0000
0000
0000
0000
0000
0000
0000
0000
0000
0000
0000
1000
0000
0000
0000
0000
0000
0000
0000
0000
0000
0000
0000
0001
0000
0000
0000
0000
0000
0000
0000
0000
0000
0000
0000
,
2000
3000
0200
0300
0020
0030
0002
0003
2000
3000
0004
0000
0203
0300
0020
0030
,
1000
0001
0100
0001
0010
0100
1000
0010
0100
0001
0100
0010
1000
0001
1000
0100
,
0010
0001
1000
0100
1000
0001
0010
0001
0100
0010
1000
0010
0100
0001
1000
0001
,
0100
0010
1000
0010
0100
0001
1000
0001
0010
0100
1000
0001
0010
0001
0100
0010
,
0100
0001
1000
0010
1000
0100
0010
0001
1000
0100
1000
0010
0100
0001
0100
0010
,
1000
0001
1000
0100
0010
0001
1000
0100
1000
0010
0100
0001
0100
0010
1000
0001
,
1000
0100
0010
0001
0100
0001
1000
0010
0100
0010
1000
0001
1000
0100
0010
0001
,
1000
0100
1000
0001
0010
0001
0100
0010
0100
0001
1000
0010
1000
0001
0100
0010
,
0100
0001
1000
0010
0100
0010
1000
0001
0100
0010
0000
1000
0010
0000
0100
0010
,
0100
0001
1000
0010
1000
0001
0100
0010
1000
0001
0010
0001
0100
0010
0100
0001
,
1000
0010
1000
0100
0010
0001
1000
0100
1000
0001
0010
0001
0100
0010
1000
0010
,
0100
0001
1000
0001
0100
0010
0100
0001
1000
0100
1000
0010
0100
0001
1000
0100
,
1000
0001
0010
0001
0100
0010
1000
0010
0100
0001
1000
0001
0010
0100
1000
0001
,
0010
0001
0100
0010
0100
0001
1000
0010
1000
0100
0010
0001
1000
0100
1000
0001
,
0100
0010
0100
0001
1000
0010
1000
0100
0010
0001
0100
0001
1000
0010
0100
0001
,
0100
0010
1000
0001
1000
0100
0010
0001
1000
0100
1000
0001
0010
0001
0100
0010
,
0100
0000
0000
0001
0000
0000
1000
0000
0000
0100
0000
0000
1000
0000
0000
0001
0000
0000
0010
0000
0000
0100
0000
0000
1000
0000
0000
0010
0000
0000
0100
0000
0000
0001
0000
0000
0100
0000
0010
0000
1000
0000
0001
0000
0100
0000
0000
0000
,
0101
1010
1001
1100
0110
0011
1001
2002
,
0000
0000
0000
0000
0000
0000
0000
0000
0000
0000
0000
0000
0000
0000
0000
3003
,
0000
0000
0000
0000
,
0000
0000
0000
0000
,
0000
0000
0000
0000
,
0000
0000
0000
0000
,
0000
0000
0000
0000
,
0000
0000
0000
0000
,
0000
0000
0000
0000
,
0000
0000
0000
0000
;

//---------------dance-single - owenviau1----------------
#NOTES:
     dance-single:
     owenviau1:
     Challenge:
     18:
     1.000,1.000,0.186,0.251,1.000,2243.000,40.000,54.000,0.000,0.000:
1000
0100
0010
0001
0000
0000
1000
0000
,
0010
0100
0001
1000
0000
0000
0001
0000
,
0010
0000
0100
1000
0000
0001
0100
0000
,
0010
0000
0000
0000
1000
0000
0000
0000
0100
0000
0010
0001
1000
0000
0010
0000
,
1020
1030
0200
0310
0002
1003
0020
1030
,
0002
0103
0020
0130
0002
1003
0020
0130
,
0201
0301
2000
3010
0120
0130
0002
1003
,
2010
0000
3010
0000
0120
0000
0130
0000
0002
1003
0000
0001
0200
0000
0310
0000
,
2000
0000
3004
0000
0023
0000
0130
1000
0001
0100
0010
0100
0002
0000
0000
0000
,
1003
0100
0010
0001
0100
0010
1000
0010
0100
0001
1000
0001
0010
0100
1000
0001
,
0100
0001
1000
0010
0100
0001
0100
0010
1000
0001
1000
0100
0010
0001
1000
0100
,
1000
0010
0100
0001
0100
0010
1000
0001
1000
0100
0010
0001
0100
0001
1000
0010
,
0100
0001
0100
0010
1000
0001
1000
0100
0010
0001
1000
0100
1000
0001
0010
0001
,
0100
0010
0100
0001
1000
0010
1000
0001
0100
0001
1000
0010
0100
0010
1000
0001
,
0010
0001
0100
0010
0100
0001
1000
0010
1000
0100
0010
0001
1000
0100
1000
0010
,
0100
0001
0100
0010
1000
0010
0100
0001
1000
0001
0010
0100
1000
0001
0010
0001
,
0100
0010
1000
0001
0010
0100
1000
0001
0100
0010
0000
0100
0001
0000
1000
0000
,
0010
0100
0010
1000
0001
0100
0001
0010
0100
1000
0001
0010
0001
0100
0010
0100
,
0001
1000
0010
1000
0100
0010
0001
1000
0100
1000
0001
0010
0001
0100
0010
1000
,
0010
0100
0001
1000
0001
0100
0010
0100
0001
1000
0100
1000
0010
0100
0001
1000
,
0100
1000
0001
0010
0100
1000
0001
0010
0001
0100
0010
0100
0001
1000
0010
1000
,
0001
0100
0010
1000
0010
0100
0001
1000
0100
1000
0010
0100
0001
0100
0010
1000
,
0001
0100
0010
1000
0010
0100
0001
1000
0001
0010
0100
1000
0001
0010
0001
0100
,
0010
0100
0001
1000
0010
1000
0100
0010
0001
1000
0100
1000
0010
0100
0001
0100
,
0010
1000
0001
1000
0100
0010
0001
1000
0010
0100
0000
0001
0100
0000
0010
0000
,
1000
0000
0001
0000
0010
0000
0100
0000
1000
0010
1000
0001
0100
0010
0100
0001
,
1000
0100
0010
0001
0100
0001
1000
0010
0100
0010
1000
0001
0100
0001
0010
0100
,
1000
0001
0010
0001
0100
0010
0100
0001
1000
0010
1000
0100
0010
0001
0100
0001
,
1000
0010
0100
0010
1000
0001
0010
0001
0100
0010
0100
0001
1000
0010
1000
0100
,
0010
0001
1000
0100
1000
0001
0010
0001
0100
0010
1000
0010
0100
0001
1000
0001
,
0100
0010
0100
0001
1000
0010
1000
0100
0010
0001
1000
0100
1000
0001
0100
0010
,
0100
0001
1000
0100
1000
0001
0010
0100
1000
0000
0001
0000
0000
0000
1000
0000
,
0010
0100
0010
1000
0001
0100
0001
0010
0100
1000
0001
0010
0001
0100
0010
0100
,
0001
1000
0010
1000
0100
0010
0001
1000
0100
1000
0010
0100
0001
0100
0010
1000
,
0001
1000
0100
0010
0001
1000
0100
1000
0010
0100
0010
1000
0001
0100
0001
0010
,
0100
1000
0001
0010
0001
0100
0010
0100
0001
1000
0100
1000
0010
0100
0001
1000
,
0001
0100
0010
0100
0001
1000
0100
1000
0010
0100
0010
1000
0001
0100
0001
0010
,
0100
1000
0001
0010
0001
0100
0010
1000
0010
0100
0001
1000
0001
0100
0010
0100
,
0001
1000
0100
0010
0001
1000
0100
1000
0001
0010
0100
1000
0001
0010
0001
0100
,
0010
1000
0010
0100
0001
1000
0001
0100
0010
0100
0001
1000
0100
1000
0010
0100
,
0001
1000
0100
1000
0010
0100
0001
0100
0010
1000
0001
1000
0100
0010
0001
0000
,
0101
0000
0100
0000
0000
0000
0110
0000
0010
1000
0000
0001
0100
0000
0010
0000
,
0000
1010
1000
0000
1001
0001
0200
0000
,
0310
1000
0001
0100
0010
0100
0001
1000
0010
1000
0100
0010
0001
1000
0100
1000
,
0010
0100
0001
0100
0010
1000
0001
1000
0100
0010
0001
0100
0010
1000
0010
0100
,
0001
1000
0001
0100
0010
1000
0010
0100
0001
1000
0001
0010
0100
1000
0010
0100
,
0010
1000
0001
0100
0001
0010
0100
1000
0001
0010
0001
0100
0010
1000
0010
0100
,
0001
1000
0001
0100
0010
0100
0001
1000
0100
1000
0010
0100
0001
0100
0010
1000
,
0001
1000
0100
0010
0001
1000
0100
1000
0010
0100
0001
1000
0010
0100
0010
1000
,
0001
0100
0001
0010
0100
1000
0001
0010
0001
0100
0010
0100
0001
1000
0010
1000
,
0100
0000
0000
0010
0000
0000
0001
0000
0000
1000
0000
0000
0010
0000
0000
1000
0000
0000
0001
0000
0000
0100
0000
0000
0010
0000
0000
1000
0000
0000
0000
0000
0000
0001
0000
0000
0100
0000
0000
0000
0000
0000
0010
0000
0100
0000
0010
0000
,
0100
0001
1000
0001
0100
0010
1000
0010
0100
0001
0100
0010
1000
0001
1000
0100
,
0010
0001
1000
0100
1000
0001
0010
0001
0100
0010
1000
0010
0100
0001
1000
0001
,
0100
0010
1000
0010
0100
0001
1000
0001
0010
0100
1000
0001
0010
0001
0100
0010
,
0100
0001
1000
0010
1000
0100
0010
0001
1000
0100
1000
0010
0100
0001
0100
0010
,
1000
0001
1000
0100
0010
0001
1000
0100
1000
0010
0100
0001
0100
0010
1000
0001
,
1000
0100
0010
0001
0100
0001
1000
0010
0100
0010
1000
0001
1000
0100
0010
0001
,
1000
0100
1000
0001
0010
0001
0100
0010
0100
0001
1000
0010
1000
0001
0100
0010
,
0100
0001
1000
0010
0100
0010
1000
0001
0100
0010
0000
1000
0010
0000
0100
0000
,
0001
1000
0010
0100
0010
1000
0001
0100
0001
1000
0020
0000
0130
0001
1000
0001
,
0010
0000
0100
0000
1000
0000
0001
0000
1000
0000
0010
0000
0100
0000
0001
0000
0100
0000
0010
0000
1000
0000
0001
0000
1000
0000
0100
0000
0010
0000
0001
0000
1000
0000
0010
0000
1000
0000
0000
0001
0000
0000
0100
0000
0000
0010
0000
0000
,
0100
0001
1000
0001
0010
0100
2000
0000
,
3001
0010
0001
0100
0010
1000
0010
0100
0001
1000
0001
0100
0010
0100
0001
1000
,
0010
1000
0100
0010
0001
1000
0100
1000
0001
0010
0001
0100
0010
1000
0010
0100
,
0001
1000
0001
0100
0010
1000
0010
0100
0001
1000
0001
0010
0100
1000
0100
0010
,
0001
1000
0010
1000
0001
0100
0010
1000
0010
0100
0001
1000
0001
0010
0100
1000
,
0001
0010
0001
0100
0010
0100
0001
1000
0100
1000
0010
0100
0001
0100
0010
1000
,
0001
1000
0100
0010
0001
1000
0100
1000
0010
0100
0010
1000
0001
0100
0001
1000
,
0010
0100
0001
0100
0010
1000
0001
1000
0100
0010
0001
1000
0100
1000
0001
0010
,
0001
0000
0000
0100
0000
0000
0010
0000
0000
1000
0000
0000
0010
0000
0000
0100
0000
0000
0001
0000
0000
1000
0000
0000
0001
0000
0000
0010
0000
0000
0000
0000
0000
0100
0000
0000
1000
0000
0000
0000
0000
0000
0001
0000
0100
0000
0001
0000
,
0100
0010
1000
0001
0100
0001
0010
0100
1000
0001
0010
0001
0100
0010
0100
0001
,
1000
0010
1000
0100
0010
0001
1000
0100
1000
0001
0010
0001
0100
0010
1000
0010
,
0100
0001
1000
0001
0100
0010
0100
0001
1000
0100
1000
0010
0100
0001
1000
0100
,
1000
0001
0010
0001
0100
0010
1000
0010
0100
0001
1000
0001
0010
0100
1000
0001
,
0010
0001
0100
0010
0100
0001
1000
0010
1000
0100
0010
0001
1000
0100
1000
0001
,
0100
0010
0100
0001
1000
0010
1000
0100
0010
0001
0100
0001
1000
0010
0100
0001
,
0100
0010
1000
0001
1000
0100
0010
0001
1000
0100
1000
0001
0010
0001
0100
0010
,
0100
0000
0000
0001
0000
0000
1000
0000
0000
0100
0000
0000
1000
0000
0000
0001
0000
0000
0010
0000
0000
0100
0000
0000
1000
0000
0000
0010
0000
0000
0100
0000
0000
0001
0000
0000
0100
0000
0010
0000
1000
0000
0001
0000
0100
0000
0000
0000
,
0101
1010
1001
1100
0110
0011
1001
2002
,
0000
0000
0000
3000
1003
0010
0200
0301
,
1001
1000
0010
0100
0010
1000
0001
0100
,
0001
0010
0100
1000
0001
0100
0001
1000
,
1010
0010
0100
0001
1001
1000
0010
0100
,
0101
0000
0001
0000
1001
0000
1000
0000
1000
0010
0000
0100
0001
0000
1000
0000
,
0002
0000
0403
0000
0320
0000
1030
0001
0100
0001
1000
0010
0200
0000
0000
0000
,
0301
1000
0010
1000
0100
0010
0001
0100
0010
0100
0001
1000
0010
1000
0100
0010
,
0001
0100
0001
1000
0010
0100
0001
0100
0010
1000
0001
1000
0100
0010
0001
1000
,
0100
1000
0001
0010
0001
0100
0010
1000
0010
0100
0001
1000
0001
0100
0010
0100
,
0001
1000
0100
0010
0001
1000
0100
1000
0010
0100
0010
1000
0001
0100
0001
0010
,
0100
1000
0001
0010
0001
0100
0010
1000
0010
0100
0001
1000
0001
0100
0010
0100
,
0001
1000
0100
1000
0010
0100
0001
1000
0001
0010
0100
1000
0001
0010
0001
0100
,
0010
0100
0001
1000
0010
1000
0100
0010
0001
1000
0100
1000
0010
0100
0001
0000
,
1002
0003
2000
3000
0020
0030
0200
0300
0002
0000
0203
0000
0320
0000
2000
0030
,
3001
0010
0100
1000
0001
0100
0010
0100
0001
1000
0010
1000
0100
0010
0001
1000
,
0100
1000
0010
0100
0001
0100
0010
1000
0001
0100
0001
1000
0100
0010
0001
0010
,
0100
1000
0001
0010
0001
0100
0010
1000
0010
0100
0001
1000
0100
1000
0010
0100
,
0001
1000
0100
1000
0001
0010
0001
0100
0010
0100
0001
1000
0010
0100
0001
0100
,
0010
1000
0001
1000
0100
0010
0001
1000
0100
1000
0010
0100
0001
0100
0010
1000
,
0001
1000
0100
0010
0001
1000
0100
1000
0010
0100
0010
1000
0001
0100
0001
0010
,
0100
1000
0001
0010
0001
0100
0010
0100
0001
1000
0010
1000
0100
0010
0001
1000
,
0100
1000
0010
0100
0001
0100
0010
1000
0001
0010
0100
1000
0001
0000
0100
0000
,
0040
0000
2030
3000
0002
0003
0200
0300
0020
0030
0200
0300
0002
0003
2000
3000
,
0010
0100
0010
1000
0001
0100
0001
1000
0010
0100
0001
0100
0010
1000
0001
1000
,
0100
0010
0001
1000
0100
1000
0001
0010
0001
0100
0010
0100
0001
1000
0010
1000
,
0100
0010
0001
1000
0100
1000
0010
0100
0001
0100
0010
1000
0001
1000
0100
0010
,
0001
1000
0100
1000
0010
0100
0010
1000
0001
0100
0001
0010
0100
1000
0001
0010
,
0001
0100
0010
0100
0001
1000
0100
1000
0010
0100
0001
0100
0010
1000
0001
1000
,
0100
0010
0001
1000
0100
1000
0010
0100
0001
0100
0010
1000
0001
1000
0100
0010
,
0001
1000
0100
1000
0010
0100
0001
1000
0001
0010
0100
1000
0001
0010
0001
0100
,
0010
0100
0001
1000
0010
1000
0100
0010
0001
1000
0100
1000
0010
0100
0001
1000
,
0001
0010
0100
1000
0001
0010
0001
0100
0010
1000
0001
0100
0001
1000
0100
0010
,
0001
0100
0001
1000
0010
0100
0001
0100
0010
1000
0100
1000
0001
0010
0001
0100
,
0010
1000
0010
0100
0001
1000
0001
0010
0100
1000
0001
0100
0001
1000
0010
0100
,
0001
0100
0010
1000
0001
0010
0100
1000
0001
0010
0001
0100
0010
0100
0001
1000
,
0010
1000
0100
0010
0001
1000
0100
1000
0010
0100
0001
0100
0010
1000
0001
1000
,
0100
0010
0001
1000
0100
1000
0010
0100
0010
1000
0001
0100
0001
1000
0100
0010
,
0001
1000
0010
0100
0010
1000
0001
0100
0001
0010
0100
1000
0010
1000
0001
0000
,
1001
0000
1000
0100
0010
0000
0011
0000
0001
1000
0010
0000
1100
0000
1000
0000
,
0000
1001
0001
0000
0110
0100
0002
0000
,
1003
0100
0010
0001
0100
0010
1000
0010
0100
0001
1000
0001
0010
0100
1000
0001
,
0100
0001
1000
0010
0100
0001
0100
0010
1000
0001
1000
0100
0010
0001
1000
0100
,
1000
0010
0100
0001
0100
0010
1000
0001
1000
0100
0010
0001
0100
0001
1000
0010
,
0100
0001
0100
0010
1000
0001
1000
0100
0010
0001
1000
0100
1000
0001
0010
0001
,
0100
0010
0100
0001
1000
0010
1000
0001
0100
0001
1000
0010
0100
0010
1000
0001
,
0010
0001
0100
0010
0100
0001
1000
0010
1000
0100
0010
0001
1000
0100
1000
0010
,
0100
0001
0100
0010
1000
0010
0100
0001
1000
0001
0010
0100
1000
0001
0010
0001
,
0100
0000
0000
0010
0000
0000
1000
0000
0000
0001
0000
0000
0010
0000
0000
0100
0000
0000
1000
0000
0000
0001
0000
0000
0100
0000
0000
0010
0000
0000
0000
0000
0000
0100
0000
0000
0001
0000
0000
0000
0000
0000
1000
0000
0010
0000
1000
0000
,
0010
0100
0001
1000
0010
1000
0001
0010
0100
1000
0001
0010
0001
0100
0010
0100
,
0001
1000
0010
1000
0100
0010
0001
1000
0100
1000
0001
0010
0001
0100
0010
1000
,
0010
0100
0001
1000
0001
0100
0010
0100
0001
1000
0100
1000
0010
0100
0001
1000
,
0100
1000
0001
0010
0100
1000
0001
0010
0001
0100
0010
0100
0001
1000
0010
1000
,
0001
0100
0010
1000
0010
0100
0001
1000
0100
1000
0010
0100
0001
0100
0010
1000
,
0001
0100
0010
1000
0010
0100
0001
1000
0001
0010
0100
1000
0001
0010
0001
0100
,
0010
0100
0001
1000
0010
1000
0100
0010
0001
1000
0100
1000
0010
0100
0001
0100
,
0010
1000
0001
1000
0100
0010
0001
1000
0010
0100
0000
0001
0100
0000
0010
0000
,
1000
0001
0100
0010
0100
0001
1000
0010
1000
0001
0020
0000
0130
1000
0001
1000
,
0010
0000
0100
0000
0010
0000
1000
0000
0001
0000
0100
0000
0001
0000
0010
0000
0100
0000
1000
0000
0001
0000
0010
0000
0001
0000
0100
0000
0010
0000
0100
0000
0001
0000
1000
0000
0010
0000
0000
0100
0000
0000
0001
0000
0000
0000
0000
0000
,
2000
3000
0200
0300
0020
0030
0002
0003
2000
3000
0004
0000
0203
0300
0020
0030
,
1000
0001
0100
0001
0010
0100
1000
0010
0100
0001
0100
0010
1000
0001
1000
0100
,
0010
0001
1000
0100
1000
0001
0010
0001
0100
0010
1000
0010
0100
0001
1000
0001
,
0100
0010
1000
0010
0100
0001
1000
0001
0010
0100
1000
0001
0010
0001
0100
0010
,
0100
0001
1000
0010
1000
0100
0010
0001
1000
0100
1000
0010
0100
0001
0100
0010
,
1000
0001
1000
0100
0010
0001
1000
0100
1000
0010
0100
0001
0100
0010
1000
0001
,
1000
0100
0010
0001
0100
0001
1000
0010
0100
0010
1000
0001
1000
0100
0010
0001
,
1000
0100
1000
0001
0010
0001
0100
0010
0100
0001
1000
0010
1000
0001
0100
0010
,
0100
0001
1000
0010
0100
0010
1000
0001
0100
0010
0000
1000
0010
0000
0100
0010
,
0100
0001
1000
0010
1000
0001
0100
0010
1000
0001
0010
0001
0100
0010
0100
0001
,
1000
0010
1000
0100
0010
0001
1000
0100
1000
0001
0010
0001
0100
0010
1000
0010
,
0100
0001
1000
0001
0100
0010
0100
0001
1000
0100
1000
0010
0100
0001
1000
0100
,
1000
0001
0010
0001
0100
0010
1000
0010
0100
0001
1000
0001
0010
0100
1000
0001
,
0010
0001
0100
0010
0100
0001
1000
0010
1000
0100
0010
0001
1000
0100
1000
0001
,
0100
0010
0100
0001
1000
0010
1000
0100
0010
0001
0100
0001
1000
0010
0100
0001
,
0100
0010
1000
0001
1000
0100
0010
0001
1000
0100
1000
0001
0010
0001
0100
0010
,
0100
0000
0000
0001
0000
0000
1000
0000
0000
0100
0000
0000
1000
0000
0000
0001
0000
0000
0010
0000
0000
0100
0000
0000
1000
0000
0000
0010
0000
0000
0100
0000
0000
0001
0000
0000
0100
0000
0010
0000
1000
0000
0001
0000
0100
0000
0000
0000
,
0101
1010
1001
1100
0110
0011
1001
2002
,
0000
0000
0000
0000
0000
0000
0000
0000
0000
0000
0000
0000
0000
0000
0000
3003
,
0000
0000
0000
0000
,
0000
0000
0000
0000
,
0000
0000
0000
0000
,
0000
0000
0000
0000
,
0000
0000
0000
0000
,
0000
0000
0000
0000
,
0000
0000
0000
0000
,
0000
0000
0000
0000
;
